<svg xmlns="http://www.w3.org/2000/svg"><defs><font horiz-adv-x="448"><font-face ascent="448" bbox="-0.54049 -64 512.487 448" descent="-64" panose-1="2 0 6 3 0 0 0 0 0 0" underline-position="-51.2" underline-thickness="25.6" unicode-range="U+F100-F4F7" units-per-em="512"/><missing-glyph/><glyph d="M445 26c3-5 5-13 2-18s-8-8-14-8h-418c-6 0-11 3-14 8s-1 13 2 18l207 349c3 5 8 9 14 9s11-4 14-9zM256 48v48h-64v-48h64zM256 128v144h-64v-144h64z" glyph-name="ion-alert-circled" unicode="&#xf100;"/><glyph d="M128-32h-128v96h128v-96zM112 128h-96l-16 288h128z" glyph-name="ion-alert" horiz-adv-x="128" unicode="&#xf101;"/><glyph d="M208 400c115 0 208-93 208-208s-93-208-208-208-208 93-208 208 93 208 208 208zM315 171v42h-86v86h-42v-86h-86v-42h86v-86h42v86h86z" glyph-name="ion-android-add-circle" horiz-adv-x="416" unicode="&#xf359;"/><glyph d="M320 171h-139v-139h-42v139h-139v42h139v139h42v-139h139v-42z" glyph-name="ion-android-add" horiz-adv-x="320" unicode="&#xf2c7;"/><glyph d="M428 323l-28-33-98 82 28 33zM125 373l-97-83-28 33 97 83zM225 275v0-111l85-50-16-27-101 61v127h32zM214 360c106 0 193-86 193-191s-87-191-193-191c-107 0-193 86-193 191s86 191 193 191zM214 20c82 0 150 66 150 149 0 82-68 149-150 149s-150-67-150-149 68-149 150-149z" glyph-name="ion-android-alarm-clock" horiz-adv-x="428" unicode="&#xf35a;"/><glyph d="M208 400c114 0 208-94 208-208s-94-208-208-208-208 94-208 208 94 208 208 208zM232 88v40h-48v-40h48zM232 176v128h-48v-128h48z" glyph-name="ion-android-alert" horiz-adv-x="416" unicode="&#xf35b;"/><glyph d="M0 272v80h80v-80h-80zM120 32v80h80v-80h-80zM0 32v80h80v-80h-80zM0 152v80h80v-80h-80zM120 152v80h80v-80h-80zM240 352h80v-80h-80v80zM120 272v80h80v-80h-80zM240 152v80h80v-80h-80zM240 32v80h80v-80h-80z" glyph-name="ion-android-apps" horiz-adv-x="320" unicode="&#xf35c;"/><glyph d="M406 348c7-7 10-17 10-29v-289c0-25-21-46-46-46h-324c-25 0-46 21-46 46v289c0 12 3 22 10 29l33 39c6 8 16 13 26 13h278c10 0 20-5 26-13zM208 65l127 127h-81v46h-92v-46h-81zM49 354h317l-22 23h-277z" glyph-name="ion-android-archive" horiz-adv-x="416" unicode="&#xf2c9;"/><glyph d="M342 213v-42h-260l119-120-30-30-171 171 171 171 31-30-120-120h260z" glyph-name="ion-android-arrow-back" horiz-adv-x="342" unicode="&#xf2ca;"/><glyph d="M192 363v-260l120 120 30-31-171-171-171 171 30 30 120-119v260h42z" glyph-name="ion-android-arrow-down" horiz-adv-x="342" unicode="&#xf35d;"/><glyph d="M208 400c115 0 208-93 208-208s-93-208-208-208-208 93-208 208 93 208 208 208zM208 128l96 96h-192z" glyph-name="ion-android-arrow-dropdown-circle" horiz-adv-x="416" unicode="&#xf35e;"/><glyph d="M0 256h256l-128-128z" glyph-name="ion-android-arrow-dropdown" horiz-adv-x="256" unicode="&#xf35f;"/><glyph d="M416 192c0-115-93-208-208-208s-208 93-208 208 93 208 208 208 208-93 208-208zM144 192l96-96v192z" glyph-name="ion-android-arrow-dropleft-circle" horiz-adv-x="416" unicode="&#xf360;"/><glyph d="M128 320v-256l-128 128z" glyph-name="ion-android-arrow-dropleft" horiz-adv-x="128" unicode="&#xf361;"/><glyph d="M208-16c-115 0-208 93-208 208s93 208 208 208 208-93 208-208-93-208-208-208zM176 96l96 96-96 96v-192z" glyph-name="ion-android-arrow-dropright-circle" horiz-adv-x="416" unicode="&#xf362;"/><glyph d="M0 320l128-128-128-128v256z" glyph-name="ion-android-arrow-dropright" horiz-adv-x="128" unicode="&#xf363;"/><glyph d="M416 192c0-115-93-208-208-208s-208 93-208 208 93 208 208 208 208-93 208-208zM304 160l-96 96-96-96h192z" glyph-name="ion-android-arrow-dropup-circle" horiz-adv-x="416" unicode="&#xf364;"/><glyph d="M0 128l128 128 128-128h-256z" glyph-name="ion-android-arrow-dropup" horiz-adv-x="256" unicode="&#xf365;"/><glyph d="M0 171v42h260l-119 120 30 30 171-171-171-171-31 30 120 120h-260z" glyph-name="ion-android-arrow-forward" horiz-adv-x="342" unicode="&#xf30f;"/><glyph d="M192 21h-42v260l-120-119-30 30 171 171 171-171-30-31-120 120v-260z" glyph-name="ion-android-arrow-up" horiz-adv-x="342" unicode="&#xf366;"/><glyph d="M203 320h32v-235c0-65-53-117-118-117s-117 52-117 117v246c0 47 38 85 85 85s86-38 86-85v-246c0-30-24-53-54-53s-53 23-53 53v203h32v-203c0-12 9-21 21-21s22 9 22 21v246c0 30-24 53-54 53s-53-23-53-53v-246c0-47 38-85 85-85s86 38 86 85v235z" glyph-name="ion-android-attach" horiz-adv-x="235" unicode="&#xf367;"/><glyph d="M171 171l-171 170v43h384v-43l-171-170v-131h107v-40h-256v40h107v131zM96 299h192l43 42h-278z" glyph-name="ion-android-bar" horiz-adv-x="384" unicode="&#xf368;"/><glyph d="M299 317c-19 0-34 14-34 33s15 34 34 34 33-15 33-34-14-33-33-33zM355 187c51 0 93-43 93-94s-42-93-93-93-94 42-94 93 43 94 94 94zM355 28c36 0 65 29 65 65s-29 66-65 66-66-30-66-66 30-65 66-65zM274 224l-30 45-43-45 39-32v-112h-32v86l-61 38c-9 6-19 15-19 27 0 8 3 17 9 23l72 69c6 6 14 9 22 9 11 0 22-7 28-16l34-60h59v-32h-78zM93 187c51 0 94-43 94-94s-43-93-94-93-93 42-93 93 42 94 93 94zM93 28c36 0 66 29 66 65s-30 66-66 66-65-30-65-66 29-65 65-65z" glyph-name="ion-android-bicycle" unicode="&#xf369;"/><glyph d="M52 35l-51 139c-2 6-1 12 1 17s8 8 13 10l38 13v98c0 23 20 43 43 43h64l16 53h96l16-53h64c23 0 43-20 43-43v-98l38-13c5-2 11-5 13-10s3-12 1-17l-51-139h-1c-34 0-65 20-86 43-21-23-51-43-85-43s-64 19-85 42c-21-23-52-42-86-42h-1zM96 312v-84l128 41 128-41v84h-256zM309 40c0 0 59-64 107-64h-21c-30 0-59 12-86 26-53-28-117-28-170 0-27-14-56-26-86-26h-21c49 0 107 64 107 64 52-36 118-36 170 0z" glyph-name="ion-android-boat" unicode="&#xf36a;"/><glyph d="M248 384c22 0 40-18 40-40v-344l-144 64-144-64v344c0 22 18 40 40 40h208z" glyph-name="ion-android-bookmark" horiz-adv-x="288" unicode="&#xf36b;"/><glyph d="M224 278c-25 0-50-10-68-28s-28-43-28-68c0-34 18-66 48-83l16-10v-18-71h64v71 18l16 10c15 8 27 20 35 34 9 15 13 31 13 49 0 25-10 50-28 68s-43 28-68 28zM245 416v0-64h-42v64h42zM374 362v0l30-30-38-38-30 30zM74 362v0l38-38-30-30-38 38zM224 310v0c70 0 128-58 128-128 0-48-26-89-64-111v-103h-128v103c-38 22-64 64-64 111 0 70 58 128 128 128zM448 203v0-42h-64v42h64zM64 203v0-42h-64v42h64z" glyph-name="ion-android-bulb" unicode="&#xf36c;"/><glyph d="M0 96v204c0 75 82 84 176 84s176-9 176-84v-204c0-18-14-24-27-36v-39c0-12-9-21-21-21h-21c-12 0-22 9-22 21v22h-170v-22c0-12-10-21-22-21h-21c-12 0-21 9-21 21v39c-13 12-27 17-27 36zM80 80c18 0 32 14 32 32s-14 32-32 32-32-14-32-32 14-32 32-32zM272 80c18 0 32 14 32 32s-14 32-32 32-32-14-32-32 14-32 32-32zM304 203v106h-256v-106h256z" glyph-name="ion-android-bus" horiz-adv-x="352" unicode="&#xf36d;"/><glyph d="M304 176v-96h-96v96h96zM272 384h48v-32h24c22 0 40-18 40-40v-272c0-22-18-40-40-40h-304c-22 0-40 18-40 40v272c0 22 18 40 40 40h24v32h48v-32h160v32zM344 40v212h-304v-212h304z" glyph-name="ion-android-calendar" horiz-adv-x="384" unicode="&#xf2d1;"/><glyph d="M363 117c12 0 21-9 21-21v-75c0-12-9-21-21-21-201 0-363 162-363 363 0 12 9 21 21 21h75c12 0 21-9 21-21 0-27 4-52 13-77 2-7 0-16-5-21l-47-47c31-61 80-110 141-141l47 47c5 6 14 7 21 5 23-7 49-12 76-12z" glyph-name="ion-android-call" horiz-adv-x="384" unicode="&#xf2d2;"/><glyph d="M161 168c0 42 21 63 63 63s63-21 63-63-21-63-63-63-63 21-63 63zM408 352c11 0 20-4 28-12s12-17 12-28v-272c0-11-4-20-12-28s-17-12-28-12h-368c-11 0-20 4-28 12s-12 17-12 28v272c0 11 4 20 12 28s17 12 28 12h88l32 32h128l32-32h88zM224 56c31 0 57 11 79 33s33 48 33 79-11 57-33 79-48 33-79 33-57-11-79-33-33-48-33-79 11-57 33-79 48-33 79-33z" glyph-name="ion-android-camera" unicode="&#xf2d3;"/><glyph d="M208 400c115 0 208-93 208-208s-93-208-208-208-208 93-208 208 93 208 208 208zM312 117l-75 75 75 75-29 29-75-75-75 75-29-29 75-75-75-75 29-29 75 75 75-75z" glyph-name="ion-android-cancel" horiz-adv-x="416" unicode="&#xf36e;"/><glyph d="M339 331l45-118v-160c0-12-9-21-21-21h-22c-12 0-21 9-21 21v11h-256v-11c0-12-9-21-21-21h-22c-12 0-21 9-21 21v160l45 118c4 13 16 21 30 21h234c14 0 26-8 30-21zM75 128c18 0 32 14 32 32s-14 32-32 32-32-14-32-32 14-32 32-32zM309 128c18 0 32 14 32 32s-14 32-32 32-32-14-32-32 14-32 32-32zM43 235h298l-32 85h-234z" glyph-name="ion-android-car" horiz-adv-x="384" unicode="&#xf36f;"/><glyph d="M122 70c23 0 41-18 41-41s-18-42-41-42-42 19-42 42 19 41 42 41zM0 397h68l19-42h308c11 0 21-9 21-20 0-4-1-8-2-10l-75-129c-7-14-20-22-36-22h-155l-21-32s-2-5-2-6c0-3 2-5 5-5h238v-40h-243c-26 0-45 14-45 42 0 7 2 15 5 20l31 51-74 151h-42v42zM326 70c23 0 42-18 42-41s-19-42-42-42-41 19-41 42 18 41 41 41z" glyph-name="ion-android-cart" horiz-adv-x="416" unicode="&#xf370;"/><glyph d="M344 384c4 0 7-4 7-8v-214c0-4-3-9-7-9h-187l-90-89v89h-57c-4 0-10 5-10 9v214c0 4 6 8 10 8h334zM408 321c4 0 8-5 8-9v-214c0-4-4-9-8-9h-57v-89l-90 89h-130l39 39h181c18 0 25 10 25 26v167h32z" glyph-name="ion-android-chat" horiz-adv-x="416" unicode="&#xf2d4;"/><glyph d="M341 384c23 0 43-20 43-43v-298c0-23-20-43-43-43h-298c-23 0-43 20-43 43v298c0 23 20 43 43 43h298z" glyph-name="ion-android-checkbox-blank" horiz-adv-x="384" unicode="&#xf371;"/><glyph d="M341 341h-298v-298h298v298zM341 384v0c23 0 43-20 43-43v-298c0-23-20-43-43-43h-298c-23 0-43 20-43 43v298c0 23 20 43 43 43h298z" glyph-name="ion-android-checkbox-outline-blank" horiz-adv-x="384" unicode="&#xf372;"/><glyph d="M105 233l66-66 183 183 30-30-213-213-96 96zM341 43v170h43v-170c0-23-20-43-43-43h-298c-23 0-43 20-43 43v298c0 23 20 43 43 43h213v-43h-213v-298h298z" glyph-name="ion-android-checkbox-outline" horiz-adv-x="384" unicode="&#xf373;"/><glyph d="M341 384c23 0 43-20 43-43v-298c0-23-20-43-43-43h-298c-23 0-43 20-43 43v298c0 23 20 43 43 43h298zM149 85l192 192-30 30-162-162-76 77-30-30z" glyph-name="ion-android-checkbox" horiz-adv-x="384" unicode="&#xf374;"/><glyph d="M123 232l64-64 179 178 29-29-208-208-93 93zM374 192h42c0-114-94-208-208-208s-208 94-208 208 94 208 208 208c28 0 54-6 78-16l-32-32c-15 4-30 6-46 6-92 0-166-74-166-166s74-166 166-166 166 74 166 166z" glyph-name="ion-android-checkmark-circle" horiz-adv-x="416" unicode="&#xf375;"/><glyph d="M341 368c23 0 43-20 43-43v-314c0-23-20-43-43-43h-298c-23 0-43 20-43 43v314c0 23 20 43 43 43h87c7 28 32 48 62 48s55-20 62-48h87zM192 368c-12 0-21-9-21-21s9-22 21-22 21 10 21 22-9 21-21 21zM344 8v320h-40v-72h-224v72h-40v-320h304z" glyph-name="ion-android-clipboard" horiz-adv-x="384" unicode="&#xf376;"/><glyph d="M298 311l-119-119 119-119-30-30-119 119-119-119-30 30 119 119-119 119 30 30 119-119 119 119z" glyph-name="ion-android-close" horiz-adv-x="298" unicode="&#xf2d7;"/><glyph d="M208 400c114 0 208-94 208-208s-94-208-208-208-208 94-208 208 94 208 208 208zM302 109c29 0 52 23 52 52s-23 52-52 52h-11c0 46-37 83-83 83-38 0-71-26-80-62h-3c-34 0-63-29-63-63s29-62 63-62h177z" glyph-name="ion-android-cloud-circle" horiz-adv-x="416" unicode="&#xf377;"/><glyph d="M387 231c52-3 93-46 93-99 0-55-45-100-100-100h-260c-66 0-120 54-120 120 0 62 47 113 107 119 25 48 75 81 133 81 73 0 133-52 147-121zM197 85l141 141-30 30-111-111-44 45-30-30z" glyph-name="ion-android-cloud-done" horiz-adv-x="480" unicode="&#xf378;"/><glyph d="M387 231c52-3 93-46 93-99 0-55-45-100-100-100h-260c-66 0-120 54-120 120 0 62 47 113 107 119 25 48 75 81 133 81 73 0 133-52 147-121zM380 72c33 0 60 27 60 60s-27 60-60 60h-30v10c0 61-49 110-110 110-51 0-93-34-106-80h-14c-44 0-80-36-80-80s36-80 80-80h260z" glyph-name="ion-android-cloud-outline" horiz-adv-x="480" unicode="&#xf379;"/><glyph d="M387 231c52-3 93-46 93-99 0-55-45-100-100-100h-260c-66 0-120 54-120 120 0 62 47 113 107 119 25 48 75 81 133 81 73 0 133-52 147-121z" glyph-name="ion-android-cloud" horiz-adv-x="480" unicode="&#xf37a;"/><glyph d="M192 384c106 0 192-77 192-171 0-59-48-106-107-106h-38c-18 0-32-14-32-32 0-9 3-17 8-22s9-12 9-21c0-18-14-32-32-32-106 0-192 86-192 192s86 192 192 192zM75 192c18 0 32 14 32 32s-14 32-32 32-32-14-32-32 14-32 32-32zM139 277c18 0 32 14 32 32s-14 32-32 32-32-14-32-32 14-32 32-32zM245 277c18 0 32 14 32 32s-14 32-32 32-32-14-32-32 14-32 32-32zM309 192c18 0 32 14 32 32s-14 32-32 32-32-14-32-32 14-32 32-32z" glyph-name="ion-android-color-palette" horiz-adv-x="384" unicode="&#xf37b;"/><glyph d="M224 217c13 0 25-12 25-25s-12-25-25-25-25 12-25 25 12 25 25 25zM224 416c123 0 224-101 224-224s-101-224-224-224-224 101-224 224 101 224 224 224zM273 143l85 183-183-85-85-183z" glyph-name="ion-android-compass" unicode="&#xf37c;"/><glyph d="M267 110c59-18 104-58 117-110h-384c13 52 58 92 117 110 22-13 48-20 75-20s53 7 75 20zM192 384c73 0 132-59 132-132s-59-132-132-132-132 59-132 132 59 132 132 132zM192 153c42 0 78 26 92 63h-184c14-37 50-63 92-63z" glyph-name="ion-android-contact" horiz-adv-x="384" unicode="&#xf2d8;"/><glyph d="M207 104c47-14 76-62 87-104h-294c11 42 40 90 87 104 18-10 38-16 60-16s42 6 60 16zM147 328c58 0 106-48 106-106s-48-106-106-106-106 48-106 106 48 106 106 106zM147 141c34 0 62 23 74 51h-148c12-28 40-51 74-51zM291 64c-13 20-34 43-60 53 11 9 21 23 28 35 13-5 27-8 42-8 22 0 42 6 60 16 47-14 76-54 87-96h-157zM275 248c-8 37-31 69-63 87 19 29 52 49 89 49 58 0 106-48 106-106s-48-106-106-106c-11 0-22 2-32 5 3 8 6 16 7 25 8-3 16-4 25-4 34 0 62 22 74 50h-100z" glyph-name="ion-android-contacts" unicode="&#xf2d9;"/><glyph d="M0 77v51h128v-128h-51v77h-77zM77 307v77h51v-128h-128v51h77zM256 0v128h128v-51h-77v-77h-51zM307 307h77v-51h-128v128h51v-77z" glyph-name="ion-android-contract" horiz-adv-x="384" unicode="&#xf37d;"/><glyph d="M0 80l236 236 80-80-236-236h-80v80zM378 298l-40-40-80 80 40 40c9 9 20 9 29 0l51-51c9-9 9-20 0-29z" glyph-name="ion-android-create" horiz-adv-x="384" unicode="&#xf37e;"/><glyph d="M32 43v245h256v-245c0-23-20-43-43-43h-170c-23 0-43 20-43 43zM320 352v-32h-320v32h80l27 32h106l27-32h80z" glyph-name="ion-android-delete" horiz-adv-x="320" unicode="&#xf37f;"/><glyph d="M405 416c23 0 43-20 43-43v-282c0-23-20-43-43-43h-138l42-48v-32h-170v32l42 48h-138c-23 0-43 20-43 43v282c0 23 20 43 43 43h362zM405 128v245h-362v-245h362z" glyph-name="ion-android-desktop" unicode="&#xf380;"/><glyph d="M192 400l128-128v-248c0-22-18-40-40-40h-240c-22 0-40 18-40 40v336c0 22 18 40 40 40h152zM176 256h112l-112 112v-112z" glyph-name="ion-android-document" horiz-adv-x="320" unicode="&#xf381;"/><glyph d="M388 308l-140-139-31 31 140 139zM481 339l31-31-264-263-122 123 30 31 92-91zM0 168l32 31 122-123-31-31z" glyph-name="ion-android-done-all" horiz-adv-x="512" unicode="&#xf382;"/><glyph d="M122 108l230 230 32-31-262-261-122 122 32 31z" glyph-name="ion-android-done" horiz-adv-x="384" unicode="&#xf383;"/><glyph d="M387 231c52-3 93-46 93-99 0-55-45-100-100-100h-260c-66 0-120 54-120 120 0 62 47 113 107 119 25 48 75 81 133 81 73 0 133-52 147-121zM208 180h-68l100-100 100 100h-68v76h-64v-76z" glyph-name="ion-android-download" horiz-adv-x="480" unicode="&#xf2dd;"/><glyph d="M448 246v-203c0-23-20-43-43-43h-362c-23 0-43 20-43 43v203c0 15 8 30 20 37l204 101 204-101c13-7 20-22 20-37zM224 144l171 112-171 85-171-85z" glyph-name="ion-android-drafts" unicode="&#xf384;"/><glyph d="M151 115l55 56h-206v42h207l-56 56 30 30 107-107-107-107zM341 384c23 0 43-20 43-43v-298c0-23-20-43-43-43h-298c-23 0-43 20-43 43v85h43v-85h298v298h-298v-85h-43v85c0 23 20 43 43 43h298z" glyph-name="ion-android-exit" horiz-adv-x="384" unicode="&#xf385;"/><glyph d="M333 51v77h51v-128h-128v51h77zM333 333h-77v51h128v-128h-51v77zM51 333v-77h-51v128h128v-51h-77zM51 51h77v-51h-128v128h51v-77z" glyph-name="ion-android-expand" horiz-adv-x="384" unicode="&#xf386;"/><glyph d="M302 384c64 0 114-50 114-115 0-80-71-144-178-242l-30-27-30 27c-107 98-178 162-178 242 0 65 50 115 114 115 36 0 71-17 94-44 23 27 58 44 94 44zM221 55c50 46 94 86 123 122 28 35 40 63 40 92 0 23-9 44-24 59s-35 24-58 24c-26 0-53-13-70-33l-24-29-24 29c-17 20-44 33-70 33-23 0-43-9-58-24s-24-36-24-59c0-29 12-57 40-92 29-36 73-76 123-122l4-4 9-8 9 8z" glyph-name="ion-android-favorite-outline" horiz-adv-x="416" unicode="&#xf387;"/><glyph d="M208 0l-30 27c-107 98-178 162-178 242 0 65 50 115 114 115 36 0 71-17 94-44 23 27 58 44 94 44 64 0 114-50 114-115 0-80-71-144-178-242z" glyph-name="ion-android-favorite" horiz-adv-x="416" unicode="&#xf388;"/><glyph d="M280 384h40v-384h-40v43h-40v-43h-160v43h-40v-43h-40v384h40v-43h40v43h160v-43h40v43zM80 85v43h-40v-43h40zM80 171v42h-40v-42h40zM80 256v43h-40v-43h40zM280 85v43h-40v-43h40zM280 171v42h-40v-42h40zM280 256v43h-40v-43h40z" glyph-name="ion-android-film" horiz-adv-x="320" unicode="&#xf389;"/><glyph d="M405 304c23 0 43-20 43-43v-186c0-23-20-43-43-43h-362c-23 0-43 20-43 43v234c0 23 20 43 43 43h138l43-48h181zM416 75v186c0 6-5 11-11 11h-373v-197c0-6 5-11 11-11h362c6 0 11 5 11 11z" glyph-name="ion-android-folder-open" unicode="&#xf38a;"/><glyph d="M181 352l43-48h181c23 0 43-20 43-43v-186c0-23-20-43-43-43h-362c-23 0-43 20-43 43v234c0 23 20 43 43 43h138z" glyph-name="ion-android-folder" unicode="&#xf2e0;"/><glyph d="M176 48v48h96v-48h-96zM0 336h448v-48h-448v48zM80 167v50h288v-50h-288z" glyph-name="ion-android-funnel" unicode="&#xf38b;"/><glyph d="M208 400c115 0 208-93 208-208s-93-208-208-208-208 93-208 208 93 208 208 208zM186 15c6 15 21 29 8 39-8 7-16 14-23 21-2 2-11 20-9 23 5 9 6 14 8 24 3 12-3 16-13 22-15 10-29 23-43 34-7 5-17 10-20 19s-5 20-10 28c-14 20-12 34-10 58 0 7-1 16-2 25-28-32-42-73-42-116 0-48 18-92 52-126 29-29 65-46 104-51zM334 66c23 23 39 51 47 82-8-1-19 2-19 2s-21 24-23 45c-2 22 0 39-3 57-3 16-20 31-27 46-7 14-13 28-20 42 2-1 5-2 7-3 5 1 10 2 14 2-23 16-49 25-76 29v-8l4-9-14-13-9 3-10 10-10 12-14 5c-16-2-31-7-45-13v-7c7 3 16 5 23 8 3 1 13-7 16-9-4-5-21-15-22-21 0-2 7-6 7-10 0-6-1-11-1-17 3 3 20 21 22 21 13 3 35-19 37-26s-22-24-33-34c-8-8-25-12-20-24 2-4 10-20 5-24-6-5-14 9-17 12-8 10-26 7-38 7 0-17-1-31 15-43 15-11 30-25 47-33 13-6 36 7 47-1 16-11 29-21 47-29 8-3 33-20 26-31-5-8-10-15-14-23s-13-20-20-25c-8-6-16-17-21-29 35 7 66 23 92 49z" glyph-name="ion-android-globe" horiz-adv-x="416" unicode="&#xf38c;"/><glyph d="M401 174c15-15 18-36 3-51 0 0-96-103-126-121v0c-28-21-65-34-100-34-55 0-101 36-117 85v0 1c0 1-1 2-1 3l-58 189c-5 15 2 32 17 37s30-3 35-18l34-88c1-4 2-2 2 1l-22 161c-3 15 7 30 22 33s30-8 33-23l25-138c0-2 2-2 2 0v177c0 15 13 28 28 28s28-13 28-28l8-175c0-5 3-4 4-1l23 135c2 15 16 27 31 25s27-17 25-32l-21-172c-1-12-3-30 2-36 8-9 20-9 31 2l42 42c15 15 35 13 50-2z" glyph-name="ion-android-hand" horiz-adv-x="414" unicode="&#xf2e3;"/><glyph d="M176 400c97 0 176-77 176-172 0-91-76-196-176-244v71c-97 0-176 78-176 173s79 172 176 172zM166 217v61h-62v-61h31l-21-40h31zM248 217v61h-62v-61h31l-20-40h31z" glyph-name="ion-android-hangout" horiz-adv-x="352" unicode="&#xf38d;"/><glyph d="M208 400c114 0 208-94 208-208s-93-208-208-208-208 94-208 208 93 208 208 208zM208 26c92 0 166 74 166 166s-74 166-166 166-166-74-166-166 74-166 166-166zM281 213c-18 0-31 13-31 31s13 31 31 31 31-13 31-31-13-31-31-31zM135 213c-18 0-31 13-31 31s13 31 31 31 31-13 31-31-13-31-31-31zM208 78c-49 0-89 29-106 72h212c-17-43-57-72-106-72z" glyph-name="ion-android-happy" horiz-adv-x="416" unicode="&#xf38e;"/><glyph d="M160 0h-98v192h-62l208 192 208-192h-62v-192h-98v128h-96v-128z" glyph-name="ion-android-home" horiz-adv-x="416" unicode="&#xf38f;"/><glyph d="M384 43c0-23-20-43-43-43h-298c-23 0-43 20-43 43v298c0 23 20 43 43 43h298c23 0 43-20 43-43v-298zM117 160l-74-96h298l-96 128-74-96z" glyph-name="ion-android-image" horiz-adv-x="384" unicode="&#xf2e4;"/><glyph d="M437 32h75c0-23-64-32-96-32h-320c-32 0-96 9-96 32h75c-23 0-43 20-43 43v266c0 23 20 43 43 43h362c23 0 43-20 43-43v-266c0-23-20-43-43-43zM75 341v-272h362v272h-362zM256 13c12 0 21 10 21 22s-9 21-21 21-21-9-21-21 9-22 21-22z" glyph-name="ion-android-laptop" horiz-adv-x="512" unicode="&#xf390;"/><glyph d="M344 384c22 0 40-18 40-40v-304c0-22-18-40-40-40h-304c-22 0-40 18-40 40v304c0 22 18 40 40 40h304zM240 80v48h-160v-48h160zM304 168v48h-224v-48h224zM304 256v48h-224v-48h224z" glyph-name="ion-android-list" horiz-adv-x="384" unicode="&#xf391;"/><glyph d="M224 272c44 0 80-36 80-80s-36-80-80-80-80 36-80 80 36 80 80 80zM415 213h33v-42h-33c-10-89-81-160-170-170v-33h-42v33c-89 10-160 81-170 170h-33v42h33c10 89 81 160 170 170v33h42v-33c89-10 160-81 170-170zM224 43c82 0 149 67 149 149s-67 149-149 149-149-67-149-149 67-149 149-149z" glyph-name="ion-android-locate" unicode="&#xf2e9;"/><glyph d="M280 262c22 0 40-18 40-40v-200c0-22-18-40-40-40h-240c-22 0-40 18-40 40v200c0 22 18 40 40 40h20v40c0 55 45 100 100 100s100-45 100-100v-40h20zM160 80c22 0 40 18 40 40s-18 40-40 40-40-18-40-40 18-40 40-40zM222 262v40c0 34-28 62-62 62s-62-28-62-62v-40h124z" glyph-name="ion-android-lock" horiz-adv-x="320" unicode="&#xf392;"/><glyph d="M405 368c23 0 43-20 43-43v-266c0-23-20-43-43-43h-362c-23 0-43 20-43 43v266c0 23 20 43 43 43h362zM400 277v43l-176-117-176 117v-43l176-117z" glyph-name="ion-android-mail" unicode="&#xf2eb;"/><glyph d="M373 384c6 0 11-5 11-11v-322c0-5-3-9-7-10l-121-41-128 45s-105-41-108-42-7-3-9-3c-6 0-11 5-11 11v322c0 5 3 9 7 10l121 41 128-45s103 40 108 42 7 3 9 3zM256 43v254l-128 44v-254z" glyph-name="ion-android-map" horiz-adv-x="384" unicode="&#xf393;"/><glyph d="M0 64v43h384v-43h-384zM0 171v42h384v-42h-384zM0 320h384v-43h-384v43z" glyph-name="ion-android-menu" horiz-adv-x="384" unicode="&#xf394;"/><glyph d="M316 93l58-58-58 58 58-58 34-33-24-24-95 95c-19-11-40-20-62-23v-82h-46v82c-75 10-137 76-137 153h39c0-68 58-117 121-117 20 0 40 5 57 14l-32 33c-8-3-16-5-25-5-38 0-69 31-69 69v29l-135 134 24 24 111-110v0l140-140 5-5 9-9zM273 197c0-4 0-8-1-12l-137 137v25c0 38 31 69 69 69s69-31 69-69v-150zM365 203c0-31-10-60-27-84l-27 28c9 17 15 36 15 56h39zM408 2v0l-34 33z" glyph-name="ion-android-microphone-off" horiz-adv-x="408" unicode="&#xf395;"/><glyph d="M160 128c-38 0-69 31-69 69v150c0 38 31 69 69 69s69-31 69-69v-150c0-38-31-69-69-69zM281 203h39c0-78-62-142-137-153v-82h-46v82c-75 10-137 75-137 153h39c0-69 58-116 121-116s121 47 121 116z" glyph-name="ion-android-microphone" horiz-adv-x="320" unicode="&#xf2ec;"/><glyph d="M40 232c22 0 40-18 40-40s-18-40-40-40-40 18-40 40 18 40 40 40zM280 232c22 0 40-18 40-40s-18-40-40-40-40 18-40 40 18 40 40 40zM160 232c22 0 40-18 40-40s-18-40-40-40-40 18-40 40 18 40 40 40z" glyph-name="ion-android-more-horizontal" horiz-adv-x="320" unicode="&#xf396;"/><glyph d="M80 312c0-22-18-40-40-40s-40 18-40 40 18 40 40 40 40-18 40-40zM80 72c0-22-18-40-40-40s-40 18-40 40 18 40 40 40 40-18 40-40zM80 192c0-22-18-40-40-40s-40 18-40 40 18 40 40 40 40-18 40-40z" glyph-name="ion-android-more-vertical" horiz-adv-x="80" unicode="&#xf397;"/><glyph d="M160 384l160-369-15-15-145 64-145-64-15 15z" glyph-name="ion-android-navigate" horiz-adv-x="320" unicode="&#xf398;"/><glyph d="M177 328h-2c-6 0-24-5-24-5-46-10-78-53-78-100v-114-13l-9-10-8-8h240l-8 8-9 10v13 114c0 47-32 90-78 100 0 0-17 5-24 5zM176 400v0c18 0 31-13 31-31v-15c59-14 104-68 104-131v-114l41-42v-21h-352v21l41 42v114c0 63 45 117 104 131v15c0 18 13 31 31 31zM217 26v0c0-23-18-42-41-42s-41 19-41 42h82z" glyph-name="ion-android-notifications-none" horiz-adv-x="352" unicode="&#xf399;"/><glyph d="M182-16c-23 0-41 19-41 42h82c0-23-18-42-41-42zM57 341l295-295v0l12-12-24-24-36 36h-298v21l41 41v115c0 23 6 44 16 63l-63 64 24 24 33-33v0zM317 223v-94l-208 207c13 8 27 15 42 18v15c0 18 13 31 31 31s31-13 31-31v-15c59-14 104-67 104-131z" glyph-name="ion-android-notifications-off" horiz-adv-x="364" unicode="&#xf39a;"/><glyph d="M176-16c-23 0-41 19-41 42h82c0-23-18-42-41-42zM311 109l41-42v-21h-352v21l41 42v114c0 63 45 117 104 131v15c0 18 13 31 31 31s31-13 31-31v-15c59-14 104-68 104-131v-114z" glyph-name="ion-android-notifications" horiz-adv-x="352" unicode="&#xf39b;"/><glyph d="M341 43v133h43v-133c0-23-20-43-43-43h-298c-23 0-43 20-43 43v298c0 23 20 43 43 43h133v-43h-133v-298h298zM224 384h160v-160h-43v87l-215-215-30 30 215 215h-87v43z" glyph-name="ion-android-open" horiz-adv-x="384" unicode="&#xf39c;"/><glyph d="M0 32v32h272v-32h-272zM368 32v32h80v-32h-80zM352 0c0-18-14-32-32-32v0c-18 0-32 14-32 32v96c0 18 14 32 32 32v0c18 0 32-14 32-32v-96zM0 176v32h80v-32h-80zM176 176v32h272v-32h-272zM160 144c0-18-14-32-32-32v0c-18 0-32 14-32 32v96c0 18 14 32 32 32v0c18 0 32-14 32-32v-96zM0 320v32h272v-32h-272zM368 320v32h80v-32h-80zM352 288c0-18-14-32-32-32v0c-18 0-32 14-32 32v96c0 18 14 32 32 32v0c18 0 32-14 32-32v-96z" glyph-name="ion-android-options" unicode="&#xf39d;"/><glyph d="M305 216c-34 0-61 27-61 60s27 60 61 60 62-27 62-60-28-60-62-60zM143 216c-34 0-62 27-62 60s28 60 62 60 61-27 61-60-27-60-61-60zM143 172c48 0 145-23 145-70v-54h-288v54c0 47 95 70 143 70zM305 161c48 0 143-12 143-59v-54h-128v54c0 30-9 41-32 58 7 1 11 1 17 1z" glyph-name="ion-android-people" unicode="&#xf39e;"/><glyph d="M288 192c-53 0-96 43-96 96s43 96 96 96 96-43 96-96-43-96-96-96zM288 144c64 0 192-32 192-96v-48h-384v48c0 64 128 96 192 96zM96 224h64v-32h-64v-64h-32v64h-64v32h64v64h32v-64z" glyph-name="ion-android-person-add" horiz-adv-x="480" unicode="&#xf39f;"/><glyph d="M192 192c-53 0-96 43-96 96s43 96 96 96 96-43 96-96-43-96-96-96zM192 144c64 0 192-32 192-96v-48h-384v48c0 64 128 96 192 96z" glyph-name="ion-android-person" horiz-adv-x="384" unicode="&#xf3a0;"/><glyph d="M448 89c0-23-19-41-41-41h-366c-22 0-41 18-41 41v206c0 23 19 41 41 41h366c22 0 41-18 41-41v-206zM80 84h288v216h-288v-216z" glyph-name="ion-android-phone-landscape" unicode="&#xf3a1;"/><glyph d="M247 416c23 0 41-19 41-41v-366c0-22-18-41-41-41h-206c-23 0-41 19-41 41v366c0 22 18 41 41 41h206zM252 48v288h-216v-288h216z" glyph-name="ion-android-phone-portrait" horiz-adv-x="288" unicode="&#xf3a2;"/><glyph d="M160 416c88 0 160-71 160-157 0-118-160-291-160-291s-160 173-160 291c0 86 72 157 160 157zM160 203c32 0 57 25 57 56s-25 56-57 56-57-25-57-56 25-56 57-56z" glyph-name="ion-android-pin" horiz-adv-x="320" unicode="&#xf3a3;"/><glyph d="M384 112l-160 48v-114l48-31v-31l-80 16-80-16v31l48 31v114l-160-48v40l160 104v113c0 18 15 31 32 31s32-13 32-31v-113l160-104v-40z" glyph-name="ion-android-plane" horiz-adv-x="384" unicode="&#xf3a4;"/><glyph d="M416 296c-19-214-13-312-13-312h-390s6 96-13 312h104c0 57 47 104 104 104s104-47 104-104h104zM208 374c-43 0-78-35-78-78h156c0 43-35 78-78 78zM156 50l143 85-143 84v-169z" glyph-name="ion-android-playstore" horiz-adv-x="416" unicode="&#xf2f0;"/><glyph d="M352 288c35 0 64-29 64-64v-139h-80v-85h-256v85h-80v139c0 35 29 64 64 64h288zM304 32v128h-192v-128h192zM336 384v0-80h-256v80h256z" glyph-name="ion-android-print" horiz-adv-x="416" unicode="&#xf3a5;"/><glyph d="M208 400c114 0 208-94 208-208s-94-208-208-208-208 94-208 208 94 208 208 208zM208 26c92 0 166 74 166 166s-74 166-166 166-166-74-166-166 74-166 166-166z" glyph-name="ion-android-radio-button-off" horiz-adv-x="416" unicode="&#xf3a6;"/><glyph d="M208 296c57 0 104-47 104-104s-47-104-104-104-104 47-104 104 47 104 104 104zM208 400c114 0 208-94 208-208s-94-208-208-208-208 94-208 208 94 208 208 208zM208 26c92 0 166 74 166 166s-74 166-166 166-166-74-166-166 74-166 166-166z" glyph-name="ion-android-radio-button-on" horiz-adv-x="416" unicode="&#xf3a7;"/><glyph d="M176 60c56 0 104 34 123 84h46c-21-74-88-128-169-128-98 0-176 79-176 176s79 176 176 176c48 0 92-20 124-52l52 52v-154h-154l70 70c-23 24-56 40-92 40-73 0-132-59-132-132s59-132 132-132z" glyph-name="ion-android-refresh" horiz-adv-x="352" unicode="&#xf3a8;"/><glyph d="M208 400c115 0 208-93 208-208s-93-208-208-208-208 93-208 208 93 208 208 208zM315 171v42h-214v-42h214z" glyph-name="ion-android-remove-circle" horiz-adv-x="416" unicode="&#xf3a9;"/><glyph d="M0 171v42h320v-42h-320z" glyph-name="ion-android-remove" horiz-adv-x="320" unicode="&#xf2f4;"/><glyph d="M116 168l-91 89c-34 33-34 86 0 119l153-148zM264 206l-33-31 150-145-30-30-150 146-150-146-30 30s163 159 211 207c-15 32-4 77 31 111 41 40 101 49 132 17 33-31 24-89-17-129-34-34-80-45-114-30z" glyph-name="ion-android-restaurant" horiz-adv-x="415" unicode="&#xf3aa;"/><glyph d="M208 160c45 0 83-26 102-64h-204c19 38 57 64 102 64zM208 400c114 0 208-94 208-208s-93-208-208-208-208 94-208 208 93 208 208 208zM208 26c92 0 166 74 166 166s-74 166-166 166-166-74-166-166 74-166 166-166zM281 213c-18 0-31 13-31 31s13 31 31 31 31-13 31-31-13-31-31-31zM135 213c-18 0-31 13-31 31s13 31 31 31 31-13 31-31-13-31-31-31z" glyph-name="ion-android-sad" horiz-adv-x="416" unicode="&#xf3ab;"/><glyph d="M274 143l110-110-33-33-109 110v17l-7 6c-25-21-58-34-93-34-79 0-142 63-142 142s63 143 141 143c79 0 142-64 142-143 0-36-13-68-34-93l7-5h18zM142 143c55 0 99 43 99 98s-44 99-99 99-98-44-98-99 43-98 98-98z" glyph-name="ion-android-search" horiz-adv-x="384" unicode="&#xf2f5;"/><glyph d="M0 0v149l298 43-298 43v149l416-192z" glyph-name="ion-android-send" horiz-adv-x="416" unicode="&#xf2f6;"/><glyph d="M366 171l47-34c3-3 4-10 2-14l-43-71c-2-4-7-7-12-5l-54 21c-12-8-23-16-36-21l-8-55c-1-4-6-8-11-8h-85c-5 0-10 3-11 8l-8 55c-13 5-25 13-36 21l-54-21c-4-2-10 1-12 5l-43 71c-3 5-2 11 2 14l45 34c0 7-1 14-1 21s1 14 1 21l-46 34c-3 3-4 10-2 14l43 71c2 4 7 7 12 5l54-21c12 8 23 16 36 21l8 55c1 4 6 8 11 8h85c5 0 10-4 11-8l7-55c13-5 25-13 36-21l53 21c4 2 11-1 13-5l43-71c3-5 2-11-2-14l-45-34c0-7 1-14 1-21s0-15-1-21zM207 119c41 0 75 32 75 73s-34 73-75 73-74-32-74-73 33-73 74-73z" glyph-name="ion-android-settings" horiz-adv-x="416" unicode="&#xf2f7;"/><glyph d="M320 104c34 0 62-28 62-62s-28-62-62-62-62 28-62 62c0 5 1 10 2 14l-152 88c-12-11-27-17-44-17-35 0-64 29-64 64s28 64 63 64c17 0 32-6 44-17l151 87c-1 5-2 10-2 15 0 35 29 64 64 64s64-29 64-64-29-64-64-64c-17 0-32 6-44 17l-151-87c1-5 2-10 2-15s-1-10-2-15l153-88c11 11 26 16 42 16z" glyph-name="ion-android-share-alt" horiz-adv-x="384" unicode="&#xf3ac;"/><glyph d="M384 200l-160-147v88c-107 0-171-34-224-109 21 107 75 214 224 235v85z" glyph-name="ion-android-share" horiz-adv-x="384" unicode="&#xf2f8;"/><glyph d="M404 238l-110-96 33-142-125 75-125-75 33 142-110 96 145 12 57 134 57-134zM219 103l60-36-16 68-5 19 15 12 53 46-70 6-19 2-8 18-27 64v-189z" glyph-name="ion-android-star-half" horiz-adv-x="404" unicode="&#xf3ad;"/><glyph d="M404 238l-110-96 33-142-125 75-125-75 33 142-110 96 145 12 57 134 57-134zM219 103l60-36-16 68-5 19 15 12 53 46-70 6-19 2-8 18-27 64-27-64-8-18-19-2-70-6 53-46 15-12-5-19-16-68 60 36 17 10z" glyph-name="ion-android-star-outline" horiz-adv-x="404" unicode="&#xf3ae;"/><glyph d="M202 75l-125-75 33 142-110 96 145 12 57 134 57-134 145-12-110-96 33-142z" glyph-name="ion-android-star" horiz-adv-x="404" unicode="&#xf2fc;"/><glyph d="M168 141v131h48v-131h-48zM344 278c25-33 40-74 40-118 0-106-86-192-192-192s-192 86-192 192 86 192 192 192c44 0 85-15 118-40l31 30 33-33zM298 54c28 28 44 66 44 106s-16 78-44 106-66 44-106 44-78-16-106-44-44-66-44-106 16-78 44-106 66-44 106-44 78 16 106 44zM128 368v48h128v-48h-128z" glyph-name="ion-android-stopwatch" horiz-adv-x="384" unicode="&#xf2fd;"/><glyph d="M176 400c94 0 176-10 176-85v-214c0-42-33-74-75-74l27-27v-16h-256v16l27 27c-42 0-75 32-75 74v214c0 75 82 85 176 85zM80 64c18 0 32 14 32 32s-14 32-32 32-32-14-32-32 14-32 32-32zM160 208v96h-112v-96h112zM272 64c18 0 32 14 32 32s-14 32-32 32-32-14-32-32 14-32 32-32zM304 208v96h-112v-96h112z" glyph-name="ion-android-subway" horiz-adv-x="352" unicode="&#xf3af;"/><glyph d="M224 288c-25 0-50-10-68-28s-28-43-28-68 10-50 28-68 43-28 68-28 50 10 68 28 28 43 28 68-10 50-28 68-43 28-68 28zM245 416v0-64h-42v64h42zM374 372v0l30-30-38-38-30 30zM74 372v0l38-38-30-30-38 38zM224 320v0c70 0 128-58 128-128s-58-128-128-128-128 58-128 128 58 128 128 128zM448 213v0-42h-64v42h64zM64 213v0-42h-64v42h64zM366 80v0l38-38-30-30-38 38zM82 80v0l30-30-38-38-30 30zM245 32v0-64h-42v64h42z" glyph-name="ion-android-sunny" unicode="&#xf3b0;"/><glyph d="M160 355c88 0 160-73 160-163 0-32-9-62-25-87l-29 30c9 17 14 37 14 57 0 67-54 122-120 122v-61l-80 82 80 81v-61zM160 70v61l80-82-80-81v61c-88 0-160 73-160 163 0 32 9 63 25 87l29-30c-9-17-14-37-14-57 0-67 54-122 120-122z" glyph-name="ion-android-sync" horiz-adv-x="320" unicode="&#xf3b1;"/><glyph d="M344 384c22 0 40-18 40-40v-240c0-22-18-40-40-40h-280l-64-64v344c0 22 10 40 32 40h312zM134 206v40h-38v-40h38zM211 206v40h-38v-40h38zM288 206v40h-38v-40h38z" glyph-name="ion-android-textsms" horiz-adv-x="384" unicode="&#xf3b2;"/><glyph d="M213 405c117 0 213-96 213-213s-95-213-213-213-213 96-213 213 95 213 213 213zM213 22c94 0 170 76 170 170s-76 170-170 170-170-76-170-170 76-170 170-170zM224 298v-111l96-57-16-26-112 67v127h32z" glyph-name="ion-android-time" horiz-adv-x="426" unicode="&#xf3b3;"/><glyph d="M0 101v214c0 75 82 85 176 85s176-10 176-85v-214c0-42-33-74-75-74l27-27v-16h-256v16l27 27c-42 0-75 32-75 74zM176 72c22 0 40 18 40 40s-18 40-40 40-40-18-40-40 18-40 40-40zM304 224v96h-256v-96h256z" glyph-name="ion-android-train" horiz-adv-x="352" unicode="&#xf3b4;"/><glyph d="M280 262c22 0 40-18 40-40v-200c0-22-18-40-40-40h-240c-22 0-40 18-40 40v200c0 22 18 40 40 40h182v40 0c0 34-28 62-62 62s-62-28-62-62h-38c0 55 45 100 100 100s100-45 100-100v-40h20zM160 80c22 0 40 18 40 40s-18 40-40 40-40-18-40-40 18-40 40-40z" glyph-name="ion-android-unlock" horiz-adv-x="320" unicode="&#xf3b5;"/><glyph d="M387 231c52-3 93-46 93-99 0-55-45-100-100-100h-260c-66 0-120 54-120 120 0 62 47 113 107 119 25 48 75 81 133 81 73 0 133-52 147-121zM272 172h68l-100 100-100-100h68v-76h64v76z" glyph-name="ion-android-upload" horiz-adv-x="480" unicode="&#xf3b6;"/><glyph d="M0 256h85l107 112v-352l-107 112h-85v128zM288 192c0-38-21-73-53-88v177c32-16 53-51 53-89z" glyph-name="ion-android-volume-down" horiz-adv-x="288" unicode="&#xf3b7;"/><glyph d="M0 256h85l107 112v-352l-107 112h-85v128z" glyph-name="ion-android-volume-mute" horiz-adv-x="192" unicode="&#xf3b8;"/><glyph d="M342 192c0 69-45 128-107 147v45c85-20 149-99 149-192 0-35-8-68-24-96l-32 32c9 19 14 41 14 64zM192 368v-104l-51 51zM357 51v0l24-24-24-24-40 40c-23-21-51-36-82-43v45c19 6 37 15 52 28l-95 95v-152l-107 112h-85v128h85l9 10-91 91 24 24zM288 192c0-7 0-15-2-22l-51 51v60c32-16 53-51 53-89z" glyph-name="ion-android-volume-off" horiz-adv-x="384" unicode="&#xf3b9;"/><glyph d="M0 256h85l107 112v-352l-107 112h-85v128zM288 192c0-38-21-73-53-88v177c32-16 53-51 53-89zM235 384c85-20 149-99 149-192s-64-172-149-192v45c62 19 106 78 106 147s-44 128-106 147v45z" glyph-name="ion-android-volume-up" horiz-adv-x="384" unicode="&#xf3ba;"/><glyph d="M168 336c-22 0-40 18-40 40s18 40 40 40 40-18 40-40-18-40-40-40zM168 216l-20 38-20-62 57-96v-128h-38v96l-50 68-57-164h-40l81 320-41-16v-80h-40v112l111 38c4 1 10 1 13 1 13 0 23-6 31-18l45-69h72v-40h-104z" glyph-name="ion-android-walk" horiz-adv-x="272" unicode="&#xf3bb;"/><glyph d="M0-16l224 416 224-416h-448zM248 48v48h-48v-48h48zM248 128v96h-48v-96h48z" glyph-name="ion-android-warning" unicode="&#xf3bc;"/><glyph d="M320 192c0-51-24-96-61-125l-19-115h-160l-19 115c-37 29-61 74-61 125s24 96 61 125l19 115h160l19-115c37-29 61-74 61-125zM40 192c0-66 54-120 120-120s120 54 120 120-54 120-120 120-120-54-120-120z" glyph-name="ion-android-watch" horiz-adv-x="320" unicode="&#xf3bd;"/><glyph d="M208 219c23 0 42-18 42-41s-19-41-42-41-42 18-42 41 19 41 42 41zM333 178c0-45-26-85-63-107l-20 36c25 14 41 40 41 71 0 45-37 82-83 82s-83-37-83-82c0-31 16-57 41-71l-20-36c-37 22-63 62-63 107 0 68 56 124 125 124s125-56 125-124zM208 384c114 0 208-93 208-206 0-76-42-142-104-178l-21 36c50 28 83 81 83 142 0 91-74 165-166 165s-166-74-166-165c0-61 33-113 83-142l-21-36c-62 36-104 102-104 178 0 113 94 206 208 206z" glyph-name="ion-android-wifi" horiz-adv-x="416" unicode="&#xf305;"/><glyph d="M224 416c124 0 224-100 224-224s-100-224-224-224-224 100-224 224 100 224 224 224zM360 56c36 36 56 85 56 136s-20 100-56 136-85 56-136 56-100-20-136-56-56-85-56-136 20-100 56-136 85-56 136-56 100 20 136 56zM168 342l56-86h-147c17 40 50 71 91 86zM381 160h-102l72 129c21-27 33-60 33-97 0-11-1-22-3-32zM328 314l-49-90-78 126c8 1 15 2 23 2 40 0 76-14 104-38zM67 224h102l-72-129c-21 27-33 60-33 97 0 11 1 22 3 32zM280 42l-56 86h147c-17-40-50-71-91-86zM120 70l49 90 78-126c-8-1-15-2-23-2-40 0-76 14-104 38z" glyph-name="ion-aperture" unicode="&#xf313;"/><glyph d="M224 140l-128 116h80v96h96v-96h80zM433 151c11-6 17-19 15-32l-9-67c-2-13-9-20-28-20h-374c-18 0-26 7-28 20l-9 67c-2 13 3 26 14 32l72 55h42l-62-62h50c2 0 5-1 6-3l18-45h168l18 45c1 2 3 3 5 3h51l-62 62h42z" glyph-name="ion-archive" unicode="&#xf102;"/><glyph d="M192 0l-192 192h112v192h160v-192h112z" glyph-name="ion-arrow-down-a" horiz-adv-x="384" unicode="&#xf103;"/><glyph d="M3 263c-2 2-3 6-3 9 0 9 8 16 17 16v0h286v0c9 0 17-7 17-16 0-3-1-6-3-8l-2-3-136-156c-5-5-11-9-19-9s-14 4-19 9l-136 156z" glyph-name="ion-arrow-down-b" horiz-adv-x="320" unicode="&#xf104;"/><glyph d="M265 125l-105-100c-6-6-14-9-23-9s-16 3-22 9l-106 100c-12 12-12 31 0 43s34 12 46 0l50-48v217c0 17 14 31 32 31s32-14 32-31v-217l50 48c12 12 34 12 46 0s12-31 0-43z" glyph-name="ion-arrow-down-c" horiz-adv-x="274" unicode="&#xf105;"/><glyph d="M178 238l64 64-50 50h128v-128l-50 50-64-64zM178 146l28 28 64-64 50 50v-128h-128l50 50zM142 146l-64-64 50-50h-128v128l50-50 64 64zM142 238l-28-28-64 64-50-50v128h128l-50-50z" glyph-name="ion-arrow-expand" horiz-adv-x="320" unicode="&#xf25e;"/><glyph d="M0 64v160l61-61 131 141 107-112 149 128-149-203-107 107-94-98 62-62h-160z" glyph-name="ion-arrow-graph-down-left" unicode="&#xf25f;"/><glyph d="M288 64l62 62-94 98-107-107-149 203 149-128 107 112 131-141 61 61v-160h-160z" glyph-name="ion-arrow-graph-down-right" unicode="&#xf260;"/><glyph d="M160 320l-62-62 94-98 107 107 149-203-149 128-107-112-131 141-61-61v160h160z" glyph-name="ion-arrow-graph-up-left" unicode="&#xf261;"/><glyph d="M288 320h160v-160l-61 61-131-141-107 112-149-128 149 203 107-107 94 98z" glyph-name="ion-arrow-graph-up-right" unicode="&#xf262;"/><glyph d="M0 192l192 192v-112h192v-160h-192v-112z" glyph-name="ion-arrow-left-a" horiz-adv-x="384" unicode="&#xf106;"/><glyph d="M167 349c2 2 6 3 9 3 9 0 16-8 16-17v0-286 0c0-9-7-17-16-17-3 0-7 1-9 3l-2 2-156 136c-5 5-9 11-9 19s4 14 9 19l156 136z" glyph-name="ion-arrow-left-b" horiz-adv-x="192" unicode="&#xf107;"/><glyph d="M109 320c12 12 32 12 44 0s12-34 0-46l-49-50h217c17 0 31-14 31-32s-14-32-31-32h-217l48-50c12-12 12-34 0-46s-31-12-43 0l-100 106c-6 6-9 13-9 22s3 17 9 23z" glyph-name="ion-arrow-left-c" horiz-adv-x="352" unicode="&#xf108;"/><glyph d="M448 192l-96-96v76h-109l1-108h76l-96-96-96 96h76v108h-108v-76l-96 96 96 96v-76h108v108h-76l96 96 96-96h-76v-108h108v76z" glyph-name="ion-arrow-move" unicode="&#xf263;"/><glyph d="M192 352h128v-128l-50 50-9-9-183-183 50-50h-128v128l50-50 128 128v0l64 64z" glyph-name="ion-arrow-resize" horiz-adv-x="320" unicode="&#xf264;"/><glyph d="M128 352v-64h248c4 0 8-4 8-8v-240c0-4-4-8-8-8h-304c-4 0-8 4-8 8v48c0 4 4 8 8 8h248v128h-192v-64l-128 96z" glyph-name="ion-arrow-return-left" horiz-adv-x="384" unicode="&#xf265;"/><glyph d="M384 256l-128-96v64h-192v-128h248c4 0 8-4 8-8v-48c0-4-4-8-8-8h-304c-4 0-8 4-8 8v240c0 4 4 8 8 8h248v64z" glyph-name="ion-arrow-return-right" horiz-adv-x="384" unicode="&#xf266;"/><glyph d="M384 192l-192-192v112h-192v160h192v112z" glyph-name="ion-arrow-right-a" horiz-adv-x="384" unicode="&#xf109;"/><glyph d="M25 35c-2-2-6-3-9-3-9 0-16 8-16 17v0 286 0c0 9 7 17 16 17 3 0 6-1 8-3l3-2 156-136c5-5 9-11 9-19s-4-14-9-19l-156-136z" glyph-name="ion-arrow-right-b" horiz-adv-x="192" unicode="&#xf10a;"/><glyph d="M243 320l100-105c6-6 9-14 9-23s-3-16-9-22l-100-106c-12-12-31-12-43 0s-12 34 0 46l48 50h-217c-17 0-31 14-31 32s14 32 31 32h217l-49 50c-12 12-12 34 0 46s32 12 44 0z" glyph-name="ion-arrow-right-c" horiz-adv-x="352" unicode="&#xf10b;"/><glyph d="M384 356l-82-82 50-50h-128v128l50-50 82 82zM384 28l-28-28-82 82-50-50v128h128l-50-50zM0 28l82 82-50 50h128v-128l-50 50-82-82zM0 356l28 28 82-82 50 50v-128h-128l50 50z" glyph-name="ion-arrow-shrink" horiz-adv-x="384" unicode="&#xf267;"/><glyph d="M0 120c0 4 4 8 8 8h248v64l128-96-128-96v64h-248c-4 0-8 4-8 8v48zM384 264c0-4-4-8-8-8h-248v-64l-128 96 128 96v-64h248c4 0 8-4 8-8v-48z" glyph-name="ion-arrow-swap" horiz-adv-x="384" unicode="&#xf268;"/><glyph d="M192 384l192-192h-112v-192h-160v192h-112z" glyph-name="ion-arrow-up-a" horiz-adv-x="384" unicode="&#xf10c;"/><glyph d="M317 121c2-2 3-6 3-9 0-9-8-16-17-16v0h-286v0c-9 0-17 7-17 16 0 3 1 6 3 8l2 3 136 156c5 5 11 9 19 9s14-4 19-9l136-156z" glyph-name="ion-arrow-up-b" horiz-adv-x="320" unicode="&#xf10d;"/><glyph d="M9 259l105 100c6 6 14 9 23 9s16-3 22-9l106-100c12-12 12-31 0-43s-34-12-46 0l-50 48v-217c0-17-14-31-32-31s-32 14-32 31v217l-50-49c-12-12-34-12-46 0s-12 32 0 44z" glyph-name="ion-arrow-up-c" horiz-adv-x="274" unicode="&#xf10e;"/><glyph d="M448 224v-64l-186 10 104-170-56-32-86 176-86-176-56 32 104 170-186-10v64l187-7-109 167 60 32 86-176 86 176 60-32-109-167z" glyph-name="ion-asterisk" unicode="&#xf314;"/><glyph d="M422 41c-24-25-52-43-85-55s-69-18-105-18c-35 0-66 6-95 17s-53 26-73 46-36 43-47 71-17 58-17 90 6 62 18 89 29 51 50 71 46 35 74 47c28 11 58 17 90 17 28 0 55-4 81-12s49-20 69-36 36-36 48-60 18-53 18-85c0-24-3-46-10-64s-16-34-27-46-24-22-38-28-29-10-45-10-29 4-39 12-15 17-15 29h-3c-6-10-15-19-28-28s-28-13-46-13c-28 0-49 9-64 27s-23 42-23 71c0 17 3 34 9 50s14 31 24 44 23 23 38 31 31 12 49 12c15 0 27-4 38-10 10-6 18-15 21-24h1l5 24h54l-24-113c-1-6-2-12-3-19s-2-13-2-19c0-7 1-13 4-18s7-7 15-7c16 0 29 9 39 26s16 40 16 68c0 24-4 45-12 64s-20 34-34 47-32 23-52 29-41 9-65 9c-26 0-49-4-70-13s-39-22-54-38-27-34-35-56c-8-21-13-44-13-69 0-26 4-51 13-72s21-39 37-54 35-27 57-35 46-12 72-12c33 0 61 6 85 16s45 25 65 43zM231 260c-10 0-18-2-25-8s-14-13-19-22-8-18-11-28-4-20-4-30c0-5 0-10 1-16 1-5 3-10 6-15s7-8 12-11 11-5 19-5c11 0 20 3 28 8s14 13 19 21 9 16 11 26 3 19 3 27c0 6 0 13-1 19s-4 12-7 17-7 9-12 12-12 5-20 5z" glyph-name="ion-at" unicode="&#xf10f;"/><glyph d="M413 116c2-2 3-4 3-6s-1-4-3-6l-21-22c-2-2-4-2-6-2s-4 0-6 2l-76 77-76-77c-2-2-4-2-6-2s-4 0-6 2l-21 22c-2 2-3 4-3 6s1 4 3 6l76 76-77 76c-3 3-3 9 0 12l22 22c2 2 4 2 6 2s4 0 6-2l76-76 76 76c2 2 4 2 6 2s4 0 6-2l22-22c3-3 3-9 0-12l-77-76zM499 354c9-9 13-20 13-33v-256c0-27-20-49-46-49h-298c-13 0-24 3-34 9-9 5-16 11-23 20v0l-1 1-110 146 110 148c14 19 34 28 58 28h298c13 0 24-5 33-14zM480 65v256c0 9-5 15-14 15h-298c-11 0-22-3-32-16l-96-128 96-128c8-10 17-16 32-16h298c9 0 14 8 14 17z" glyph-name="ion-backspace-outline" horiz-adv-x="512" unicode="&#xf3be;"/><glyph d="M499 354c9-9 13-20 13-33v-256c0-27-20-49-46-49h-298c-13 0-24 3-34 9-9 5-16 11-23 20v0l-1 1-110 146 110 148c14 19 34 28 58 28h298c13 0 24-5 33-14zM413 116l-76 76 77 76c3 3 3 9 0 12l-22 22c-2 2-4 2-6 2s-4 0-6-2l-76-76-76 76c-2 2-4 2-6 2s-4 0-6-2l-22-22c-3-3-3-9 0-12l77-76-76-76c-2-2-3-4-3-6s1-4 3-6l21-22c2-2 4-2 6-2s4 0 6 2l76 77 76-77c2-2 4-2 6-2s4 0 6 2l21 22c2 2 3 4 3 6s-1 4-3 6z" glyph-name="ion-backspace" horiz-adv-x="512" unicode="&#xf3bf;"/><glyph d="M416 288l32-320h-448l32 320h64v4c0 68 56 124 124 124h8c68 0 124-56 124-124v-4h64zM128 292v-4h192v4c0 51-41 92-92 92v0h-8c-51 0-92-41-92-92zM36 0h376l-25 256h-35v-36c10-6 16-16 16-28 0-18-14-32-32-32s-32 14-32 32c0 12 6 22 16 28v36h-192v-36c10-6 16-16 16-28 0-18-14-32-32-32s-32 14-32 32c0 12 6 22 16 28v36h-35z" glyph-name="ion-bag" unicode="&#xf110;"/><glyph d="M10 64c-6 0-10 4-10 10v236c0 6 4 10 10 10h381c6 0 10-4 10-10v-54h37c6 0 10-4 10-10v-108c0-6-4-10-10-10h-37v-54c0-6-4-10-10-10h-381zM225 288l-100-111h61l-27-81 100 111h-61z" glyph-name="ion-battery-charging" unicode="&#xf111;"/><glyph d="M438 256c6 0 10-4 10-10v-108c0-6-4-10-10-10h-37v-54c0-6-4-10-10-10h-381c-6 0-10 4-10 10v236c0 6 4 10 10 10h381c6 0 10-4 10-10v-54h37zM416 160v64h-15-32v32 32h-337v-192h337v32 32h32 15z" glyph-name="ion-battery-empty" unicode="&#xf112;"/><glyph d="M438 256c6 0 10-4 10-10v-108c0-6-4-10-10-10h-37v-54c0-6-4-10-10-10h-381c-6 0-10 4-10 10v236c0 6 4 10 10 10h381c6 0 10-4 10-10v-54h37z" glyph-name="ion-battery-full" unicode="&#xf113;"/><glyph d="M438 256c6 0 10-4 10-10v-108c0-6-4-10-10-10h-37v-54c0-6-4-10-10-10h-381c-6 0-10 4-10 10v236c0 6 4 10 10 10h381c6 0 10-4 10-10v-54h37zM416 160v64h-15-32v32 32h-81l32-192h49v32 32h32 15z" glyph-name="ion-battery-half" unicode="&#xf114;"/><glyph d="M10 64c-6 0-10 4-10 10v236c0 6 4 10 10 10h381c6 0 10-4 10-10v-54h37c6 0 10-4 10-10v-108c0-6-4-10-10-10h-37v-54c0-6-4-10-10-10h-381zM369 288h-209l32-192h177v32 32h32 15v64h-15-32v32 32z" glyph-name="ion-battery-low" unicode="&#xf115;"/><glyph d="M80 256h240v-224c0-9-7-16-16-16h-208c-9 0-16 7-16 16v224zM296 104v48c0 4-4 8-8 8s-8-4-8-8v-48c0-4 4-8 8-8s8 4 8 8zM288 176c4 0 8 4 8 8s-4 8-8 8-8-4-8-8 4-8 8-8zM381 416c3 0 3-2 3-3s-2-3-3-5-13-20-13-40v-336c0-35-29-64-64-64h-208c-35 0-64 29-64 64v307c0 32-2 33-32 37 0 12 11 40 65 40h316zM336 368c0 5 0 16 1 16h-273c-1 0-3 0-4-1 5-7 4-32 4-44v-307c0-18 14-32 32-32h210c17 0 30 14 30 32v336z" glyph-name="ion-beaker" horiz-adv-x="384" unicode="&#xf269;"/><glyph d="M384 288c35 0 64-29 64-64v-96c0-35-29-64-64-64h-32v-80c0-9-7-16-16-16h-256c-9 0-16 7-16 16v223c-26 0-48 22-48 48v54 1c-10 11-16 26-16 42 0 35 29 64 64 64 18 0 34-8 46-20 10 12 26 20 43 20 14 0 27-6 37-14 12 9 26 14 42 14 17 0 34-6 46-16 11 10 26 16 42 16 35 0 64-29 64-64 0-24-18-44-32-48v-16h32zM296 144c4 0 8 3 8 8v0 48c0 4-4 8-8 8s-8-4-8-8v-48c0-3 2-6 4-7 1-1 2-1 4-1zM303 220c1 2 1 4 1 6s-1 4-3 5-4 1-6 1-4-2-5-4-2-4-2-6 2-4 4-5 4-1 6-1 4 2 5 4zM320 288v32h-20c-3-8-7-16-13-23-13-16-33-25-55-25-26 0-48 13-61 33-6-2-12-3-18-3-12 0-23 4-32 10-2 1-3 3-5 4-1-2-2-3-3-5-5-6-11-10-17-14v-32-9h80c0 4 4 8 8 8s8-4 8-8h128v32zM351 343c1 3 1 6 1 9 0 18-14 32-32 32-9 0-17-4-23-10-2-2-6-5-16-6h-8c-6 1-12 3-14 5-7 7-16 11-27 11-9 0-18-4-25-9l-7-7c0-1 0-1-1-2-3-3-7-5-11-5-5 0-8 3-11 6-1 2-2 3-3 5s-3 4-5 6c-4 4-10 6-16 6-10 0-18-9-25-16-7-8-27-8-34 0s-18 16-30 16c-18 0-32-14-32-32 0-2 1-5 1-7 2-9 7-17 15-21v-34-35c0-9 7-16 16-16v26 23 32c10 0 18 4 24 11 2 2 3 4 4 6 0 0 6 10 12 11s20 6 30-5c4-5 11-9 19-9 3 0 5 1 7 2 3 1 7 2 9 4v0c3 2 6 4 10 4 7 0 12-4 14-10 0 0 1-1 1-2 1-3 1-5 3-8 7-12 20-20 35-20 13 0 25 6 32 16 5 7 8 15 8 24s9 8 9 8h7 48c6 0 13-3 15-9zM416 128v96c0 18-14 32-32 32h-32v-160h32c18 0 32 14 32 32zM128 280c0 5 3 8 8 8s8-3 8-8-3-8-8-8-8 3-8 8zM288 280c0 5 3 8 8 8s8-3 8-8-3-8-8-8-8 3-8 8z" glyph-name="ion-beer" unicode="&#xf26a;"/><glyph d="M12 304c16 16 18 13 19 12l68-65v0 0c2-2 10-10 10-3v156 0 2c0 6 6 10 12 10 4 0 7-2 9-4v0s117-113 122-117 5-10 1-14l-84-81s-4-4-4-8 4-8 4-8l84-81c4-4 4-10-1-14s-122-117-122-117v0c-2-2-5-4-9-4-6 0-12 4-12 10v2 0 156s-8-1-10-3v0-1l-68-64c-1-1-3-4-19 12s-12 17-11 18 90 86 90 86 4 3 4 8v0c0 5-4 8-4 8s-89 85-90 86-5 2 11 18zM152 328v-79c0-8 8-1 10 1l30 30s3 5 3 7-1 5-3 7l-30 30c-2 2-10 11-10 4zM152 135v-79s8 2 10 4l30 30c2 2 3 5 3 7s-1 5-3 7l-30 30c-2 2-10 9-10 1z" glyph-name="ion-bluetooth" horiz-adv-x="256" unicode="&#xf116;"/><glyph d="M207 97l15-89c1-3 1-5 1-8 0-18-14-32-32-32s-32 14-32 32c0 2 0 5 1 7l15 92v0c2 7 8 13 16 13s15-7 16-15zM242 93v0 0 0zM329 58c9-8 10-25 0-35s-27-9-35 0c-1 1-2 3-3 4l-49 66c-3 5-2 11 2 15 5 5 10 5 16 1l64-47c2-1 3-3 5-4zM309 113v0 0 0zM371 126c9-1 13-7 13-19 0-9-10-14-18-12l-57 18v0 0c-3 2-6 5-5 9s4 7 8 6zM75 113v0 0 0zM75 113v0l-58-18c-8-2-17 3-17 12 0 12 3 18 12 19l60 2c4 1 7-2 8-6s-2-7-5-9v0zM124 109c5 4 11 4 16-1 4-4 5-10 2-15l-49-66c-1-1-2-3-3-4-10-10-25-10-35 0s-10 25 0 35c2 2 3 3 5 4zM288 320c0-32-9-58-50-86-37-26-94-46-110-106 0 0-58 24-48 96s124 106 112 192c24 0 96-35 96-96zM288 192c-16-50-44-64-80-64-15 0-32 9-43 26 12 15 28 26 47 37 9 5 20 10 29 16 21 14 38 31 47 49 5-15 5-48 0-64zM88 288c-6 4-9 14-8 27 2 22 34 39 32 69 14 2 31-3 42-24-5-11-15-21-28-34s-26-22-38-38z" glyph-name="ion-bonfire" horiz-adv-x="384" unicode="&#xf315;"/><glyph d="M184 384c4 0 8-4 8-8v-56h-192v56c0 4 4 8 8 8h176zM0 0v304h192v-304l-96 96z" glyph-name="ion-bookmark" horiz-adv-x="192" unicode="&#xf26b;"/><glyph d="M192 236c0 0 8 5 20 7 21 4 39 5 47-9 10-17 19-53 17-85-1-17-5-22-5-22s-15-10-47-7c-35 3-40 15-40 15s5 12 8 43 0 58 0 58zM152 163c-17-4-38-10-38-10s45 4 64 9c-4-21-10-34-10-34s-83-80-116-80c-28 0-52 68-52 144s26 144 52 144c35 0 106-57 128-97 0 0 3-16 2-32-10 5-24 10-44 14-28 6-42 3-42 3s18-4 57-17c15-5 22-8 29-10 0-3-1-7-1-10 0-5 0-10-1-15-5-2-15-6-28-9zM396 336c26 0 52-68 52-144s-24-144-52-144c-37 0-104 68-112 79 0 0 4 5 5 22v9c16-7 70-13 70-13s-21 6-40 11c-13 4-25 8-30 10-1 11-2 23-4 33 17 11 69 34 69 34s-15-2-35-9c-14-5-29-11-37-14-3 10-7 18-10 24 0 1-1 4-1 4v1c22 40 89 97 125 97z" glyph-name="ion-bowtie" unicode="&#xf3c0;"/><glyph d="M240 176v8h208v-176c0-4-4-8-8-8h-432c-4 0-8 4-8 8v176h208v-8h32zM440 304c4 0 8-4 8-8v-96h-208v8h-32v-8h-208v96c0 4 4 8 8 8h120v31c1 28 22 49 51 49h90c30 0 50-21 51-49v-31h120zM288 332v1c0 10-9 19-19 19h-90c-10 0-19-9-19-19v-1-1-27h128v27 1z" glyph-name="ion-briefcase" unicode="&#xf26c;"/><glyph d="M343 321c-6-16-16-31-28-43-24-24-57-37-91-37s-67 13-91 37c-12 12-22 27-28 43 29 39 72 63 119 63s90-24 119-63zM95 305c22-45 68-77 121-80v-225c-40 2-77 22-104 54-7-6-10-9-13-15 8-9 7-22-1-31-9-10-24-11-34-2s-11 24-2 34l3 3s2 1 2 1c4 13 13 25 27 36-15 26-26 57-29 90-7 0-12-2-17-3-1-13-11-23-24-23s-24 11-24 24 11 24 24 24h3c4 2 8 5 12 6 7 2 14 4 25 4 1 23 6 45 13 65-6 4-11 7-15 11-6 5-11 13-14 19-1 0-3 1-4 2-12 6-15 21-9 33s21 15 33 9c11-6 15-20 10-31 2-3 3-7 4-8 2-2 5-3 8-5 2 3 3 5 5 8zM424 192c13 0 24-11 24-24s-11-24-24-24-23 10-24 23c-5 1-10 3-17 3-3-33-14-64-29-90 14-11 23-23 27-36 0 0 1 0 2-1l3-3c9-10 8-25-2-34s-25-8-34 2c-8 9-9 22-1 31-3 6-6 9-13 15-27-32-64-52-104-54v225c53 3 99 35 121 80 2-3 3-5 5-8 3 2 6 3 8 5 1 1 2 5 4 8-5 11-1 25 10 31 12 6 27 3 33-9s3-27-9-33c-1-1-3-2-4-2-3-6-8-14-14-19-4-4-9-7-15-11 7-20 12-42 13-65 11 0 18-2 25-4 4-1 8-4 12-6h3z" glyph-name="ion-bug" unicode="&#xf2be;"/><glyph d="M304 416c9 0 16-7 16-16v-416c0-9-7-16-16-16h-288c-9 0-16 7-16 16v416c0 9 7 16 16 16h288zM48 240v-32h32v32h-32zM48 176v-32h32v32h-32zM48 112v-32h32v32h-32zM144 16v32h-96v-32h96zM144 80v32h-32v-32h32zM144 144v32h-32v-32h32zM144 208v32h-32v-32h32zM208 16v32h-32v-32h32zM208 80v32h-32v-32h32zM208 144v32h-32v-32h32zM208 208v32h-32v-32h32zM272 16v96h-32v-96h32zM272 144v32h-32v-32h32zM272 208v32h-32v-32h32zM272 288v80h-224v-80h224z" glyph-name="ion-calculator" horiz-adv-x="320" unicode="&#xf26d;"/><glyph d="M112 320c-18 0-32 14-32 32v32c0 18 14 32 32 32s32-14 32-32v-32c0-18-14-32-32-32zM336 320c-18 0-32 14-32 32v32c0 18 14 32 32 32s32-14 32-32v-32c0-18-14-32-32-32zM440 384c4 0 8-4 8-8v-400c0-4-4-8-8-8h-432c-4 0-8 4-8 8v400c0 4 4 8 8 8h56v-41c0-22 24-39 48-39s48 17 48 39v41h128v-41c0-22 25-39 49-39s47 17 47 39v41h56zM400 16v256h-352v-256h352z" glyph-name="ion-calendar" unicode="&#xf117;"/><glyph d="M382 301c18 0 34-14 34-33v-202c0-19-16-34-34-34h-348c-19 0-34 15-34 34v202c0 19 15 33 34 33h69l39 40v0c6 7 15 11 25 11h84c9 0 17-4 23-10v0 0 0l41-41h67zM208 82c51 0 92 42 92 93s-41 93-92 93-92-42-92-93 41-93 92-93zM376 248c8 0 14 6 14 14s-6 14-14 14-14-6-14-14 6-14 14-14zM208 245c38 0 70-31 70-70s-32-70-70-70c-39 0-70 31-70 70s31 70 70 70z" glyph-name="ion-camera" horiz-adv-x="416" unicode="&#xf118;"/><glyph d="M420 352c16 0 28-12 28-28v0-264 0c0-16-12-28-28-28h-392c-16 0-28 12-28 28v0 0 264 0 0c0 16 12 28 28 28h392zM45 320c-7 0-12-5-13-12v-20h384v20c-1 7-6 12-13 12h-358zM403 64c7 0 12 5 13 12v116h-384v-116c1-7 6-12 13-12h358zM64 128v16h192v-16h-192zM64 96v16h96v-16h-96zM320 96v48h64v-48h-64z" glyph-name="ion-card" unicode="&#xf119;"/><glyph d="M0 352h512v-256h-512v256zM193 128c-20 23-33 58-33 96s13 73 33 96h-97c0-35-29-64-64-64v-80c27 0 48-21 48-48h113zM298 187c3 4 4 9 4 15 0 3 0 5-1 8s-2 6-4 8-4 4-7 6-6 4-10 5c-1 0-4 1-7 2s-5 0-8 1v31c2-1 5-2 7-3 4-3 6-7 7-13h20c0 5-2 9-4 13s-5 8-9 11-9 5-14 6c-2 1-5 2-7 2v9h-18v-9c-2 0-4-1-6-2-5-1-10-2-14-5s-7-6-9-10-4-9-4-14c0-3 0-5 1-8s2-5 4-7 5-5 8-7 7-4 12-5c3-1 6 0 8-1v-35c-3 1-6 2-9 4s-5 4-6 7-2 6-2 9h-20c0-5 2-11 4-16 3-5 6-8 10-11s9-6 15-7c3-1 5-2 8-2v-9h18v9c3 0 6 1 9 2 5 1 10 2 14 5s7 7 10 11zM480 176v80c-35 0-64 29-64 64h-97c20-23 33-58 33-96s-13-73-33-96h113c0 27 22 48 48 48zM64 224c0 21 11 32 32 32s32-11 32-32-11-32-32-32-32 11-32 32zM384 224c0 21 11 32 32 32s32-11 32-32-11-32-32-32-32 11-32 32zM273 213c2-1 4-2 6-4s3-5 3-9c0-2 0-4-1-6s-2-4-4-5-5-3-8-4c-1 0-2-1-4-1v31c3-1 6-1 8-2zM236 257c1 2 3 3 5 4s4 2 6 2v-26c-4 1-7 3-9 5s-4 4-4 8c0 3 1 5 2 7zM0 32v32h512v-32h-512z" glyph-name="ion-cash" horiz-adv-x="512" unicode="&#xf316;"/><glyph d="M76 48c-42 0-76 31-76 71v209c0 40 34 72 76 72h264c42 0 76-32 76-72v-209c0-40-34-71-76-71h-4v-64s-79 54-86 59-7 5-21 5h-153zM304 256c-18 0-32-14-32-32s14-32 32-32 32 14 32 32-14 32-32 32zM208 256c-18 0-32-14-32-32s14-32 32-32 32 14 32 32-14 32-32 32zM112 256c-18 0-32-14-32-32s14-32 32-32 32 14 32 32-14 32-32 32z" glyph-name="ion-chatbox-working" horiz-adv-x="416" unicode="&#xf11a;"/><glyph d="M76 48c-42 0-76 31-76 71v209c0 40 34 72 76 72h264c42 0 76-32 76-72v-209c0-40-34-71-76-71h-4v-64s-79 54-86 59-7 5-21 5h-153z" glyph-name="ion-chatbox" horiz-adv-x="416" unicode="&#xf11b;"/><glyph d="M246 82l26-18c-4-21-29-32-52-32h-90c-8 0-11-2-13-3l-53-45v48h-16c-26 0-48 16-48 41v129c0 25 20 45 46 45h2v-101c0-33 29-59 64-59h117c10 0 14-3 17-5zM353 400c35 0 63-27 63-60v-168c0-33-28-60-63-60h-17v-64l-75 60c-2 2-7 4-17 4h-101c-35 0-63 27-63 60v98 70c0 33 21 60 56 60h217z" glyph-name="ion-chatboxes" horiz-adv-x="416" unicode="&#xf11c;"/><glyph d="M208-1c-115 0-208 89-208 200s93 201 208 201 208-90 208-201c0-40-12-77-33-108-1-1-2-3-3-4v0c-2-4-4-10-4-15l22-88-84 31c-4 2-8 2-12 2s-7-1-11-2v0c-1 0-1-1-2-1-25-10-52-15-81-15zM304 224c-18 0-32-14-32-32s14-32 32-32 32 14 32 32-14 32-32 32zM208 224c-18 0-32-14-32-32s14-32 32-32 32 14 32 32-14 32-32 32zM112 224c-18 0-32-14-32-32s14-32 32-32 32 14 32 32-14 32-32 32z" glyph-name="ion-chatbubble-working" horiz-adv-x="416" unicode="&#xf11d;"/><glyph d="M208-1c-115 0-208 89-208 200s93 201 208 201 208-90 208-201c0-40-12-77-33-108-1-1-2-3-3-4v0c-2-4-4-10-4-15l22-88-84 31c-4 2-8 2-12 2s-7-1-11-2v0c-1 0-1-1-2-1-25-10-52-15-81-15z" glyph-name="ion-chatbubble" horiz-adv-x="416" unicode="&#xf11e;"/><glyph d="M25 57c-1 1 0 2-1 3-15 22-24 49-24 77 0 42 19 80 49 106-2-11-4-22-4-34 0-92 78-168 174-168 15 0 30 2 44 6-27-32-69-53-115-53-20 0-40 5-58 12h-1v0c-2 1-5 2-8 2s-6-1-9-2l-56-22 12 63c0 4-1 7-3 10v0zM242 400c96 0 174-76 174-168 0-33-11-64-28-90-1-1-1-2-2-3v0c-2-4-3-8-3-12l17-74-69 26c-3 1-6 2-10 2-3 0-6-1-9-2v0l-2-1c-8-3-16-5-24-7-14-4-29-6-44-6-96 0-173 75-173 167 0 12 1 24 3 35 16 76 86 133 170 133z" glyph-name="ion-chatbubbles" horiz-adv-x="416" unicode="&#xf11f;"/><glyph d="M224 416c124 0 224-100 224-224s-100-224-224-224-224 100-224 224 100 224 224 224zM339 267c1 1 1 2 1 3s0 3-1 4l-31 24c-1 1-3 1-4 1s-2 0-3-1l-111-143s-44 42-45 43-4 3-6 3-3-2-4-3l-25-25-1-1c-1-1-1-3-1-4s0-2 1-3l2-1s78-75 79-76 3-3 5-3 4 2 5 3z" glyph-name="ion-checkmark-circled" unicode="&#xf120;"/><glyph d="M400 376c17-13 22-39 9-57l-207-302c-13-18-37-22-54-9s-137 147-137 147c-15 16-15 42 1 58s40 15 55-2l99-107 180 263c13 18 37 22 54 9z" glyph-name="ion-checkmark-round" horiz-adv-x="416" unicode="&#xf121;"/><glyph d="M414 338c1-2 2-4 2-6s-1-4-2-6l-249-320c-2-2-5-6-9-6s-8 3-10 5-141 136-141 136l-3 3c-1 2-2 4-2 6s1 3 2 5l2 2c14 15 42 44 44 46s4 6 8 6 8-4 10-6 80-78 80-78l200 257c2 2 4 2 6 2s5-1 7-2z" glyph-name="ion-checkmark" horiz-adv-x="416" unicode="&#xf122;"/><glyph d="M224 150v0 0l174 167c4 4 12 4 16 0l31-30c4-4 4-12 0-16l-213-204c-2-2-5-3-8-3s-6 1-8 3l-213 204c-4 4-4 12 0 16l31 30c4 4 12 4 16 0z" glyph-name="ion-chevron-down" unicode="&#xf123;"/><glyph d="M86 192l167-174c4-4 4-12 0-16l-30-31c-4-4-12-4-16 0l-204 213c-2 2-3 5-3 8s1 6 3 8l204 213c4 4 12 3 16-1l30-30c4-4 4-12 0-16l-167-174v0 0z" glyph-name="ion-chevron-left" horiz-adv-x="256" unicode="&#xf124;"/><glyph d="M170 192v0 0l-167 174c-4 4-4 12 0 16l30 30c4 4 12 5 16 1l204-213c2-2 3-5 3-8s-1-6-3-8l-204-213c-4-4-12-4-16 0l-30 31c-4 4-4 12 0 16z" glyph-name="ion-chevron-right" horiz-adv-x="256" unicode="&#xf125;"/><glyph d="M224 234l-174-167c-4-4-12-4-16 0l-31 30c-4 4-4 12 0 16l213 204c2 2 5 3 8 3s6-1 8-3l213-204c4-4 4-12 0-16l-31-30c-4-4-12-4-16 0l-174 167v0 0z" glyph-name="ion-chevron-up" unicode="&#xf126;"/><glyph d="M80 288c2 20 10 35 28 40l1 1c12 3 21 7 21 20v21c0 26 21 46 46 46s46-20 46-46v-21c0-13 9-18 21-21h2c18-5 25-20 27-40h-192zM176 384c-8 0-13-6-13-14s5-14 13-14 14 6 14 14-6 14-14 14zM325 384c15 0 27-12 27-28v-360c0-16-12-28-27-28h-149-148c-15 0-28 12-28 28v360c0 16 13 28 28 28h73v-13c0-11-9-19-19-19h-37c-7 0-12-6-12-13v-327c0-6 5-12 11-12h265c6 0 11 6 11 12v327c0 7-5 13-12 13h-37c-10 0-20 8-20 19v13h74zM64 224v32h112v-32h-112zM64 32v32h160v-32h-160zM64 96v32h129v-32h-129zM64 160v32h208v-32h-208z" glyph-name="ion-clipboard" horiz-adv-x="352" unicode="&#xf127;"/><glyph d="M224 416c124 0 224-100 224-224s-100-224-224-224-224 100-224 224 100 224 224 224zM360 56c10 10 19 21 26 33l-27 16 8 14 27-16c13 25 21 52 22 81h-32v16h32c-1 29-9 56-22 81l-27-16-8 14 27 16c-7 12-16 23-26 33s-21 19-33 26l-16-27-14 8 16 27c-25 13-52 21-81 22v-32h-16v32c-29-1-56-9-81-22l16-27-14-8-16 27c-12-7-23-16-33-26s-19-21-26-33l27-16-8-14-27 16c-13-25-21-52-22-81h32v-16h-32c1-29 9-56 22-81l27 16 8-14-27-16c7-12 16-23 26-33s21-19 33-26l16 27 14-8-16-27c25-13 52-21 81-22v32h16v-32c29 1 56 9 81 22l-16 27 14 8 16-27c12 7 23 16 33 26zM368 207v-32h-117c-6-9-16-15-27-15-18 0-32 14-32 32 0 12 6 22 16 28v68h32v-68c5-3 9-8 12-13h116z" glyph-name="ion-clock" unicode="&#xf26e;"/><glyph d="M224 415c124 0 224-100 224-224s-100-224-224-224-224 100-224 224 100 224 224 224zM332 116l-75 75 76 75c3 3 3 9 0 12l-22 21c-2 2-4 3-6 3s-3-1-5-3l-76-74-76 74c-2 2-3 3-5 3s-4-1-6-3l-21-21c-3-3-3-9 0-12l76-75-76-76c-2-1-2-3-2-5s0-4 2-6l21-22c2-2 4-2 6-2s4 0 6 2l75 76 76-75c2-2 3-3 5-3s4 1 6 3l21 21c2 1 3 4 3 6s-1 4-3 6z" glyph-name="ion-close-circled" unicode="&#xf128;"/><glyph d="M374 61c14-14 14-37 0-51s-37-14-51 0l-131 131-131-131c-14-14-36-14-50 0s-14 37 0 51l130 131-130 131c-14 14-14 37 0 51s36 14 50 0l131-131 131 131c14 14 37 14 51 0s14-37 0-51l-131-131z" glyph-name="ion-close-round" horiz-adv-x="384" unicode="&#xf129;"/><glyph d="M380 61c3-3 4-6 4-10s-1-7-4-10l-38-37c-3-3-5-4-9-4s-7 1-10 4l-131 131-131-131c-3-3-5-4-9-4s-7 1-10 4l-38 37c-3 3-4 6-4 10s1 7 4 10l132 131-132 130c-5 5-5 15 0 20l37 38c3 2 6 4 10 4s7-1 10-4l131-130 131 130c3 2 6 4 10 4s7-1 10-4l37-38c5-5 5-14 0-19l-132-130z" glyph-name="ion-close" horiz-adv-x="384" unicode="&#xf12a;"/><glyph d="M0 384h512v-384h-512v384zM464 192c0 27 0 44-4 80s-23 56-59 60-91 4-138 4h-7-7c-47 0-102 0-138-4s-55-24-59-60-4-53-4-80 2-47 4-80 19-56 59-60 96-4 145-4 105 0 145 4 57 27 59 60 4 53 4 80zM372 164v4h53c0-27-7-48-19-62s-32-21-61-21c-14 0-26 2-36 5s-18 9-25 17-12 19-15 33-5 30-5 51 3 39 7 53 9 25 17 33 17 14 27 17 22 5 34 5c25 0 44-7 57-21s19-37 19-62h-52v1c0 20-12 33-27 33s-25-11-28-30c0 0-2-11-2-29s2-28 2-28c1-17 12-29 27-29s27 10 27 29v1zM195 164v4h53c0-27-7-48-19-62s-32-21-61-21c-14 0-26 2-36 5s-18 9-25 17-12 19-15 33-5 30-5 51 3 39 7 53 9 25 17 33 17 14 27 17 22 5 34 5c25 0 44-7 57-21s19-37 19-62h-52v1c0 20-12 33-27 33s-25-11-28-30c0 0-2-11-2-29s2-28 2-28c1-17 12-29 27-29s27 10 27 29v1z" glyph-name="ion-closed-captioning" horiz-adv-x="512" unicode="&#xf317;"/><glyph d="M366 215c45 0 82-38 82-84s-37-83-82-83v0h-276c-49 0-90 41-90 91 0 40 26 74 61 86 5 29 29 51 59 51 10 0 18-3 26-7 19 40 59 67 105 67 64 0 115-53 115-118v-3z" glyph-name="ion-cloud" unicode="&#xf12b;"/><glyph d="M299 164l-63-63v0l-1-1v0l-2-1v0l-1-1v0l-2-1v0h-1v0h-1c-1 0-3-1-4-1s-3 1-4 1h-1v0h-1v0l-2 1v0l-1 1v0c-1 1-2 1-3 2v0l-63 63c-6 6-6 17 0 23s18 6 24 0l35-34v118c0 9 7 17 16 17s16-8 16-17v-118l35 34c6 6 18 6 24 0s6-17 0-23zM136 56c-6 0-12 2-17 7l-112 112c-9 9-9 25 0 34l112 112c9 9 25 9 34 0s9-25 0-34l-95-95 95-95c9-9 9-25 0-34-5-5-11-7-17-7zM312 56c-6 0-12 2-17 7-9 9-9 25 0 34l95 95-95 95c-9 9-9 25 0 34s25 9 34 0l112-112c9-9 9-25 0-34l-112-112c-5-5-11-7-17-7z" glyph-name="ion-code-download" unicode="&#xf26f;"/><glyph d="M128 192c0 16 8 24 24 24s24-8 24-24-8-24-24-24-24 8-24 24zM200 192c0 16 8 24 24 24s24-8 24-24-8-24-24-24-24 8-24 24zM272 192c0 16 8 24 24 24s24-8 24-24-8-24-24-24-24 8-24 24zM136 56c-7 0-12 2-17 7l-112 112c-5 5-7 10-7 17s2 12 7 17l112 112c5 5 10 7 17 7s12-2 17-7 7-10 7-17-2-12-7-17l-95-95 95-95c5-5 7-10 7-17s-2-12-7-17-10-7-17-7zM312 56c-7 0-12 2-17 7s-7 10-7 17 2 12 7 17l95 95-95 95c-5 5-7 10-7 17s2 12 7 17 10 7 17 7 12-2 17-7l112-112c5-5 7-10 7-17s-2-12-7-17l-112-112c-5-5-10-7-17-7z" glyph-name="ion-code-working" unicode="&#xf270;"/><glyph d="M136 56c-6 0-12 2-17 7l-112 112c-9 9-9 25 0 34l112 112c9 9 25 9 34 0s9-25 0-34l-95-95 95-95c9-9 9-25 0-34-5-5-11-7-17-7zM312 56c-6 0-12 2-17 7-9 9-9 25 0 34l95 95-95 95c-9 9-9 25 0 34s25 9 34 0l112-112c9-9 9-25 0-34l-112-112c-5-5-11-7-17-7z" glyph-name="ion-code" unicode="&#xf271;"/><glyph d="M319 191c37-7 65-40 65-79 0-20-8-39-21-54-15-17-37-26-61-26-8 0-17 1-25 3-6 1-10 3-15 5-11-15-23-25-32-33v0c-5-5-12-7-19-7h-102c-7 0-14 2-19 7v0c-17 15-41 36-62 86s-28 91-28 111 3 20 16 20h101c-5 17-37 19-37 46 0 17 15 32 28 37-2-8-3-14-3-21 0-19 39-30 39-53 0-3 0-6-1-9h56c1 5 2 10 2 14 0 36-56 36-56 84 0 28 21 55 47 62-4-14-9-23-9-35 0-32 57-50 57-88 0-13-5-25-12-37h76c13 0 16 0 16-20 0-4 0-8-1-13zM302 64c33 0 50 25 50 48s-17 43-39 47c-4-19-11-42-21-66-4-9-8-17-12-25 6-3 13-4 22-4z" glyph-name="ion-coffee" horiz-adv-x="384" unicode="&#xf272;"/><glyph d="M224 416c124 0 224-100 224-224s-100-224-224-224-224 100-224 224c0 39 10 76 27 108-16 12-27 30-27 52 0 35 29 64 64 64 22 0 40-11 52-27 32 17 69 27 108 27zM32 352c0-10 5-20 13-26 13 17 28 32 45 45-6 8-16 13-26 13-18 0-32-14-32-32zM360 56c36 36 56 85 56 136s-20 100-56 136-85 56-136 56-100-20-136-56-56-85-56-136 20-100 56-136 85-56 136-56 100 20 136 56zM320 320c0 0-54-130-72-152s-120-104-120-104 54 132 72 152 120 104 120 104z" glyph-name="ion-compass" unicode="&#xf273;"/><glyph d="M379 348c7-7 7-18 0-25l-32-31-55 55 31 32c7 7 18 7 25 0zM282 338l55-55-177-173-64-14 14 64zM320 192l32 32v-201c0-13-10-23-23-23h-306c-13 0-23 10-23 23v306c0 13 10 23 23 23h201l-32-32h-149c-6 0-11-5-11-10v-268s4-10 10-10h269s9 5 9 10v150z" glyph-name="ion-compose" horiz-adv-x="384" unicode="&#xf12c;"/><glyph d="M0 32v64h64v-64h-64zM96 32v128h64v-128h-64zM192 32v224h64v-224h-64zM288 32v320h64v-320h-64z" glyph-name="ion-connection-bars" horiz-adv-x="352" unicode="&#xf274;"/><glyph d="M224 416c124 0 224-100 224-224s-100-224-224-224-224 100-224 224 100 224 224 224zM360 56c36 36 56 85 56 136s-20 100-56 136-85 56-136 56v-384c51 0 100 20 136 56z" glyph-name="ion-contrast" unicode="&#xf275;"/><glyph d="M320-32v48h64v-48h-64zM384 96h64v-64h-384v256h-64v64h64v64h64v-320h192v192h-176v64h240v-256z" glyph-name="ion-crop" unicode="&#xf3c1;"/><glyph d="M435 280c7 0 13-6 13-12v-183c0-9-6-17-14-22v-1l-175-92v-1c-2-1-4-1-6-1-7 0-13 6-13 12v185c0 9 5 17 13 22v0l3 2 172 89 2 1c2 1 3 1 5 1zM422 329c0 0 8-3 8-9 0-7-8-11-8-11l-183-97-2-1c-4-2-8-3-13-3s-9 1-13 3l-2 1-183 96s-8 5-8 12c0 6 8 9 8 9l181 82s11 5 17 5 17-5 17-5zM195 187c8-5 13-13 13-22v-185c0-6-6-12-13-12-2 0-4 1-6 2v0l-175 92v1c-8 5-14 13-14 22v183c0 6 6 12 13 12 2 0 4 0 5-1l2-1 171-89z" glyph-name="ion-cube" unicode="&#xf318;"/><glyph d="M224 289c54 0 97-43 97-97s-43-97-97-97-97 43-97 97 43 97 97 97zM224 148c24 0 44 20 44 44s-20 44-44 44-44-20-44-44 20-44 44-44zM224 416c124 0 224-100 224-224s-100-224-224-224-224 100-224 224 100 224 224 224zM224 69c68 0 123 55 123 123s-55 123-123 123-123-55-123-123 55-123 123-123z" glyph-name="ion-disc" unicode="&#xf12d;"/><glyph d="M286 279c1-3 2-6 2-10v-245c0-13-10-24-22-24h-243c-12 0-23 11-23 24v336c0 13 11 24 23 24h160c3 0 6 0 9-2 2-1 5-3 7-5l84-92c2-2 2-4 3-6zM48 269v-10c0-1 1-3 3-3h71c2 0 3 2 3 3v10c0 2-1 3-3 3h-71c-2 0-3-1-3-3zM48 141v-10c0-1 1-3 3-3h123c2 0 2 2 2 3v10c0 2 0 3-2 3h-123c-2 0-3-1-3-3zM208 67v10c0 2 0 3-2 3h-155c-2 0-3-1-3-3v-10c0-1 1-3 3-3h155c2 0 2 2 2 3zM240 195v10c0 2 0 3-2 3h-187c-2 0-3-1-3-3v-10c0-1 1-3 3-3h187c2 0 2 2 2 3zM193 270h60l-71 78v-66c0-6 5-12 11-12z" glyph-name="ion-document-text" horiz-adv-x="288" unicode="&#xf12e;"/><glyph d="M287 279c1-3 1-5 1-9v-244c0-13-9-26-21-26h-243c-12 0-24 13-24 26v335c0 13 12 23 24 23h160c3 0 6 0 9-2 2-1 5-2 7-4l83-92c2-2 3-4 4-7zM193 337v-63h58zM32 32h224v210h-67c-15 0-28 13-28 28v82h-129v-320z" glyph-name="ion-document" horiz-adv-x="288" unicode="&#xf12f;"/><glyph d="M0 272v32h512v-32h-512zM0 176v32h512v-32h-512zM0 80v32h512v-32h-512z" glyph-name="ion-drag" horiz-adv-x="512" unicode="&#xf130;"/><glyph d="M325 322c2-4 7-12 3-15-3-2-10-2-13 5s0 11-5 9-7 3-6 4c1 2 3 3 5 4 0 2-4 8 2 7 4-1 12-10 14-14zM344 277v0 0zM403 251c0 0-2 0 0 0v0zM224 416c124 0 224-100 224-224s-100-224-224-224-224 100-224 224 100 224 224 224zM141 19l8-4c3-1 6-2 10-3 14-5 28-8 43-10 28-3 56-1 83 8 15 5 30 11 43 20 6 4 6 16 10 24 8 16-2 33 12 47 12 14 4 19 4 34 0 10 8 18 4 29-1 4-7-3-9 1-5 7-21 1-28 2-13 2-24 14-33 23-5 5 0 20 1 26 4 15 0 33 19 38 5 1 5 9 10 11 5 1 10 3 15 4 9 1 17-2 26-2 10 0 14-5 22-11 7-6 13-3 22-5 7 0 0 5-2 8-3 2-6 2-8 2-16 4-23 22-36 30-6 3-9 2-11 0-1-1 1-12 1-12-1-3-10-4-13-5-9-2-29 17-15 22 4 1 27 5 24 15-3 6 2 13-5 14-8 1-7 7-15 8-5 1-5 11-5 14 0 9 2 6 9 7-17 11-37 19-57 24-1-3-5-12-8-12-5-1-6 0-9-3-9-10-16-28-25-7-4 11 5 19 2 28h-6-3c6-12-5-18-8-19-8 0-10 5-17 4-4-1-7 4-11 2s-13-8-14-12c-3-12 6-13 14-6 6 6 17 12 25 6 6-5 5-9 5-14s-1-18-9-16c-4 1-7 6-11 3-8-7-18-6-29-9-10-2-16-6-25-9-8-3-11-4-12-12 0-2 0-14-3-15-5-2-8 22-22 20-12-1-30-13-25-28 2-5 28-3 10-14-2-1 2-17 2-20 1-8 13-18 21-10 6 6 6 5 14 2 15-8 33-15 45-27 6-6 9-24 17-28 9-5 19-5 26-14 6-7-2-19-8-23-4-2-12-24-16-29-2-4-12-6-16-7-3 0-7-9-9-11-7-7-8-13-17-19-18-12-22-23-18-44 2-8 5-13 11-16zM100 46l2-2c7-6 15-11 23-16-21 21-23 49-21 78l3 24c1 3-4 7-4 11 0 10 0 5-8 13-4 4-10 11-12 17-7 16 1 30 10 43 9 14-7 20-10 32-1 6-7 6-6 12 1 7-4 5-9 9-12 8-1 20-7 26-43-70-36-162 16-224 1-1 0-1 1-2h1c3-4 6-8 9-11s7-6 10-9z" glyph-name="ion-earth" unicode="&#xf276;"/><glyph d="M48 112v192h352v-192h-352zM432 352c9 0 16-7 16-16v-256c0-9-7-16-16-16h-416c-9 0-16 7-16 16v256c0 9 7 16 16 16h416zM416 96v224h-384v-224h384zM48-32l29 80h31l-28-80h-32zM239 416l17-48h-64l17 48h30zM340 48h31l29-80h-32zM208 0v48h32v-48h-32z" glyph-name="ion-easel" unicode="&#xf3c2;"/><glyph d="M381 259l-250-251-91 91 251 250zM440 360c12-12 11-32-2-45l-45-45-91 91 45 45c13 13 33 14 45 2zM32 85l85-85-117-32z" glyph-name="ion-edit" unicode="&#xf2bf;"/><glyph d="M160 416c64 0 160-133 160-257s-64-191-160-191-160 67-160 191 96 257 160 257z" glyph-name="ion-egg" horiz-adv-x="320" unicode="&#xf277;"/><glyph d="M303 128h-286v0c-10 0-17 7-17 16 0 3 1 5 3 8l138 191c5 5 11 9 19 9s14-4 19-9l138-190c2-3 3-6 3-9 0-9-7-16-17-16v0zM308 96c7 0 12-5 12-12v-40c0-7-5-12-12-12h-296c-7 0-12 5-12 12v40c0 7 5 12 12 12h296z" glyph-name="ion-eject" horiz-adv-x="320" unicode="&#xf131;"/><glyph d="M352 288c0 43 21 64 64 64s64-21 64-64-21-64-64-64-64 21-64 64zM209 288h127c0-17 5-33 15-47-6-3-14-8-22-12s-16-8-23-12-14-8-22-12-15-8-21-11-11-6-16-9-9-5-12-7-4-3-5-3c-6-3-13-4-21-4s-15 1-21 4c-1 1-15 8-42 23s-54 29-81 44-43 23-46 25c-7 4-12 8-13 11-1 4-1 6 1 8s6 2 11 2h191zM277 175c18 11 45 30 83 56 16-15 34-23 56-23v-155c0-2-1-4-2-7s-3-5-5-7-4-4-7-5-6-2-8-2h-185-185c-5 0-11 2-16 7s-8 9-8 14v205c0 6 3 8 9 5 2-1 11-7 26-17s32-22 53-36 39-26 53-35l-83-93c-2-2-2-4-1-5 2-1 4-1 6 1l98 83c16-10 25-16 27-17 6-3 13-4 21-4s15 1 21 4c2 1 11 7 27 17l98-83c2-2 5-2 6-1s0 3-2 5z" glyph-name="ion-email-unread" horiz-adv-x="480" unicode="&#xf3c3;"/><glyph d="M19 299c-4 2-11 7-13 11-3 8 1 10 12 10h191 191c11 0 15-2 12-10-2-4-9-9-13-11-11-6-163-89-169-92s-12-4-21-4-15 1-21 4-158 86-169 92zM408 295c9 4 8-1 8-5v-205c0-9-12-21-22-21h-185-185c-10 0-24 12-24 21v205s0 9 9 5c8-4 83-56 132-88l-83-93c-2-2-2-4-1-5s4-1 6 1l98 83c15-10 25-16 27-17 8-4 14-4 21-4s13 0 21 4c2 1 12 7 27 17l98-83c2-2 5-2 6-1s0 3-2 5l-82 93c49 32 123 84 131 88z" glyph-name="ion-email" horiz-adv-x="416" unicode="&#xf132;"/><glyph d="M382 21c2-4 3-10 0-14s-8-7-13-7h-177-178c-5 0-9 3-12 7s-2 10 0 14l118 199v150c0 8 6 14 14 14s15-6 15-14v-80c4 3 10 5 16 5 15 0 27-12 27-27s-12-26-27-26c-6 0-12 2-16 5v-31c0-2-1-4-2-6l-35-59h72c-15 6-26 20-26 37 0 23 19 42 43 42 15 0 27-8 35-19-1 2-1 3-1 5v154c0 8 6 14 14 14s15-6 15-14v-150zM218 151h53l-31 54c2-5 3-11 3-17 0-17-10-31-25-37zM201 319c-12 0-22 9-22 21s10 21 22 21 22-9 22-21-10-21-22-21z" glyph-name="ion-erlenmeyer-flask-bubbles" horiz-adv-x="384" unicode="&#xf3c4;"/><glyph d="M375 52c6-9 9-20 9-32 0-28-16-52-63-52h-258c-47 0-63 24-63 52 0 12 3 23 9 32l49 73 49 77c13 20 21 44 21 70v92s-14 34-16 43c-2 8 1 9 17 9h126c16 0 18-1 16-9-2-9-15-22-15-42v-93c0-26 6-50 19-70zM345 7c3 3 7 8 7 14 0 5-2 10-4 14l-101 150c-16 26-23 56-23 87v112h-64v-112c0-32-9-62-25-87l-99-150c-2-4-4-9-4-14 0-6 3-11 6-14 4-4 12-7 25-7h258c13 0 20 3 24 7zM325 37c1-2 3-6 3-8 0-7-6-15-14-15h-244c-7 0-14 6-14 14 0 3 1 6 3 8l81 124h103l82-124v1zM238 106c2-1 4-2 6-2s3 0 5 2c1 2 3 4 3 6s-1 4-3 6c-1 2-3 2-5 2s-4 0-6-2c-1-2-2-4-2-6s0-4 2-6zM285 47c4 2 4 7 2 11l-23 36c-1 2-4 4-7 4-2 0-3 0-4-1-4-2-4-7-2-11l23-36c1-2 5-4 7-4 1 0 3 0 4 1z" glyph-name="ion-erlenmeyer-flask" horiz-adv-x="384" unicode="&#xf3c5;"/><glyph d="M344 290c41-27 76-66 104-100-51-54-124-135-224-135-36 0-65 8-92 22l-77-77-23 23 71 71c-36 25-68 61-103 98 78 85 142 137 224 137 34 0 64-9 92-23l77 78 23-23zM134 192c0-19 6-36 16-51l27 27c-4 7-5 15-5 24 0 29 23 53 52 53h8c-5-6-8-13-8-21 0-3 0-5 1-8l51 50c-15 11-33 17-52 17-49 0-90-41-90-91zM224 101c49 0 90 41 90 91 0 19-6 37-16 52l-50-51c3-1 5-1 8-1 8 0 14 3 20 7v-7c0-29-23-53-52-53-9 0-17 2-24 6l-28-27c15-11 33-17 52-17z" glyph-name="ion-eye-disabled" unicode="&#xf306;"/><glyph d="M224 320c99 0 172-70 224-129-51-50-124-127-224-127s-157 60-224 128c78 79 142 128 224 128zM224 101c49 0 90 41 90 91s-41 91-90 91-90-41-90-91 41-91 90-91zM224 224c0-18 14-32 32-32 8 0 14 3 20 7v-7c0-29-23-53-52-53s-52 24-52 53 23 53 52 53h8c-5-6-8-13-8-21z" glyph-name="ion-eye" unicode="&#xf133;"/><glyph d="M160 164v-68h64v-64h-64v-64h-64v64h-64v64h64v68c-55 14-96 64-96 124 0 71 57 128 128 128s128-57 128-128c0-60-41-110-96-124zM128 208c44 0 80 36 80 80s-36 80-80 80-80-36-80-80 36-80 80-80z" glyph-name="ion-female" horiz-adv-x="256" unicode="&#xf278;"/><glyph d="M317 319c12 0 19 0 19-20v-28h-288v28c0 20 8 20 20 20h249zM269 352c13 0 19-1 19-19h-192c0 18 7 19 20 19h153zM368 278c13-8 17-17 15-41l-17-184c-4-21-16-21-24-21h-300c-8 0-20 0-24 21l-17 185c-3 26 1 31 15 40l15 10v-32h321v32z" glyph-name="ion-filing" horiz-adv-x="384" unicode="&#xf134;"/><glyph d="M400 240c9 0 16-7 16-15v-210c0-8-7-15-16-15h-384c-9 0-16 7-16 15v210c0 8 6 14 13 15-2 2-3 4-4 7l-9 45c-2 8 5 16 13 18l370 74c8 2 16-4 18-12l9-46c2-8-4-16-12-18l-342-68h344zM257 46l-20 58 51 36h-62l-20 58-19-58h-63l51-36-19-58 50 36z" glyph-name="ion-film-marker" horiz-adv-x="416" unicode="&#xf135;"/><glyph d="M297 210c14-24 23-52 23-82 0-33-10-63-26-88v0 0c-29-43-78-72-134-72-17 0-32 1-46 7s-25 13-33 25c-11 16-17 28-21 52-6-25 2-48 9-60-43 26-69 71-69 125v4c5 78 65 109 90 151 8 14 13 30 10 48 11-9 15-25 15-39 0-16-3-29-3-29 4 8 7 18 9 31 6 35 2 85-37 132l-1 1s7 0 18-3c95-16 169-91 184-186 2-12 3-23 3-35 0-16-2-32-5-47 10 23 13 43 14 55v10z" glyph-name="ion-fireball" horiz-adv-x="320" unicode="&#xf319;"/><glyph d="M362 266c0 0 12 2 22 6 0-16-7-32-9-36-28-50-99-123-181-84-65 31-92 30-117 24-1 0-2-1-3-1-3-1-15-5-26-1v197c0 16 14 31 33 35 39 7 106 5 148-74 39-74 97-72 133-66zM24 416c4 0 8-4 8-8v-432c0-4-4-8-8-8h-16c-4 0-8 4-8 8v432c0 4 4 8 8 8h16z" glyph-name="ion-flag" horiz-adv-x="384" unicode="&#xf279;"/><glyph d="M1 128c-11 109 72 224 159 288-26-145 97-142 96-288-1-120-105-160-128-160s-114 26-127 160zM88 80c0-44 40-80 40-80s41 36 41 80-41 80-41 80-40-36-40-80z" glyph-name="ion-flame" horiz-adv-x="256" unicode="&#xf31a;"/><glyph d="M115-4c-69 38-115 112-115 196 0 124 100 224 224 224 24 0 47-4 68-11 2-1 3-1 5-2 12-4 24-9 35-15v0c69-38 116-112 116-196 0-124-100-224-224-224-24 0-47 4-68 11-2 1-3 1-5 2-12 4-24 8-35 14zM86 291c-20-28-32-62-32-99 0-65 36-121 90-150 6-3 13-7 19-9 2-1 3-1 5-2 9-3 19-5 29-7 9-2 18-2 27-2 37 0 71 12 99 32l-52 53 36 40 55-54c20 28 32 62 32 99 0 66-37 123-91 151-6 3-12 6-18 8-2 1-3 1-5 2-9 3-19 5-29 7-9 2-18 2-27 2-37 0-72-12-100-32l53-52-36-41zM178 58l38 113h-85l139 155-38-113h85z" glyph-name="ion-flash-off" unicode="&#xf136;"/><glyph d="M0 160l224 256-51-192h147l-224-256 51 192h-147z" glyph-name="ion-flash" horiz-adv-x="320" unicode="&#xf137;"/><glyph d="M366 256c18 0 19-7 18-18l-12-186c-1-11-3-20-21-20h-317c-18 0-20 9-21 20l-13 184c-1 11 0 20 18 20h348zM362 305l2-33h-344c0 6 4 46 6 63 2 18 8 17 25 17h75c28 0 23 0 37-15 16-18 19-17 41-17h143c11 0 15-3 15-15z" glyph-name="ion-folder" horiz-adv-x="384" unicode="&#xf139;"/><glyph d="M320 368v-64h-48v-48h-64v48h-48v64h48v48h64v-48h48zM208 208h64v-5 0c0-43-7-70-38-95-23-19-51-20-75-22-9-1-18-2-26-3-6-1-13-5-20-10 9-11 15-25 15-41 0-35-29-64-64-64s-64 29-64 64c0 24 13 44 32 55v210c-19 11-32 31-32 55 0 35 29 64 64 64s64-29 64-64c0-24-13-44-32-55v-160c8 4 18 7 27 9 11 2 21 2 31 3 17 1 33 3 40 9 10 8 14 11 14 50zM64 384c-18 0-32-14-32-32s14-32 32-32 32 14 32 32-14 32-32 32zM64 0c18 0 32 14 32 32s-14 32-32 32-32-14-32-32 14-32 32-32z" glyph-name="ion-fork-repo" horiz-adv-x="320" unicode="&#xf2c0;"/><glyph d="M78 299v0 0 0zM128 282c0-26-15-48-37-58-12-6-11-11-11-11s16-200 16-213-3-18-9-24-15-8-23-8v0 0c-8 0-16 2-22 8s-10 13-10 24 16 213 16 213 0 6-11 11c-22 10-37 32-37 58 0 43 15 93 24 134h8v-117c0-6 3-11 9-11s9 4 10 10v1l9 117h8l10-117v-1c1-6 3-10 9-10s9 5 9 11v117h8v0c9-40 24-91 24-134z" glyph-name="ion-fork" horiz-adv-x="128" unicode="&#xf27a;"/><glyph d="M224 150c-102 0-171-9-224-102 0 0 37 208 224 208v80l160-144-160-134v92z" glyph-name="ion-forward" horiz-adv-x="384" unicode="&#xf13a;"/><glyph d="M224 416c124 0 224-36 224-80 0-8-3-15-9-22v0c-35-43-151-179-151-218v-4-83 0c0-23-29-41-64-41s-64 18-64 41v0 87c0 39-117 177-149 216v0c-7 8-11 16-11 24 0 44 100 80 224 80zM224 288c92 0 176 22 176 48s-83 48-176 48-176-22-176-48 84-48 176-48z" glyph-name="ion-funnel" unicode="&#xf31b;"/><glyph d="M347 192c0-24 15-43 37-56-4-13-10-26-16-38-25 6-45-3-62-20s-22-37-16-62c-12-6-25-12-38-16-13 22-36 37-60 37s-47-15-60-37c-13 4-27 10-39 16 6 25 2 45-15 62s-37 21-62 15c-6 12-12 26-16 39 22 13 37 36 37 60s-15 43-37 56c4 13 9 26 16 38 25-6 45 3 62 20s21 37 15 62c12 6 26 12 39 16 13-22 36-37 60-37s47 15 60 37c13-4 27-10 39-16-6-25-2-45 15-62s37-26 62-20c6-12 12-25 16-38-22-13-37-32-37-56zM192 94c54 0 98 44 98 98s-44 98-98 98-98-44-98-98 44-98 98-98z" glyph-name="ion-gear-a" horiz-adv-x="384" unicode="&#xf13d;"/><glyph d="M384 154h-44c-4-14-10-27-17-39l32-32-54-54-33 32c-12-7-24-11-38-15v-46h-76v46c-13 4-26 8-38 15l-33-32-54 54 32 32c-7 12-13 25-17 39h-44v76h43c4 14 9 29 16 41l-30 30 54 54 29-29c13 8 27 13 42 17v41h76v-41c15-4 29-9 42-17l29 29 54-54-30-30c7-12 13-27 16-41h43v-76zM192 138c30 0 54 24 54 54s-24 54-54 54-54-24-54-54 24-54 54-54z" glyph-name="ion-gear-b" horiz-adv-x="384" unicode="&#xf13e;"/><glyph d="M64 295c0-4-3-7-7-7h-50c-4 0-7 3-7 7v50c0 4 3 7 7 7h50c4 0 7-3 7-7v-50zM192 295c0-4-3-7-7-7h-50c-4 0-7 3-7 7v50c0 4 3 7 7 7h50c4 0 7-3 7-7v-50zM320 295c0-4-3-7-7-7h-50c-4 0-7 3-7 7v50c0 4 3 7 7 7h50c4 0 7-3 7-7v-50zM64 167c0-4-3-7-7-7h-50c-4 0-7 3-7 7v50c0 4 3 7 7 7h50c4 0 7-3 7-7v-50zM192 167c0-4-3-7-7-7h-50c-4 0-7 3-7 7v50c0 4 3 7 7 7h50c4 0 7-3 7-7v-50zM320 167c0-4-3-7-7-7h-50c-4 0-7 3-7 7v50c0 4 3 7 7 7h50c4 0 7-3 7-7v-50zM64 39c0-4-3-7-7-7h-50c-4 0-7 3-7 7v50c0 4 3 7 7 7h50c4 0 7-3 7-7v-50zM192 39c0-4-3-7-7-7h-50c-4 0-7 3-7 7v50c0 4 3 7 7 7h50c4 0 7-3 7-7v-50zM320 39c0-4-3-7-7-7h-50c-4 0-7 3-7 7v50c0 4 3 7 7 7h50c4 0 7-3 7-7v-50z" glyph-name="ion-grid" horiz-adv-x="320" unicode="&#xf13f;"/><glyph d="M314 416c3 0 6-3 6-6v-84c0-3-3-6-6-6h-52c-3 0-6 3-6 6v14c-6 5-16 9-22 7-7-2-23-13-30-25s-6-28-6-66l8-2c5-1 7-6 7-9v-70c0-95 11-201 11-201 0-3-3-6-6-6h-84c-3 0-6 3-6 6 0 0 11 106 11 201v70c0 3 3 8 7 9l7 2c0 43-5 58-22 74-18 16-41 19-63 17s-51-35-58-45-10 2-10 11c1 16 22 60 72 81s91 22 102 22 27-1 38-3 16-18 26-18c7 0 14 5 18 9v6c0 3 3 6 6 6h52z" glyph-name="ion-hammer" horiz-adv-x="320" unicode="&#xf27b;"/><glyph d="M355 158c8-4 11-13 7-21-24-46-78-73-138-73-62 0-118 29-139 74-4 8 0 17 8 21 2 1 5 1 7 1 6 0 11-3 14-9 16-34 60-55 110-55 49 0 92 21 110 56 3 5 8 8 14 8 3 0 5-1 7-2zM381 217c5-7 4-17-4-22-3-2-6-3-10-3-5 0-11 2-14 6s-7 10-17 10-14-6-17-10-9-6-14-6c-4 0-7 1-10 3-8 6-9 15-3 22 11 14 23 23 44 23s35-9 45-23zM157 217c5-7 4-17-4-22-3-2-6-3-10-3-5 0-11 2-14 6s-7 10-17 10-14-6-17-10-9-6-14-6c-4 0-7 1-10 3-8 6-9 15-3 22 11 14 23 23 44 23s35-9 45-23zM224 416c124 0 224-100 224-224s-100-224-224-224-224 100-224 224 100 224 224 224zM360 56c36 36 56 85 56 136s-20 100-56 136-85 56-136 56-100-20-136-56-56-85-56-136 20-100 56-136 85-56 136-56 100 20 136 56z" glyph-name="ion-happy-outline" unicode="&#xf3c6;"/><glyph d="M224 416c124 0 224-100 224-224s-100-224-224-224-224 100-224 224 100 224 224 224zM71 195c3-2 6-3 10-3 5 0 11 2 14 6s7 10 17 10 14-6 17-10 9-6 14-6c4 0 7 1 10 3 8 5 9 15 4 22-10 14-24 23-45 23s-33-9-44-23c-6-7-5-16 3-22zM362 137c4 8 1 17-7 21-2 1-4 2-7 2-6 0-11-3-14-8-18-35-61-56-110-56-50 0-94 21-110 55-3 6-8 9-14 9-2 0-5 0-7-1-8-4-12-13-8-21 21-45 77-74 139-74 60 0 114 27 138 73zM377 195c8 5 9 15 4 22-10 14-24 23-45 23s-33-9-44-23c-6-7-5-16 3-22 3-2 6-3 10-3 5 0 11 2 14 6s7 10 17 10 14-6 17-10 9-6 14-6c4 0 7 1 10 3z" glyph-name="ion-happy" unicode="&#xf31c;"/><glyph d="M383 210c3-51-3-130-13-162-20-67-40-80-72-80s-58 27-58 59v106c0 33 23 59 53 59 18 0 34-9 44-24 0 0 11 7 13 22s4 34-5 64-21 19-36 38c-2 3-5 7-8 10l-10 10c-2 2-3 3-5 4-11 9-21 17-34 23-19 9-39 13-60 13s-42-4-61-13c-13-6-22-14-33-23-2-1-3-2-5-4l-10-10s-6-7-8-10c-15-19-27-8-36-38-9-31-7-49-5-64s13-22 13-22c10 15 26 24 44 24 30 0 53-27 53-59v-106c0-32-26-59-58-59s-52 13-72 80c-10 32-16 111-13 162 3 60 22 108 56 145v0c8 8 15 16 24 23s19 13 29 18c25 13 53 20 82 20s57-7 82-20c10-5 19-11 28-18s17-15 25-23v0c34-37 53-85 56-145z" glyph-name="ion-headphone" horiz-adv-x="384" unicode="&#xf140;"/><glyph d="M181 160c0-36-2-71 4-107 2-10 2-20 2-31l-153 159c-45 47-45 124 0 171 40 41 103 43 144 3-2-15-3-31-3-46-18-14-40-21-56-39l11 7c17 11 15 8 35 14 3 1 8 3 11 5 0-1-1-5-1-6 1-20 11-39 15-60 0-5 1-10-1-15-8-17-7-37-8-55zM274 147c8-18 23-29 38-39l-104-108-17 18c0 13-4 26-4 38-2 48 10 94 21 142v0c1-1 2-1 3-1 30-6 52-24 63-50zM382 352c46-47 46-124 0-171l-68-70c-28 24-42 54-65 81-12 13-26 23-41 32-3 13-8 26-11 39-3 12 14 21 16 31 3 12 3 26 3 39l19 19c40 42 107 42 147 0z" glyph-name="ion-heart-broken" horiz-adv-x="416" unicode="&#xf31d;"/><glyph d="M382 352c46-47 46-124 0-171l-174-181-174 181c-46 47-46 124 0 171 40 42 107 42 147 0l27-28 28 28c40 42 106 42 146 0z" glyph-name="ion-heart" horiz-adv-x="416" unicode="&#xf141;"/><glyph d="M224 416c124 0 224-100 224-224s-100-224-224-224-224 100-224 224 100 224 224 224zM402 264c-10 24-23 45-42 64s-41 32-65 42l-19-61c14-6 27-15 38-26s21-24 27-38zM224 96c53 0 96 43 96 96s-43 96-96 96-96-43-96-96 43-96 96-96zM88 328c-19-19-32-41-42-65l61-19c6 14 15 27 26 38s24 21 38 27l-19 61c-24-10-45-23-64-42zM46 120c10-24 23-45 42-64s41-32 65-42l19 61c-14 6-27 15-38 26s-21 24-27 38zM360 56c19 19 32 41 42 65l-61 19c-6-14-15-27-26-38s-24-21-38-27l19-61c24 10 45 23 64 42z" glyph-name="ion-help-buoy" unicode="&#xf27c;"/><glyph d="M224 416c124 0 224-100 224-224s-100-224-224-224-224 100-224 224 100 224 224 224zM244 89c1 18-12 31-29 31-16 0-30-11-30-29s12-30 28-30c17 0 31 10 31 28zM293 217c7 10 12 22 12 36 0 23-9 40-25 52-17 13-37 18-62 18-19 0-34-4-47-13-19-13-28-34-28-68h49c0 9-1 19 4 27s13 15 26 15 19-3 25-11c5-7 8-15 8-23 0-7-4-14-8-20-2-4-6-7-10-10 0 0-26-15-35-30-7-11-9-24-10-41 0-1 0-4 4-4h39s5 3 5 4c0 6 1 15 2 19 2 7 6 12 12 17l14 9c12 9 21 17 25 23z" glyph-name="ion-help-circled" unicode="&#xf142;"/><glyph d="M217 371c25-19 39-46 39-83 0-22-8-42-19-57-7-9-21-21-40-36l-21-14c-10-8-17-18-20-28-2-6-3-19-3-29 0-2-1-6-7-6h-62c-7 0-7 3-7 5 1 26 4 49 15 66 15 23 57 48 57 48 6 5 11 9 15 15 7 10 12 21 12 32 0 13-3 26-11 36-10 12-21 18-41 18s-32-11-40-24-7-29-7-43h-77c0 54 14 88 44 108 20 14 45 20 75 20 39 0 70-7 98-28zM114 78c27-1 47-20 46-48s-22-46-49-45c-26 1-46 19-45 47s22 47 48 46z" glyph-name="ion-help" horiz-adv-x="256" unicode="&#xf143;"/><glyph d="M384 160h-48v-160h-96v128h-96v-128h-96v160h-48l192 224z" glyph-name="ion-home" horiz-adv-x="384" unicode="&#xf144;"/><glyph d="M32 192h256l-128-224zM307 275c8-5 13-13 13-23 0-16-14-28-30-28h-4-252-4c-16 0-30 13-30 28 0 10 6 18 14 23 1 0 1 2 2 2 4 3 7 7 8 12v1c-2 6-2 12-2 18 0 42 34 76 76 76 8 0 16-2 23-4-3-12-4-31-4-31 2 15 11 29 11 29 18 23 46 38 77 38 53 0 96-43 96-96 0-11-2-21-5-30v-1c0-4 4-9 8-12 1 0 2-2 3-2z" glyph-name="ion-icecream" horiz-adv-x="320" unicode="&#xf27d;"/><glyph d="M336 224c-26 0-48 22-48 48s22 48 48 48 48-22 48-48-22-48-48-48zM420 384c16 0 28-12 28-28v-328c0-16-12-28-28-28h-392c-16 0-28 12-28 28v328c0 16 12 28 28 28h392zM317 186l99-106v260c0 7-6 12-13 12h-358c-7 0-12-5-13-12v-260l126 152c4 4 10 8 17 8s13-2 17-7l54-59 4-4c3-2 7-4 11-4s8 2 12 5l18 16c4 3 8 5 13 5s10-2 13-6z" glyph-name="ion-image" unicode="&#xf147;"/><glyph d="M426 308c13-1 23-12 22-24l-14-263c-1-13-12-22-25-21l-330 16c-13 1-23 10-22 23l2 46-15-1c-12-1-22 7-23 18l-21 236c-1 11 7 21 19 22l296 24c12 1 22-7 23-18l5-54zM71 302c1 12 11 22 24 22l219-11-2 31h-1v1c-1 5-5 8-10 8l-261-22c-5 0-10-4-10-9v0-1l16-178 18 25zM405 66l10 198v1 0c0 6-5 10-11 10l-58 3-29 2-204 9c-6 0-11-4-12-9v0-1l-3-63-7-128v-7l6 7 102 109c4 4 8 6 14 6s11-3 14-7l43-49 3-3c2-2 6-4 10-4s5 1 9 3l17 12c4 3 7 4 11 4s9-2 11-5l27-33zM341 186c-20 0-35 15-35 35s16 35 35 35c20 0 35-16 35-35s-16-35-35-35z" glyph-name="ion-images" unicode="&#xf148;"/><glyph d="M448 195c2-124-97-225-221-227s-225 97-227 221 97 225 221 227 225-97 227-221zM224 336c-18 0-32-14-32-32s14-32 32-32 32 14 32 32-14 32-32 32zM268 53v11h-22v172h-66v-12h22v-160h-22v-11h88z" glyph-name="ion-information-circled" unicode="&#xf149;"/><glyph d="M96 0h32v-16h-128v16h32v240h-32v16h96v-256zM64 304c-27 0-48 21-48 48s21 48 48 48 48-21 48-48-21-48-48-48z" glyph-name="ion-information" horiz-adv-x="128" unicode="&#xf14a;"/><glyph d="M376 315c25-34 40-77 40-123 0-115-93-208-208-208s-208 93-208 208 93 208 208 208c46 0 89-15 123-40 5 3 11 5 18 5 18 0 32-14 32-32 0-7-2-13-5-18zM344 56c18 18 31 38 41 61 10 24 15 49 15 75s-5 51-15 75c-6 13-13 26-21 38-4-2-10-4-15-4-18 0-32 14-32 32 0 5 2 11 4 15-12 8-25 15-38 21-24 10-49 15-75 15s-51-5-75-15c-23-10-43-23-61-41s-31-38-41-61c-10-24-15-49-15-75s5-51 15-75c10-23 23-43 41-61s38-31 61-41c24-10 49-15 75-15s51 5 75 15c23 10 43 23 61 41zM112 192c0 64 32 96 96 96s96-32 96-96-32-96-96-96-96 32-96 96z" glyph-name="ion-ionic" horiz-adv-x="416" unicode="&#xf14b;"/><glyph d="M384 256l-54 52-9-9c35-32 57-79 57-130 0-44-16-83-43-114l36-45-12-10-35 43c-32-30-75-49-122-49v0 0c-47 0-90 19-122 49l-35-43-12 10 36 45c-27 31-43 71-43 115 0 51 22 97 57 129l-9 9-54-52c-12 14-20 32-20 52 0 44 35 80 80 82h5c20 0 39-7 54-18l-54-52 11-11c26 19 56 32 90 35v0c0 8 8 16 16 16s15-8 15-16v0c34-3 65-16 91-35l11 11-54 52c15 11 34 18 54 18h5c45-2 80-38 80-82 0-20-8-38-20-52zM22 280l91 89c-9 5-19 7-32 6-37-2-65-32-65-67 0-10 2-19 6-28zM362 172c0 88-72 158-160 158s-160-70-160-158 72-158 160-158 160 70 160 158zM291 369l91-89c4 9 6 18 6 28 0 35-28 65-65 67-13 1-23-1-32-6zM202 288h16v-144h-112v16h96v128z" glyph-name="ion-ios-alarm-outline" horiz-adv-x="404" unicode="&#xf3c7;"/><glyph d="M385 256l-55 52-9-9c35-32 57-79 57-130 0-44-16-83-43-114l37-45-13-10-35 43c-32-30-75-49-122-49v0 0c-47 0-90 19-122 49l-35-43-12 10 36 45c-27 31-43 70-43 114 0 51 22 98 57 130l-9 9-54-52c-12 14-20 32-20 52 0 44 35 80 80 82h5c20 0 39-7 54-18l-54-53 11-10c26 19 56 32 90 35v0c0 8 8 16 16 16s15-8 15-16v0c34-3 65-16 91-35l11 11-54 52c15 11 34 18 54 18h5c45-2 80-38 80-82 0-20-7-38-19-52zM218 144v144h-16v-128h-96v-16h112z" glyph-name="ion-ios-alarm" horiz-adv-x="404" unicode="&#xf3c8;"/><glyph d="M432 304h-416v-288h416v288zM448 320v0-320h-448v320h448zM40 336v16h368v-16h-368zM72 368v16h304v-16h-304z" glyph-name="ion-ios-albums-outline" unicode="&#xf3c9;"/><glyph d="M448 320v0-320h-448v320h448zM40 336v16h368v-16h-368zM72 368v16h304v-16h-304z" glyph-name="ion-ios-albums" unicode="&#xf3ca;"/><glyph d="M331 315c112-112 81-327 81-327s-26-4-65-4c-73 0-189 12-262 85-112 112-81 327-81 327s26 4 65 4c73 0 189-12 262-85zM17 383c-2-19-5-60 0-107 1-8 2-16 3-23l127 127c-25 3-51 5-78 5v0 0c-22 0-41-1-52-2zM96 80c30-30 72-53 124-66 10-3 20-5 31-7l142 142c-4 22-10 44-17 63-14 37-32 68-56 92-30 30-72 53-124 66-10 3-20 5-31 7l-142-142c4-22 10-44 17-63 14-37 32-68 56-92zM399 1c2 19 5 60 0 107-1 8-2 16-3 23l-127-127c25-3 51-5 78-5 22 0 41 1 52 2zM259 130l-28-29-12 12 29 28-23 23-28-29-12 12 29 28-23 23-28-29-12 12 29 28-23 23-28-29-12 12 29 28-22 23-29-29-11 12 67 67 12-11-29-29 23-22 28 29 12-12-29-28 23-23 28 29 12-12-29-28 23-23 28 29 12-12-29-28 22-23 29 29 12-12-29-28 22-23 29 29 11-12-67-67-12 11 29 29z" glyph-name="ion-ios-americanfootball-outline" horiz-adv-x="416" unicode="&#xf3cb;"/><glyph d="M331 315c112-112 81-327 81-327s-26-4-65-4c-73 0-189 12-262 85-112 112-81 327-81 327s26 4 65 4c73 0 189-12 262-85zM20 253l3-18 142 142-18 3zM219 113l12-12 28 29 23-22-29-29 12-11 67 67-11 12-29-29-22 23 29 28-12 12-28-29-23 23 29 28-12 12-28-29-23 23 29 28-12 12-28-29-23 23 29 28-12 12-28-29-23 22 29 29-12 11-67-67 11-12 29 29 22-23-29-28 12-12 28 29 23-23-29-28 12-12 28 29 23-23-29-28 12-12 28 29 23-23zM269 4l127 127-3 18-142-142z" glyph-name="ion-ios-americanfootball" horiz-adv-x="416" unicode="&#xf3cc;"/><glyph d="M224 400c-28 0-55-5-81-16-25-10-47-26-66-45s-35-41-45-66c-11-26-16-53-16-81s5-55 16-81c10-25 26-47 45-66s41-35 66-45c26-11 53-16 81-16s55 5 81 16c25 10 47 26 66 45s35 41 45 66c11 26 16 53 16 81s-5 55-16 81c-10 25-26 47-45 66s-41 35-66 45c-26 11-53 16-81 16zM224 416v0c124 0 224-100 224-224s-100-224-224-224-224 100-224 224 100 224 224 224zM76 128c-25 0-41 18-42 19-3 3-2 9 1 12s8 2 11-1c1-1 15-17 36-14 12 2 27 26 38 42 4 6 9 12 12 16 17 21 34 23 45 21 24-3 45-28 54-50 7-18 18-28 32-29 15-1 31 11 43 30 1 2 3 4 4 7 9 17 24 43 52 43 31 0 52-35 53-36 2-4 1-9-3-11s-9-1-11 3c0 0-5 8-12 15-6 6-16 13-27 13-18 0-29-19-38-35-1-3-3-5-4-7-15-25-36-40-58-38-20 1-36 15-46 39s-28 39-41 41c-11 1-21-4-31-16-3-4-6-9-10-15-14-20-31-45-50-48-3 0-5-1-8-1z" glyph-name="ion-ios-analytics-outline" unicode="&#xf3cd;"/><glyph d="M224 416c124 0 224-100 224-224 0-13-1-25-3-37-1-6-2-12-3-17-24-98-113-170-218-170-122 0-221 98-224 219v5c0 9 1 17 2 26 13 111 107 198 222 198zM431 168c1 8 1 16 1 24 0 28-5 55-16 81-10 25-26 47-45 66s-41 35-66 45c-26 11-53 16-81 16s-55-5-81-16c-25-10-47-26-66-45s-35-41-45-66c-11-26-16-53-16-81v0c14-21 29-34 29-34h1v-1c1-1 15-16 36-13 12 2 27 26 38 42 4 6 9 12 12 16 17 21 34 23 45 21 24-3 45-27 54-50 7-18 18-28 32-29 15-1 31 9 43 29 1 2 3 4 4 7 9 17 24 44 52 44 31 0 52-35 53-36 3-4 9-12 16-20z" glyph-name="ion-ios-analytics" unicode="&#xf3ce;"/><glyph d="M192 320l-127-128 127-128-32-32-160 160v0 0l160 160z" glyph-name="ion-ios-arrow-back" horiz-adv-x="192" unicode="&#xf3cf;"/><glyph d="M301 288l19-21-160-171-160 171 19 21 141-150z" glyph-name="ion-ios-arrow-down" horiz-adv-x="320" unicode="&#xf3d0;"/><glyph d="M0 320l32 32 160-160v0 0l-160-160-32 32 127 128z" glyph-name="ion-ios-arrow-forward" horiz-adv-x="192" unicode="&#xf3d1;"/><glyph d="M192 333l-150-141 150-141-21-19-171 160 171 160z" glyph-name="ion-ios-arrow-left" horiz-adv-x="192" unicode="&#xf3d2;"/><glyph d="M0 333l21 19 171-160-171-160-21 19 150 141z" glyph-name="ion-ios-arrow-right" horiz-adv-x="192" unicode="&#xf3d3;"/><glyph d="M190 126c2-2 2-4 2-6s0-4-2-6c0 0-87-79-88-80s-3-2-6-2-5 1-6 2-88 80-88 80c-3 3-3 9 0 12s9 3 12 0l74-67v285c0 4 4 8 8 8s8-4 8-8v-285l74 67c3 3 9 3 12 0z" glyph-name="ion-ios-arrow-thin-down" horiz-adv-x="192" unicode="&#xf3d4;"/><glyph d="M94 98c-2-2-4-2-6-2s-4 0-6 2c0 0-79 87-80 88s-2 3-2 6 1 5 2 6 80 88 80 88c3 3 9 3 12 0s3-9 0-12l-67-74h285c4 0 8-4 8-8s-4-8-8-8h-285l67-74c3-3 3-9 0-12z" glyph-name="ion-ios-arrow-thin-left" horiz-adv-x="320" unicode="&#xf3d5;"/><glyph d="M226 98c-3 3-3 9 0 12l67 74h-285c-4 0-8 4-8 8s4 8 8 8h285l-67 74c-3 3-3 9 0 12s9 3 12 0c0 0 79-87 80-88s2-3 2-6-1-5-2-6-80-88-80-88c-2-2-4-2-6-2s-4 0-6 2z" glyph-name="ion-ios-arrow-thin-right" horiz-adv-x="320" unicode="&#xf3d6;"/><glyph d="M190 258c-3-3-9-3-12 0l-74 67v-285c0-4-4-8-8-8s-8 4-8 8v285l-74-67c-3-3-9-3-12 0s-3 9 0 12c0 0 87 79 88 80s3 2 6 2 5-1 6-2 88-80 88-80c2-2 2-4 2-6s0-4-2-6z" glyph-name="ion-ios-arrow-thin-up" horiz-adv-x="192" unicode="&#xf3d7;"/><glyph d="M301 96l-141 150-141-150-19 21 160 171 160-171z" glyph-name="ion-ios-arrow-up" horiz-adv-x="320" unicode="&#xf3d8;"/><glyph d="M236 127v1h19l-3-6c-3-6-13-19-22-27s-18-14-28-20-21-10-32-13-23-5-34-5c-16 0-33 3-49 8s-30 13-43 24c-12 11-26 29-34 46-7 16-10 33-10 58 0 18 4 38 11 55 7 16 17 30 29 42s27 21 43 28c15 6 33 9 53 9 16 0 32-3 46-8 15-5 28-12 39-22s17-21 24-35c6-13 8-26 8-44 0-14-2-28-7-40s-9-20-17-30c-8-9-13-15-23-21-11-6-20-9-29-9-8 0-15 2-20 7-3 2-5 6-6 9-6-6-11-10-17-12-10-3-18-4-26-4s-15 1-21 4-12 7-17 12-8 11-11 18-5 14-5 22c0 12 3 24 7 36v2c4 11 5 16 13 26 8 11 17 19 28 26s24 11 38 11c12 0 21-3 31-9 7-4 12-10 16-16l6 17h18l-38-102c-2-5-4-10-5-14s-1-7-1-10c0-2 1-4 3-5s4-2 8-2c6 0 11 2 20 7 8 4 12 9 19 17 6 8 10 14 14 25s6 23 6 35c0 15-2 25-7 36-6 13-10 22-19 30s-20 15-33 20-27 7-42 7c-19 0-35-3-48-9-15-6-27-14-37-24-11-10-19-23-25-37-6-15-10-32-10-48 0-22 2-36 8-49 6-15 17-31 28-41s24-18 38-23 30-7 46-7c10 0 20 1 30 4s18 6 27 11 17 11 24 18 14 13 19 21zM147 154c4 5 8 12 11 20l21 57c-2 5-4 10-7 13-3 4-6 6-10 8-1 0-1 1-2 1-3 2-5 3-9 4-5 1-9 2-13 2-10 0-19-3-28-9s-17-13-23-22c-5-8-7-11-10-20 0-1-1-3-1-4-4-11-5-20-5-30 0-6 1-11 3-16s5-9 8-13 7-6 12-8 9-3 15-3c4 0 9 1 14 2 4 1 8 2 12 5s8 7 12 13z" glyph-name="ion-ios-at-outline" horiz-adv-x="255" unicode="&#xf3d9;"/><glyph d="M228 128v0h28c-1-1-2-4-3-6-4-6-14-19-23-27s-18-14-28-20-20-10-32-13c-11-3-23-5-34-5-16 0-33 3-49 8s-30 13-43 24c-12 10-26 28-34 46-7 16-10 33-10 58 0 19 4 39 11 55s17 30 29 42 28 21 44 28c15 6 32 9 52 9 16 0 31-3 46-8s28-12 39-22 18-22 25-36c6-14 8-26 8-44 0-14-2-28-7-40-4-11-9-20-17-30-7-9-14-16-24-22-12-6-21-9-30-9s-16 2-22 8c-2 1-3 3-4 5-4-4-9-6-14-8-10-3-18-5-27-5-8 0-16 2-23 5s-12 7-17 12-9 12-12 19-4 14-4 22c0 12 2 25 6 37l1 1c4 10 5 17 13 27 8 11 17 20 28 27 12 7 24 10 38 10 12 0 22-3 33-9 5-3 8-6 12-10l5 12h25l-39-104c-2-5-3-9-4-13-1-3-1-7-1-9s0-3 1-3c0 0 1-1 5-1 5 0 11 2 19 7 7 4 10 8 16 16s9 13 13 23 6 20 6 32c0 14-1 24-6 34-5 12-10 21-18 28-9 8-19 14-31 18s-26 7-40 7c-18 0-32-3-44-8-14-6-25-13-35-23s-18-22-24-35c-6-14-9-30-9-45 0-21 3-34 8-46 6-14 16-30 26-39s22-16 35-21c14-5 28-7 43-7 10 0 20 2 29 4s18 6 26 11 28 20 38 33zM144 157c4 5 7 12 10 19l20 55c-1 4-3 7-5 9-3 3-6 6-9 8h-1-1v1c-3 2-5 2-8 3-4 1-8 1-12 1-9 0-17-2-25-7-10-6-17-14-21-21-5-8-6-11-9-19 0-1-1-2-1-3-3-10-6-19-6-28 0-5 1-10 3-14s4-8 7-11 7-6 11-8 8-2 13-2c4 0 8 0 12 1v0c4 1 7 2 11 5 3 2 7 5 11 11z" glyph-name="ion-ios-at" horiz-adv-x="256" unicode="&#xf3da;"/><glyph d="M0 64v256h80v-16h-64v-224h64v-16h-80zM336 320h80v-256h-80v16h64v224h-64v16zM64 128v128h16v-128h-16zM336 128v128h16v-128h-16zM272 96v192h16v-192h-16zM128 96v192h16v-192h-16zM199 112v160h16v-160h-16z" glyph-name="ion-ios-barcode-outline" horiz-adv-x="416" unicode="&#xf3db;"/><glyph d="M0 320h416v-256h-416v256zM80 128v128h-16v-128h16zM144 96v192h-16v-192h16zM215 112v160h-16v-160h16zM288 96v192h-16v-192h16zM352 128v128h-16v-128h16z" glyph-name="ion-ios-barcode" horiz-adv-x="416" unicode="&#xf3dc;"/><glyph d="M415 169v-1 0c-11-97-90-174-187-183v0h-2c-2 0-3-1-5-1h-1-3-1-8c-115 0-208 93-208 208v8 1 3 1c0 2 1 3 1 5v2 0c9 97 86 176 183 187v0 0c8 1 16 1 24 1 115 0 208-93 208-208 0-7 0-14-1-20v0-3zM399 192c0 105-86 191-191 191-3 0-5-1-8-1 0-11 2-21 4-31l20 6 5-15-21-7c2-7 4-14 7-21 2-5 5-11 8-16l17 12 9-13-19-13c7-12 16-23 26-33l14 15 12-12-15-15c11-10 22-18 34-25l12 18 14-9-12-17c5-2 10-5 15-7 7-3 14-5 22-7l7 20 15-5-6-19c10-2 20-4 30-4 0 3 1 5 1 8zM17 192c0-105 86-191 191-191h4c-1 9-1 17-3 26l-22-7-5 16 23 7c-2 8-5 16-8 24-2 5-4 9-6 14l-20-13-9 13 21 14c-7 12-16 24-26 35l-17-17-11 11 17 17c-10 10-22 18-34 25l-14-21-14 9 14 20c-5 2-10 5-15 7-7 3-15 6-23 8l-8-24-15 5 7 23c-9 2-18 2-27 3v-4zM228 2c88 9 158 78 169 166-11 1-23 3-34 5l-9-27-15 5 8 25c-14 4-28 10-41 17l-15-23-13 9 14 21c-13 8-26 17-37 28l-19-19-11 11 19 19c-10 11-19 23-27 36l-21-14-9 13 22 15c-7 13-12 27-16 41l-25-8-5 16 26 8c-2 12-4 23-5 35-88-11-157-81-166-169 10-1 21-2 31-4l8 23 15-5-7-22c14-4 28-9 42-16l13 19 14-9-13-18c13-8 25-17 36-28l17 17 11-11-17-17c11-12 20-24 28-37l19 13 9-14-20-13c7-14 12-28 16-42l23 7 5-15-24-8c2-10 3-20 4-30z" glyph-name="ion-ios-baseball-outline" horiz-adv-x="416" unicode="&#xf3dd;"/><glyph d="M208 400c115 0 208-93 208-208 0-8 0-16-1-24v0 0c-12-104-100-184-207-184-115 0-208 93-208 208 0 107 80 195 184 207v0 0c8 1 16 1 24 1zM212 1c5 0 11 0 16 1-1 10-2 20-4 30l24 8-5 15-23-7c-4 14-9 28-16 42l20 13-9 14-19-13c-8 13-17 25-28 37l17 17-11 11-17-17c-11 11-23 20-36 28l13 18-14 9-13-19c-14 7-28 12-42 16l7 22-15 5-8-23c-10 2-21 3-31 4-1-5-1-11-1-16 9-1 18-1 27-3l-7-23 15-5 8 24c8-2 16-5 23-8 5-2 10-5 15-7l-14-20 14-9 14 21c12-7 24-15 34-25l-17-17 11-11 17 17c10-11 19-23 26-35l-21-14 9-13 20 13c2-5 4-9 6-14 3-8 6-16 8-24l-23-7 5-16 22 7c2-8 2-17 3-26zM363 173c11-2 23-4 34-5 1 5 1 11 1 16-10 1-20 2-30 4l6 19-15 5-7-20c-8 2-15 4-22 7-5 2-10 5-15 7l12 17-14 9-12-18c-12 7-23 15-34 25l15 15-12 12-15-15c-10 10-18 21-25 33l19 13-9 13-17-12c-3 5-6 11-8 16-3 7-5 14-7 21l21 7-5 15-20-6c-2 10-3 20-4 31-5 0-11 0-16-1 1-12 3-23 5-35l-26-8 5-16 25 8c4-14 9-28 16-41l-22-15 9-13 21 14c8-13 17-25 27-36l-19-19 11-11 19 19c11-11 24-20 37-28l-14-21 13-9 15 23c13-7 27-13 41-17l-8-25 15-5z" glyph-name="ion-ios-baseball" horiz-adv-x="416" unicode="&#xf3de;"/><glyph d="M208 400c115 0 208-93 208-208s-93-208-208-208-208 93-208 208 93 208 208 208zM399 192c0 55-24 105-62 140-14-34-31-65-52-95 15-12 31-21 49-29 21-9 43-14 65-16v0zM325 343c-32 25-73 40-117 40v0c2-22 6-44 15-65 10-25 26-47 45-66 2-1 2-3 4-4 20 29 38 60 52 93 0 1 1 1 1 2zM192 382c-51-4-96-29-128-65 64-28 121-69 169-119 11 12 21 24 30 37-40 37-67 89-71 147zM233 174c-15-16-31-30-48-44 28-35 45-79 47-127 33 4 63 17 88 35-22 50-51 95-87 136zM214 178l8 8-10 10c-46 46-99 82-158 108-18-25-31-55-35-88 62-3 116-31 155-74 14 11 27 23 40 36zM18 200c0-3-1-5-1-8 0-45 16-87 43-120 36 16 71 36 102 60l-7 7c-19 19-41 35-66 45-22 9-46 15-71 16zM71 59c35-36 83-58 137-58 3 0 5 1 8 1-1 25-6 48-16 71-7 17-17 33-28 47-31-24-65-45-101-61zM333 48c37 32 61 77 65 128-46 3-89 21-123 48-10-13-20-26-31-38 36-41 67-87 89-138z" glyph-name="ion-ios-basketball-outline" horiz-adv-x="416" unicode="&#xf3df;"/><glyph d="M208 400c115 0 208-93 208-208s-93-208-208-208-208 93-208 208 93 208 208 208zM333 48c-22 51-53 97-89 138 11 12 21 25 31 38 34-27 77-45 123-48 0 5 1 11 1 16-22 2-44 7-65 16-18 8-34 17-49 29 21 30 38 61 52 95-4 4-8 8-12 11 0-1-1-1-1-2-14-33-32-64-52-93-2 1-2 2-4 4-19 19-35 41-45 66-9 21-13 43-15 65-5 0-11-1-16-1 4-58 31-110 71-147-9-13-19-25-30-37-48 50-105 91-169 119-4-4-7-9-10-13 59-26 112-62 158-108l10-10-8-8c-13-13-26-25-40-36-39 43-93 71-155 74-1-5-1-11-1-16 25-1 49-7 71-16 25-10 47-26 66-45l7-7c-31-24-66-44-102-60 4-4 7-9 11-13 36 16 70 37 101 61 11-14 21-30 28-47 10-23 15-46 16-71 5 0 11 0 16 1-2 48-19 92-47 127 17 14 33 28 48 44 36-41 65-86 87-136 4 3 9 6 13 10z" glyph-name="ion-ios-basketball" horiz-adv-x="416" unicode="&#xf3e0;"/><glyph d="M318 222c0-114 28-126 66-158h-384c38 32 66 44 66 158 0 98 53 130 102 138v2c0 12 11 22 24 22s24-10 24-22v-2c49-7 102-40 102-138zM43 80h298c-25 25-40 58-40 142 0 46-13 80-37 101-23 19-52 23-72 23s-49-4-72-23c-25-21-37-55-37-101 0-51-5-85-17-110-6-13-14-23-23-32zM192 0c-27 0-49 20-52 43h104c-3-23-25-43-52-43z" glyph-name="ion-ios-bell-outline" horiz-adv-x="384" unicode="&#xf3e1;"/><glyph d="M318 222c0-114 28-126 66-158h-384c38 32 66 44 66 158 0 98 53 130 102 138v2c0 12 11 22 24 22s24-10 24-22v-2c49-7 102-40 102-138zM192 0c-27 0-49 20-52 43h104c-3-23-25-43-52-43z" glyph-name="ion-ios-bell" horiz-adv-x="384" unicode="&#xf3e2;"/><glyph d="M192 400c-18 0-32-14-32-32s14-32 32-32 32 14 32 32-14 32-32 32zM192 416v0c27 0 48-21 48-48s-21-48-48-48-48 21-48 48 21 48 48 48zM360 304c13 0 24-11 24-24s-11-24-24-24h-100c-5 0-14-5-18-15-5-12-2-33 1-51l4-21v-1 0l32-172c2-13-6-26-19-28h-5c-11 0-22 8-24 20l-21 120v0s-5 31-17 31h-2c-12 0-19-31-19-31v0l-21-120c-2-12-11-20-22-20h-5c-13 2-21 15-19 28l32 172v1l4 21c3 18 6 39 1 51-4 10-12 15-18 15h-100c-13 0-24 11-24 24s11 24 24 24h336zM24 272c-4 0-8 4-8 8s4 8 8 8h336c4 0 8-4 8-8s-4-8-8-8h-102c-16 0-26-15-30-24-5-13-6-32-1-61v0 0l3-19 1-3 32-172c0-3 0-5-1-6s-2-2-5-3h-2c-4 0-7 2-8 6l-21 120v0c0 2-2 10-5 19-2 6-5 11-8 15-7 9-14 11-20 11h-2c-5 0-13-2-20-11-3-4-6-9-8-15-4-9-6-17-6-18v-1l-21-120c-1-4-3-6-7-6h-2c-3 0-4 2-5 3s-2 3-1 6l32 172v0 1l4 21v0 0c5 29 5 48 0 61-4 9-14 24-32 24z" glyph-name="ion-ios-body-outline" horiz-adv-x="384" unicode="&#xf3e3;"/><glyph d="M144 368c0 32 16 48 48 48s48-16 48-48-16-48-48-48-48 16-48 48zM360 304c7 0 12-2 17-7s7-10 7-17-2-12-7-17-10-7-17-7h-98c-8-2-15-6-18-14-4-9-3-27 1-52l4-21v-1 0l30-172c1-7 0-13-4-18s-8-9-15-10-13 0-18 4-9 9-10 16l-21 120v-1l-2 9c-1 5-3 11-6 16s-6 8-10 8h-2c-8 0-14-11-18-33v1l-21-120c-1-7-5-12-10-16s-11-5-18-4-11 5-15 10-5 11-4 18l30 172v0 1l4 21c4 25 5 43 1 52-3 8-10 12-18 14h-98c-7 0-12 2-17 7s-7 10-7 17 2 12 7 17 10 7 17 7h336z" glyph-name="ion-ios-body" horiz-adv-x="384" unicode="&#xf3e4;"/><glyph d="M131 316l-100-140h65 19l-3-19-17-89 100 140h-65-19l3 19zM160 384v0l-30-160h96l-160-224 30 160h-96z" glyph-name="ion-ios-bolt-outline" horiz-adv-x="226" unicode="&#xf3e5;"/><glyph d="M160 384v0l-30-160h96l-160-224 30 160h-96z" glyph-name="ion-ios-bolt" horiz-adv-x="226" unicode="&#xf3e6;"/><glyph d="M284 384c55 0 100-26 100-79v-1-4-261-17h-6-11-5c-17 30-44 42-78 42-40 0-74-28-82-64h-20c-8 36-42 64-82 64-34 0-65-16-78-42h-5-11-6v9 264 9 1c0 53 45 79 100 79 41 0 78-14 92-44 12 30 51 44 92 44zM184 37v254 13 2c-1 43-39 62-84 62-44 0-81-19-84-61v-1 0-262h1c19 26 48 36 83 36s66-17 84-43zM368 300v14 1c-3 42-40 53-84 53-46 0-84-20-84-64v-1-266c18 26 49 43 84 43s66-10 84-36v256z" glyph-name="ion-ios-book-outline" horiz-adv-x="384" unicode="&#xf3e7;"/><glyph d="M100 384c35 0 67-10 84-31v-353h-2c-8 36-42 64-82 64-34 0-65-16-78-42h-5-11-6v9 264 9 1c0 53 45 79 100 79zM284 384c55 0 100-26 100-79v-1-4-261-17h-6-11-5c-17 30-44 42-78 42-40 0-74-28-82-64h-2v353c17 21 50 31 84 31z" glyph-name="ion-ios-book" horiz-adv-x="384" unicode="&#xf3e8;"/><glyph d="M385 384c19 0 33-13 33-32v-286c0-19-14-34-33-34h-143s-25-4-25-19v-13h-8-8v13c0 15-11 19-25 19h-143c-19 0-33 15-33 34v286c0 19 14 32 33 32h150c10 0 20-5 26-12v0 0c6 7 16 12 26 12h150zM201 37v309c0 9-12 22-25 22h-143c-9 0-16-7-16-16v-286c0-9 7-18 16-18h144c10 0 19-3 24-11zM273 368v-100l23 14 9 6 9-6 23-14v100h-64zM401 66v286c0 9-7 16-16 16h-32v-131l-48 32-48-32v131h-15c-13 0-25-13-25-22v-309c5 9 14 11 24 11h144c9 0 16 9 16 18z" glyph-name="ion-ios-bookmarks-outline" horiz-adv-x="418" unicode="&#xf3e9;"/><glyph d="M296 283l-23-15v116h64v-116l-23 15-9 6zM385 384c19 0 33-13 33-32v-286c0-19-14-34-33-34h-143s-25-4-25-19v-13h-8-8v13c0 15-11 19-25 19h-143c-19 0-33 15-33 34v286c0 19 14 32 33 32h150s18-8 18-15v-329l8-6 8 6v329s10 15 18 15h22v-146l48 32 48-32v146h32z" glyph-name="ion-ios-bookmarks" horiz-adv-x="418" unicode="&#xf3ea;"/><glyph d="M192 208h-1-63c-9 0-16-7-16-16s7-16 16-16h64c9 0 16 7 16 16s-7 16-16 16zM192 224v0c18 0 32-14 32-32s-14-32-32-32h-64c-18 0-32 14-32 32s14 32 32 32h64zM320 336v-80h-16v-208h-288v208h-16v80h320zM288 64v192h-256v-192h256zM304 272v48h-288v-48h288z" glyph-name="ion-ios-box-outline" horiz-adv-x="320" unicode="&#xf3eb;"/><glyph d="M16 48v192h288v-192h-288zM128 208c-9 0-16-7-16-16s7-16 16-16h64c9 0 16 7 16 16s-7 16-16 16h-64zM0 336h320v-80h-16-288-16v80z" glyph-name="ion-ios-box" horiz-adv-x="320" unicode="&#xf3ec;"/><glyph d="M368 320h48v-320h-416v320h48v16h32v-16h48v30 2c0 18 10 32 29 32h99c19 0 32-14 32-32v-2-30h48v16h32v-16zM144 320v0h128v0 30c0 10-7 18-17 18h-97c-11 0-14-8-14-18v-30zM400 16v224h-384v-224h384zM400 256v48h-32v-16h-32v16h-256v-16h-32v16h-32v-48h384z" glyph-name="ion-ios-briefcase-outline" horiz-adv-x="416" unicode="&#xf3ed;"/><glyph d="M48 320v16h32v-16h-32zM0 0v240h416v-240h-416zM336 320v16h32v-16h-32zM368 320h48v-64h-416v64h48v-32h32v32h48v30 2c0 18 10 32 29 32h99c19 0 32-14 32-32v-2-30h48v-32h32v32zM272 320v30c0 10-7 18-17 18h-97c-11 0-14-8-14-18v-30 0h128v0z" glyph-name="ion-ios-briefcase" horiz-adv-x="416" unicode="&#xf3ee;"/><glyph d="M0 304h304v-304h-304v304zM288 16v272h-272v-272h272zM384 384v-304h-64v16h48v272h-272v-48h-16v64h304z" glyph-name="ion-ios-browsers-outline" horiz-adv-x="384" unicode="&#xf3ef;"/><glyph d="M0 304h304v-304h-304v304zM80 384h304v-304h-64v240h-240v64z" glyph-name="ion-ios-browsers" horiz-adv-x="384" unicode="&#xf3f0;"/><glyph d="M32 288v64h224v-64h-224zM48 336v-32h192v32h-192zM256 384c18 0 32-14 32-32v-320c0-18-14-32-32-32h-224c-18 0-32 14-32 32v320c0 18 14 32 32 32h224zM272 32v320c0 9-7 16-16 16h-224c-9 0-16-7-16-16v-320c0-9 7-16 16-16h224c9 0 16 7 16 16zM48 208h32 16v-16h-64v64h16v-16-32zM48 128h32 16v-16h-64v64h16v-16-32zM48 48h32 16v-16h-64v64h16v-16-32zM128 208h32 16v-16h-64v64h16v-16-32zM208 208h32 16v-16h-64v64h16v-16-32zM128 128h32 16v-16h-64v64h16v-16-32zM128 48h32 16v-16h-64v64h16v-16-32zM208 48h32 16v-16h-64v144h16v-96-32z" glyph-name="ion-ios-calculator-outline" horiz-adv-x="288" unicode="&#xf3f1;"/></font>
</defs>
</svg>
