<svg><defs><font horiz-adv-x="1536"><font-face ascent="1536" bbox="-1.02083 -256.962 2304.6 1537.02" descent="-256" panose-1="0 0 0 0 0 0 0 0 0 0" underline-position="0" underline-thickness="0" unicode-range="U+0020-F500" units-per-em="1792"/><missing-glyph d="M224 112h448v1312h-448v-1312zM112 0v1536h672v-1536h-672z" horiz-adv-x="896"/><glyph d="M224 112h448v1312h-448v-1312zM112 0v1536h672v-1536h-672z" glyph-name=".notdef" horiz-adv-x="896"/><glyph glyph-name=".null" horiz-adv-x="0"/><glyph glyph-name="nonmarkingreturn" horiz-adv-x="597"/><glyph glyph-name="space" horiz-adv-x="448" unicode="&#x20;"/><glyph glyph-name="dieresis" horiz-adv-x="1792" unicode="&#xa8;"/><glyph glyph-name="copyright" horiz-adv-x="1792" unicode="&#xa9;"/><glyph glyph-name="registered" horiz-adv-x="1792" unicode="&#xae;"/><glyph glyph-name="acute" horiz-adv-x="1792" unicode="&#xb4;"/><glyph glyph-name="AE" horiz-adv-x="1792" unicode="&#xc6;"/><glyph glyph-name="Oslash" horiz-adv-x="1792" unicode="&#xd8;"/><glyph glyph-name="trademark" horiz-adv-x="1792" unicode="&#x2122;"/><glyph glyph-name="infinity" horiz-adv-x="1792" unicode="&#x221e;"/><glyph glyph-name="notequal" horiz-adv-x="1792" unicode="&#x2260;"/><glyph d="M1699 1350q0-35-43-78l-632-632v-768h320q26 0 45-19t19-45-19-45-45-19h-896q-26 0-45 19t-19 45 19 45 45 19h320v768l-632 632q-43 43-43 78 0 23 18 36.5t38 17.5 43 4h1408q23 0 43-4t38-17.5 18-36.5z" glyph-name="glass" horiz-adv-x="1792" unicode="&#xf000;"/><glyph d="M1536 1312v-1120q0-50-34-89t-86-60.5-103.5-32-96.5-10.5-96.5 10.5-103.5 32-86 60.5-34 89 34 89 86 60.5 103.5 32 96.5 10.5q105 0 192-39v537l-768-237v-709q0-50-34-89t-86-60.5-103.5-32-96.5-10.5-96.5 10.5-103.5 32-86 60.5-34 89 34 89 86 60.5 103.5 32 96.5 10.5q105 0 192-39v967q0 31 19 56.5t49 35.5l832 256q12 4 28 4 40 0 68-28t28-68z" glyph-name="music" unicode="&#xf001;"/><glyph d="M1152 704q0 185-131.5 316.5t-316.5 131.5-316.5-131.5-131.5-316.5 131.5-316.5 316.5-131.5 316.5 131.5 131.5 316.5zM1664-128q0-52-38-90t-90-38q-54 0-90 38l-343 342q-179-124-399-124-143 0-273.5 55.5t-225 150-150 225-55.5 273.5 55.5 273.5 150 225 225 150 273.5 55.5 273.5-55.5 225-150 150-225 55.5-273.5q0-220-124-399l343-343q37-37 37-90z" glyph-name="search" horiz-adv-x="1664" unicode="&#xf002;"/><glyph d="M1664 32v768q-32-36-69-66-268-206-426-338-51-43-83-67t-86.5-48.5-102.5-24.5h-1-1q-48 0-102.5 24.5t-86.5 48.5-83 67q-158 132-426 338-37 30-69 66v-768q0-13 9.5-22.5t22.5-9.5h1472q13 0 22.5 9.5t9.5 22.5zM1664 1083v11 13.5t-.5 13-3 12.5-5.5 9-9 7.5-14 2.5h-1472q-13 0-22.5-9.5t-9.5-22.5q0-168 147-284 193-152 401-317 6-5 35-29.5t46-37.5 44.5-31.5 50.5-27.5 43-9h1 1q20 0 43 9t50.5 27.5 44.5 31.5 46 37.5 35 29.5q208 165 401 317 54 43 100.5 115.5t46.5 131.5zM1792 1120v-1088q0-66-47-113t-113-47h-1472q-66 0-113 47t-47 113v1088q0 66 47 113t113 47h1472q66 0 113-47t47-113z" glyph-name="envelope" horiz-adv-x="1792" unicode="&#xf003;"/><glyph d="M896-128q-26 0-44 18l-624 602q-10 8-27.5 26t-55.5 65.5-68 97.5-53.5 121-23.5 138q0 220 127 344t351 124q62 0 126.5-21.5t120-58 95.5-68.5 76-68q36 36 76 68t95.5 68.5 120 58 126.5 21.5q224 0 351-124t127-344q0-221-229-450l-623-600q-18-18-44-18z" glyph-name="heart" horiz-adv-x="1792" unicode="&#xf004;"/><glyph d="M1664 889q0-22-26-48l-363-354 86-500q1-7 1-20 0-21-10.5-35.5t-30.5-14.5q-19 0-40 12l-449 236-449-236q-22-12-40-12-21 0-31.5 14.5t-10.5 35.5q0 6 2 20l86 500-364 354q-25 27-25 48 0 37 56 46l502 73 225 455q19 41 49 41t49-41l225-455 502-73q56-9 56-46z" glyph-name="star" horiz-adv-x="1664" unicode="&#xf005;"/><glyph d="M1137 532l306 297-422 62-189 382-189-382-422-62 306-297-73-421 378 199 377-199zM1664 889q0-22-26-48l-363-354 86-500q1-7 1-20 0-50-41-50-19 0-40 12l-449 236-449-236q-22-12-40-12-21 0-31.5 14.5t-10.5 35.5q0 6 2 20l86 500-364 354q-25 27-25 48 0 37 56 46l502 73 225 455q19 41 49 41t49-41l225-455 502-73q56-9 56-46z" glyph-name="star_empty" horiz-adv-x="1664" unicode="&#xf006;"/><glyph d="M1280 137q0-109-62.5-187t-150.5-78h-854q-88 0-150.5 78t-62.5 187q0 85 8.5 160.5t31.5 152 58.5 131 94 89 134.5 34.5q131-128 313-128t313 128q76 0 134.5-34.5t94-89 58.5-131 31.5-152 8.5-160.5zM1024 1024q0-159-112.5-271.5t-271.5-112.5-271.5 112.5-112.5 271.5 112.5 271.5 271.5 112.5 271.5-112.5 112.5-271.5z" glyph-name="user" horiz-adv-x="1280" unicode="&#xf007;"/><glyph d="M384-64v128q0 26-19 45t-45 19h-128q-26 0-45-19t-19-45v-128q0-26 19-45t45-19h128q26 0 45 19t19 45zM384 320v128q0 26-19 45t-45 19h-128q-26 0-45-19t-19-45v-128q0-26 19-45t45-19h128q26 0 45 19t19 45zM384 704v128q0 26-19 45t-45 19h-128q-26 0-45-19t-19-45v-128q0-26 19-45t45-19h128q26 0 45 19t19 45zM1408-64v512q0 26-19 45t-45 19h-768q-26 0-45-19t-19-45v-512q0-26 19-45t45-19h768q26 0 45 19t19 45zM384 1088v128q0 26-19 45t-45 19h-128q-26 0-45-19t-19-45v-128q0-26 19-45t45-19h128q26 0 45 19t19 45zM1792-64v128q0 26-19 45t-45 19h-128q-26 0-45-19t-19-45v-128q0-26 19-45t45-19h128q26 0 45 19t19 45zM1408 704v512q0 26-19 45t-45 19h-768q-26 0-45-19t-19-45v-512q0-26 19-45t45-19h768q26 0 45 19t19 45zM1792 320v128q0 26-19 45t-45 19h-128q-26 0-45-19t-19-45v-128q0-26 19-45t45-19h128q26 0 45 19t19 45zM1792 704v128q0 26-19 45t-45 19h-128q-26 0-45-19t-19-45v-128q0-26 19-45t45-19h128q26 0 45 19t19 45zM1792 1088v128q0 26-19 45t-45 19h-128q-26 0-45-19t-19-45v-128q0-26 19-45t45-19h128q26 0 45 19t19 45zM1920 1248v-1344q0-66-47-113t-113-47h-1600q-66 0-113 47t-47 113v1344q0 66 47 113t113 47h1600q66 0 113-47t47-113z" glyph-name="film" horiz-adv-x="1920" unicode="&#xf008;"/><glyph d="M768 512v-384q0-52-38-90t-90-38h-512q-52 0-90 38t-38 90v384q0 52 38 90t90 38h512q52 0 90-38t38-90zM768 1280v-384q0-52-38-90t-90-38h-512q-52 0-90 38t-38 90v384q0 52 38 90t90 38h512q52 0 90-38t38-90zM1664 512v-384q0-52-38-90t-90-38h-512q-52 0-90 38t-38 90v384q0 52 38 90t90 38h512q52 0 90-38t38-90zM1664 1280v-384q0-52-38-90t-90-38h-512q-52 0-90 38t-38 90v384q0 52 38 90t90 38h512q52 0 90-38t38-90z" glyph-name="th_large" horiz-adv-x="1664" unicode="&#xf009;"/><glyph d="M512 288v-192q0-40-28-68t-68-28h-320q-40 0-68 28t-28 68v192q0 40 28 68t68 28h320q40 0 68-28t28-68zM512 800v-192q0-40-28-68t-68-28h-320q-40 0-68 28t-28 68v192q0 40 28 68t68 28h320q40 0 68-28t28-68zM1152 288v-192q0-40-28-68t-68-28h-320q-40 0-68 28t-28 68v192q0 40 28 68t68 28h320q40 0 68-28t28-68zM512 1312v-192q0-40-28-68t-68-28h-320q-40 0-68 28t-28 68v192q0 40 28 68t68 28h320q40 0 68-28t28-68zM1152 800v-192q0-40-28-68t-68-28h-320q-40 0-68 28t-28 68v192q0 40 28 68t68 28h320q40 0 68-28t28-68zM1792 288v-192q0-40-28-68t-68-28h-320q-40 0-68 28t-28 68v192q0 40 28 68t68 28h320q40 0 68-28t28-68zM1152 1312v-192q0-40-28-68t-68-28h-320q-40 0-68 28t-28 68v192q0 40 28 68t68 28h320q40 0 68-28t28-68zM1792 800v-192q0-40-28-68t-68-28h-320q-40 0-68 28t-28 68v192q0 40 28 68t68 28h320q40 0 68-28t28-68zM1792 1312v-192q0-40-28-68t-68-28h-320q-40 0-68 28t-28 68v192q0 40 28 68t68 28h320q40 0 68-28t28-68z" glyph-name="th" horiz-adv-x="1792" unicode="&#xf00a;"/><glyph d="M512 288v-192q0-40-28-68t-68-28h-320q-40 0-68 28t-28 68v192q0 40 28 68t68 28h320q40 0 68-28t28-68zM512 800v-192q0-40-28-68t-68-28h-320q-40 0-68 28t-28 68v192q0 40 28 68t68 28h320q40 0 68-28t28-68zM1792 288v-192q0-40-28-68t-68-28h-960q-40 0-68 28t-28 68v192q0 40 28 68t68 28h960q40 0 68-28t28-68zM512 1312v-192q0-40-28-68t-68-28h-320q-40 0-68 28t-28 68v192q0 40 28 68t68 28h320q40 0 68-28t28-68zM1792 800v-192q0-40-28-68t-68-28h-960q-40 0-68 28t-28 68v192q0 40 28 68t68 28h960q40 0 68-28t28-68zM1792 1312v-192q0-40-28-68t-68-28h-960q-40 0-68 28t-28 68v192q0 40 28 68t68 28h960q40 0 68-28t28-68z" glyph-name="th_list" horiz-adv-x="1792" unicode="&#xf00b;"/><glyph d="M1671 970q0-40-28-68l-724-724-136-136q-28-28-68-28t-68 28l-136 136-362 362q-28 28-28 68t28 68l136 136q28 28 68 28t68-28l294-295 656 657q28 28 68 28t68-28l136-136q28-28 28-68z" glyph-name="ok" horiz-adv-x="1792" unicode="&#xf00c;"/><glyph d="M1298 214q0-40-28-68l-136-136q-28-28-68-28t-68 28l-294 294-294-294q-28-28-68-28t-68 28l-136 136q-28 28-28 68t28 68l294 294-294 294q-28 28-28 68t28 68l136 136q28 28 68 28t68-28l294-294 294 294q28 28 68 28t68-28l136-136q28-28 28-68t-28-68l-294-294 294-294q28-28 28-68z" glyph-name="remove" horiz-adv-x="1408" unicode="&#xf00d;"/><glyph d="M1024 736v-64q0-13-9.5-22.5t-22.5-9.5h-224v-224q0-13-9.5-22.5t-22.5-9.5h-64q-13 0-22.5 9.5t-9.5 22.5v224h-224q-13 0-22.5 9.5t-9.5 22.5v64q0 13 9.5 22.5t22.5 9.5h224v224q0 13 9.5 22.5t22.5 9.5h64q13 0 22.5-9.5t9.5-22.5v-224h224q13 0 22.5-9.5t9.5-22.5zM1152 704q0 185-131.5 316.5t-316.5 131.5-316.5-131.5-131.5-316.5 131.5-316.5 316.5-131.5 316.5 131.5 131.5 316.5zM1664-128q0-53-37.5-90.5t-90.5-37.5q-54 0-90 38l-343 342q-179-124-399-124-143 0-273.5 55.5t-225 150-150 225-55.5 273.5 55.5 273.5 150 225 225 150 273.5 55.5 273.5-55.5 225-150 150-225 55.5-273.5q0-220-124-399l343-343q37-37 37-90z" glyph-name="zoom_in" horiz-adv-x="1664" unicode="&#xf00e;"/><glyph d="M1024 736v-64q0-13-9.5-22.5t-22.5-9.5h-576q-13 0-22.5 9.5t-9.5 22.5v64q0 13 9.5 22.5t22.5 9.5h576q13 0 22.5-9.5t9.5-22.5zM1152 704q0 185-131.5 316.5t-316.5 131.5-316.5-131.5-131.5-316.5 131.5-316.5 316.5-131.5 316.5 131.5 131.5 316.5zM1664-128q0-53-37.5-90.5t-90.5-37.5q-54 0-90 38l-343 342q-179-124-399-124-143 0-273.5 55.5t-225 150-150 225-55.5 273.5 55.5 273.5 150 225 225 150 273.5 55.5 273.5-55.5 225-150 150-225 55.5-273.5q0-220-124-399l343-343q37-37 37-90z" glyph-name="zoom_out" horiz-adv-x="1664" unicode="&#xf010;"/><glyph d="M1536 640q0-156-61-298t-164-245-245-164-298-61-298 61-245 164-164 245-61 298q0 182 80.5 343t226.5 270q43 32 95.5 25t83.5-50q32-42 24.5-94.5t-49.5-84.5q-98-74-151.5-181t-53.5-228q0-104 40.5-198.5t109.5-163.5 163.5-109.5 198.5-40.5 198.5 40.5 163.5 109.5 109.5 163.5 40.5 198.5q0 121-53.5 228t-151.5 181q-42 32-49.5 84.5t24.5 94.5q31 43 84 50t95-25q146-109 226.5-270t80.5-343zM896 1408v-640q0-52-38-90t-90-38-90 38-38 90v640q0 52 38 90t90 38 90-38 38-90z" glyph-name="off" unicode="&#xf011;"/><glyph d="M256 96v-192q0-14-9-23t-23-9h-192q-14 0-23 9t-9 23v192q0 14 9 23t23 9h192q14 0 23-9t9-23zM640 224v-320q0-14-9-23t-23-9h-192q-14 0-23 9t-9 23v320q0 14 9 23t23 9h192q14 0 23-9t9-23zM1024 480v-576q0-14-9-23t-23-9h-192q-14 0-23 9t-9 23v576q0 14 9 23t23 9h192q14 0 23-9t9-23zM1408 864v-960q0-14-9-23t-23-9h-192q-14 0-23 9t-9 23v960q0 14 9 23t23 9h192q14 0 23-9t9-23zM1792 1376v-1472q0-14-9-23t-23-9h-192q-14 0-23 9t-9 23v1472q0 14 9 23t23 9h192q14 0 23-9t9-23z" glyph-name="signal" horiz-adv-x="1792" unicode="&#xf012;"/><glyph d="M1024 640q0 106-75 181t-181 75-181-75-75-181 75-181 181-75 181 75 75 181zM1536 749v-222q0-12-8-23t-20-13l-185-28q-19-54-39-91 35-50 107-138 10-12 10-25t-9-23q-27-37-99-108t-94-71q-12 0-26 9l-138 108q-44-23-91-38-16-136-29-186-7-28-36-28h-222q-14 0-24.5 8.5t-11.5 21.5l-28 184q-49 16-90 37l-141-107q-10-9-25-9-14 0-25 11-126 114-165 168-7 10-7 23 0 12 8 23 15 21 51 66.5t54 70.5q-27 50-41 99l-183 27q-13 2-21 12.5t-8 23.5v222q0 12 8 23t19 13l186 28q14 46 39 92-40 57-107 138-10 12-10 24 0 10 9 23 26 36 98.5 107.5t94.5 71.5q13 0 26-10l138-107q44 23 91 38 16 136 29 186 7 28 36 28h222q14 0 24.5-8.5t11.5-21.5l28-184q49-16 90-37l142 107q9 9 24 9 13 0 25-10 129-119 165-170 7-8 7-22 0-12-8-23-15-21-51-66.5t-54-70.5q26-50 41-98l183-28q13-2 21-12.5t8-23.5z" glyph-name="cog" unicode="&#xf013;"/><glyph d="M512 800v-576q0-14-9-23t-23-9h-64q-14 0-23 9t-9 23v576q0 14 9 23t23 9h64q14 0 23-9t9-23zM768 800v-576q0-14-9-23t-23-9h-64q-14 0-23 9t-9 23v576q0 14 9 23t23 9h64q14 0 23-9t9-23zM1024 800v-576q0-14-9-23t-23-9h-64q-14 0-23 9t-9 23v576q0 14 9 23t23 9h64q14 0 23-9t9-23zM1152 76v948h-896v-948q0-22 7-40.5t14.5-27 10.5-8.5h832q3 0 10.5 8.5t14.5 27 7 40.5zM480 1152h448l-48 117q-7 9-17 11h-317q-10-2-17-11zM1408 1120v-64q0-14-9-23t-23-9h-96v-948q0-83-47-143.5t-113-60.5h-832q-66 0-113 58.5t-47 141.5v952h-96q-14 0-23 9t-9 23v64q0 14 9 23t23 9h309l70 167q15 37 54 63t79 26h320q40 0 79-26t54-63l70-167h309q14 0 23-9t9-23z" glyph-name="trash" horiz-adv-x="1408" unicode="&#xf014;"/><glyph d="M1408 544v-480q0-26-19-45t-45-19h-384v384h-256v-384h-384q-26 0-45 19t-19 45v480q0 1 .5 3t.5 3l575 474 575-474q1-2 1-6zM1631 613l-62-74q-8-9-21-11h-3q-13 0-21 7l-692 577-692-577q-12-8-24-7-13 2-21 11l-62 74q-8 10-7 23.5t11 21.5l719 599q32 26 76 26t76-26l244-204v195q0 14 9 23t23 9h192q14 0 23-9t9-23v-408l219-182q10-8 11-21.5t-7-23.5z" glyph-name="home" horiz-adv-x="1664" unicode="&#xf015;"/><glyph d="M1468 1156q28-28 48-76t20-88v-1152q0-40-28-68t-68-28h-1344q-40 0-68 28t-28 68v1600q0 40 28 68t68 28h896q40 0 88-20t76-48zM1024 1400v-376h376q-10 29-22 41l-313 313q-12 12-41 22zM1408-128v1024h-416q-40 0-68 28t-28 68v416h-768v-1536h1280z" glyph-name="file_alt" unicode="&#xf016;"/><glyph d="M896 992v-448q0-14-9-23t-23-9h-320q-14 0-23 9t-9 23v64q0 14 9 23t23 9h224v352q0 14 9 23t23 9h64q14 0 23-9t9-23zM1312 640q0 148-73 273t-198 198-273 73-273-73-198-198-73-273 73-273 198-198 273-73 273 73 198 198 73 273zM1536 640q0-209-103-385.5t-279.5-279.5-385.5-103-385.5 103-279.5 279.5-103 385.5 103 385.5 279.5 279.5 385.5 103 385.5-103 279.5-279.5 103-385.5z" glyph-name="time" unicode="&#xf017;"/><glyph d="M1111 540v4l-24 320q-1 13-11 22.5t-23 9.5h-186q-13 0-23-9.5t-11-22.5l-24-320v-4q-1-12 8-20t21-8h244q12 0 21 8t8 20zM1870 73q0-73-46-73h-704q13 0 22 9.5t8 22.5l-20 256q-1 13-11 22.5t-23 9.5h-272q-13 0-23-9.5t-11-22.5l-20-256q-1-13 8-22.5t22-9.5h-704q-46 0-46 73 0 54 26 116l417 1044q8 19 26 33t38 14h339q-13 0-23-9.5t-11-22.5l-15-192q-1-14 8-23t22-9h166q13 0 22 9t8 23l-15 192q-1 13-11 22.5t-23 9.5h339q20 0 38-14t26-33l417-1044q26-62 26-116z" glyph-name="road" horiz-adv-x="1920" unicode="&#xf018;"/><glyph d="M1280 192q0 26-19 45t-45 19-45-19-19-45 19-45 45-19 45 19 19 45zM1536 192q0 26-19 45t-45 19-45-19-19-45 19-45 45-19 45 19 19 45zM1664 416v-320q0-40-28-68t-68-28h-1472q-40 0-68 28t-28 68v320q0 40 28 68t68 28h465l135-136q58-56 136-56t136 56l136 136h464q40 0 68-28t28-68zM1339 985q17-41-14-70l-448-448q-18-19-45-19t-45 19l-448 448q-31 29-14 70 17 39 59 39h256v448q0 26 19 45t45 19h256q26 0 45-19t19-45v-448h256q42 0 59-39z" glyph-name="download_alt" horiz-adv-x="1664" unicode="&#xf019;"/><glyph d="M1120 608q0-12-10-24l-319-319q-11-9-23-9t-23 9l-320 320q-15 16-7 35 8 20 30 20h192v352q0 14 9 23t23 9h192q14 0 23-9t9-23v-352h192q14 0 23-9t9-23zM768 1184q-148 0-273-73t-198-198-73-273 73-273 198-198 273-73 273 73 198 198 73 273-73 273-198 198-273 73zM1536 640q0-209-103-385.5t-279.5-279.5-385.5-103-385.5 103-279.5 279.5-103 385.5 103 385.5 279.5 279.5 385.5 103 385.5-103 279.5-279.5 103-385.5z" glyph-name="download" unicode="&#xf01a;"/><glyph d="M1118 660q-8-20-30-20h-192v-352q0-14-9-23t-23-9h-192q-14 0-23 9t-9 23v352h-192q-14 0-23 9t-9 23q0 12 10 24l319 319q11 9 23 9t23-9l320-320q15-16 7-35zM768 1184q-148 0-273-73t-198-198-73-273 73-273 198-198 273-73 273 73 198 198 73 273-73 273-198 198-273 73zM1536 640q0-209-103-385.5t-279.5-279.5-385.5-103-385.5 103-279.5 279.5-103 385.5 103 385.5 279.5 279.5 385.5 103 385.5-103 279.5-279.5 103-385.5z" glyph-name="upload" unicode="&#xf01b;"/><glyph d="M1023 576h316q-1 3-2.5 8.5t-2.5 7.5l-212 496h-708l-212-496q-1-3-2.5-8.5t-2.5-7.5h316l95-192h320zM1536 546v-482q0-26-19-45t-45-19h-1408q-26 0-45 19t-19 45v482q0 62 25 123l238 552q10 25 36.5 42t52.5 17h832q26 0 52.5-17t36.5-42l238-552q25-61 25-123z" glyph-name="inbox" unicode="&#xf01c;"/><glyph d="M1184 640q0-37-32-55l-544-320q-15-9-32-9-16 0-32 8-32 19-32 56v640q0 37 32 56 33 18 64-1l544-320q32-18 32-55zM1312 640q0 148-73 273t-198 198-273 73-273-73-198-198-73-273 73-273 198-198 273-73 273 73 198 198 73 273zM1536 640q0-209-103-385.5t-279.5-279.5-385.5-103-385.5 103-279.5 279.5-103 385.5 103 385.5 279.5 279.5 385.5 103 385.5-103 279.5-279.5 103-385.5z" glyph-name="play_circle" unicode="&#xf01d;"/><glyph d="M1536 1280v-448q0-26-19-45t-45-19h-448q-42 0-59 40-17 39 14 69l138 138q-148 137-349 137-104 0-198.5-40.5t-163.5-109.5-109.5-163.5-40.5-198.5 40.5-198.5 109.5-163.5 163.5-109.5 198.5-40.5q119 0 225 52t179 147q7 10 23 12 15 0 25-9l137-138q9-8 9.5-20.5t-7.5-22.5q-109-132-264-204.5t-327-72.5q-156 0-298 61t-245 164-164 245-61 298 61 298 164 245 245 164 298 61q147 0 284.5-55.5t244.5-156.5l130 129q29 31 70 14 39-17 39-59z" glyph-name="repeat" unicode="&#xf01e;"/><glyph d="M1511 480q0-5-1-7-64-268-268-434.5t-478-166.5q-146 0-282.5 55t-243.5 157l-129-129q-19-19-45-19t-45 19-19 45v448q0 26 19 45t45 19h448q26 0 45-19t19-45-19-45l-137-137q71-66 161-102t187-36q134 0 250 65t186 179q11 17 53 117 8 23 30 23h192q13 0 22.5-9.5t9.5-22.5zM1536 1280v-448q0-26-19-45t-45-19h-448q-26 0-45 19t-19 45 19 45l138 138q-148 137-349 137-134 0-250-65t-186-179q-11-17-53-117-8-23-30-23h-199q-13 0-22.5 9.5t-9.5 22.5v7q65 268 270 434.5t480 166.5q146 0 284-55.5t245-156.5l130 129q19 19 45 19t45-19 19-45z" glyph-name="refresh" unicode="&#xf021;"/><glyph d="M384 352v-64q0-13-9.5-22.5t-22.5-9.5h-64q-13 0-22.5 9.5t-9.5 22.5v64q0 13 9.5 22.5t22.5 9.5h64q13 0 22.5-9.5t9.5-22.5zM384 608v-64q0-13-9.5-22.5t-22.5-9.5h-64q-13 0-22.5 9.5t-9.5 22.5v64q0 13 9.5 22.5t22.5 9.5h64q13 0 22.5-9.5t9.5-22.5zM384 864v-64q0-13-9.5-22.5t-22.5-9.5h-64q-13 0-22.5 9.5t-9.5 22.5v64q0 13 9.5 22.5t22.5 9.5h64q13 0 22.5-9.5t9.5-22.5zM1536 352v-64q0-13-9.5-22.5t-22.5-9.5h-960q-13 0-22.5 9.5t-9.5 22.5v64q0 13 9.5 22.5t22.5 9.5h960q13 0 22.5-9.5t9.5-22.5zM1536 608v-64q0-13-9.5-22.5t-22.5-9.5h-960q-13 0-22.5 9.5t-9.5 22.5v64q0 13 9.5 22.5t22.5 9.5h960q13 0 22.5-9.5t9.5-22.5zM1536 864v-64q0-13-9.5-22.5t-22.5-9.5h-960q-13 0-22.5 9.5t-9.5 22.5v64q0 13 9.5 22.5t22.5 9.5h960q13 0 22.5-9.5t9.5-22.5zM1664 160v832q0 13-9.5 22.5t-22.5 9.5h-1472q-13 0-22.5-9.5t-9.5-22.5v-832q0-13 9.5-22.5t22.5-9.5h1472q13 0 22.5 9.5t9.5 22.5zM1792 1248v-1088q0-66-47-113t-113-47h-1472q-66 0-113 47t-47 113v1088q0 66 47 113t113 47h1472q66 0 113-47t47-113z" glyph-name="list_alt" horiz-adv-x="1792" unicode="&#xf022;"/><glyph d="M320 768h512v192q0 106-75 181t-181 75-181-75-75-181v-192zM1152 672v-576q0-40-28-68t-68-28h-960q-40 0-68 28t-28 68v576q0 40 28 68t68 28h32v192q0 184 132 316t316 132 316-132 132-316v-192h32q40 0 68-28t28-68z" glyph-name="lock" horiz-adv-x="1152" unicode="&#xf023;"/><glyph d="M320 1280q0-72-64-110v-1266q0-13-9.5-22.5t-22.5-9.5h-64q-13 0-22.5 9.5t-9.5 22.5v1266q-64 38-64 110 0 53 37.5 90.5t90.5 37.5 90.5-37.5 37.5-90.5zM1792 1216v-763q0-25-12.5-38.5t-39.5-27.5q-215-116-369-116-61 0-123.5 22t-108.5 48-115.5 48-142.5 22q-192 0-464-146-17-9-33-9-26 0-45 19t-19 45v742q0 32 31 55 21 14 79 43 236 120 421 120 107 0 200-29t219-88q38-19 88-19 54 0 117.5 21t110 47 88 47 54.5 21q26 0 45-19t19-45z" glyph-name="flag" horiz-adv-x="1792" unicode="&#xf024;"/><glyph d="M1664 650q0-166-60-314l-20-49-185-33q-22-83-90.5-136.5t-156.5-53.5v-32q0-14-9-23t-23-9h-64q-14 0-23 9t-9 23v576q0 14 9 23t23 9h64q14 0 23-9t9-23v-32q71 0 130-35.5t93-95.5l68 12q29 95 29 193 0 148-88 279t-236.5 209-315.5 78-315.5-78-236.5-209-88-279q0-98 29-193l68-12q34 60 93 95.5t130 35.5v32q0 14 9 23t23 9h64q14 0 23-9t9-23v-576q0-14-9-23t-23-9h-64q-14 0-23 9t-9 23v32q-88 0-156.5 53.5t-90.5 136.5l-185 33-20 49q-60 148-60 314 0 151 67 291t179 242.5 266 163.5 320 61 320-61 266-163.5 179-242.5 67-291z" glyph-name="headphones" horiz-adv-x="1664" unicode="&#xf025;"/><glyph d="M768 1184v-1088q0-26-19-45t-45-19-45 19l-333 333h-262q-26 0-45 19t-19 45v384q0 26 19 45t45 19h262l333 333q19 19 45 19t45-19 19-45z" glyph-name="volume_off" horiz-adv-x="768" unicode="&#xf026;"/><glyph d="M768 1184v-1088q0-26-19-45t-45-19-45 19l-333 333h-262q-26 0-45 19t-19 45v384q0 26 19 45t45 19h262l333 333q19 19 45 19t45-19 19-45zM1152 640q0-76-42.5-141.5t-112.5-93.5q-10-5-25-5-26 0-45 18.5t-19 45.5q0 21 12 35.5t29 25 34 23 29 36 12 56.5-12 56.5-29 36-34 23-29 25-12 35.5q0 27 19 45.5t45 18.5q15 0 25-5 70-27 112.5-93t42.5-142z" glyph-name="volume_down" horiz-adv-x="1152" unicode="&#xf027;"/><glyph d="M768 1184v-1088q0-26-19-45t-45-19-45 19l-333 333h-262q-26 0-45 19t-19 45v384q0 26 19 45t45 19h262l333 333q19 19 45 19t45-19 19-45zM1152 640q0-76-42.5-141.5t-112.5-93.5q-10-5-25-5-26 0-45 18.5t-19 45.5q0 21 12 35.5t29 25 34 23 29 36 12 56.5-12 56.5-29 36-34 23-29 25-12 35.5q0 27 19 45.5t45 18.5q15 0 25-5 70-27 112.5-93t42.5-142zM1408 640q0-153-85-282.5t-225-188.5q-13-5-25-5-27 0-46 19t-19 45q0 39 39 59 56 29 76 44 74 54 115.5 135.5t41.5 173.5-41.5 173.5-115.5 135.5q-20 15-76 44-39 20-39 59 0 26 19 45t45 19q13 0 26-5 140-59 225-188.5t85-282.5zM1664 640q0-230-127-422.5t-338-283.5q-13-5-26-5-26 0-45 19t-19 45q0 36 39 59 7 4 22.5 10.5t22.5 10.5q46 25 82 51 123 91 192 227t69 289-69 289-192 227q-36 26-82 51-7 4-22.5 10.5t-22.5 10.5q-39 23-39 59 0 26 19 45t45 19q13 0 26-5 211-91 338-283.5t127-422.5z" glyph-name="volume_up" horiz-adv-x="1664" unicode="&#xf028;"/><glyph d="M384 384v-128h-128v128h128zM384 1152v-128h-128v128h128zM1152 1152v-128h-128v128h128zM128 129h384v383h-384v-383zM128 896h384v384h-384v-384zM896 896h384v384h-384v-384zM640 640v-640h-640v640h640zM1152 128v-128h-128v128h128zM1408 128v-128h-128v128h128zM1408 640v-384h-384v128h-128v-384h-128v640h384v-128h128v128h128zM640 1408v-640h-640v640h640zM1408 1408v-640h-640v640h640z" glyph-name="qrcode" horiz-adv-x="1408" unicode="&#xf029;"/><glyph d="M63 0h-63v1408h63v-1408zM126 1h-32v1407h32v-1407zM220 1h-31v1407h31v-1407zM377 1h-31v1407h31v-1407zM534 1h-62v1407h62v-1407zM660 1h-31v1407h31v-1407zM723 1h-31v1407h31v-1407zM786 1h-31v1407h31v-1407zM943 1h-63v1407h63v-1407zM1100 1h-63v1407h63v-1407zM1226 1h-63v1407h63v-1407zM1352 1h-63v1407h63v-1407zM1446 1h-63v1407h63v-1407zM1635 1h-94v1407h94v-1407zM1698 1h-32v1407h32v-1407zM1792 0h-63v1408h63v-1408z" glyph-name="barcode" horiz-adv-x="1792" unicode="&#xf02a;"/><glyph d="M448 1088q0 53-37.5 90.5t-90.5 37.5-90.5-37.5-37.5-90.5 37.5-90.5 90.5-37.5 90.5 37.5 37.5 90.5zM1515 512q0-53-37-90l-491-492q-39-37-91-37-53 0-90 37l-715 716q-38 37-64.5 101t-26.5 117v416q0 52 38 90t90 38h416q53 0 117-26.5t102-64.5l715-714q37-39 37-91z" glyph-name="tag" unicode="&#xf02b;"/><glyph d="M448 1088q0 53-37.5 90.5t-90.5 37.5-90.5-37.5-37.5-90.5 37.5-90.5 90.5-37.5 90.5 37.5 37.5 90.5zM1515 512q0-53-37-90l-491-492q-39-37-91-37-53 0-90 37l-715 716q-38 37-64.5 101t-26.5 117v416q0 52 38 90t90 38h416q53 0 117-26.5t102-64.5l715-714q37-39 37-91zM1899 512q0-53-37-90l-491-492q-39-37-91-37-36 0-59 14t-53 45l470 470q37 37 37 90 0 52-37 91l-715 714q-38 38-102 64.5t-117 26.5h224q53 0 117-26.5t102-64.5l715-714q37-39 37-91z" glyph-name="tags" horiz-adv-x="1920" unicode="&#xf02c;"/><glyph d="M1639 1058q40-57 18-129l-275-906q-19-64-76.5-107.5t-122.5-43.5h-923q-77 0-148.5 53.5t-99.5 131.5q-24 67-2 127 0 4 3 27t4 37q1 8-3 21.5t-3 19.5q2 11 8 21t16.5 23.5 16.5 23.5q23 38 45 91.5t30 91.5q3 10 .5 30t-.5 28q3 11 17 28t17 23q21 36 42 92t25 90q1 9-2.5 32t.5 28q4 13 22 30.5t22 22.5q19 26 42.5 84.5t27.5 96.5q1 8-3 25.5t-2 26.5q2 8 9 18t18 23 17 21q8 12 16.5 30.5t15 35 16 36 19.5 32 26.5 23.5 36 11.5 47.5-5.5l-1-3q38 9 51 9h761q74 0 114-56t18-130l-274-906q-36-119-71.5-153.5t-128.5-34.5h-869q-27 0-38-15-11-16-1-43 24-70 144-70h923q29 0 56 15.5t35 41.5l300 987q7 22 5 57 38-15 59-43zM575 1056q-4-13 2-22.5t20-9.5h608q13 0 25.5 9.5t16.5 22.5l21 64q4 13-2 22.5t-20 9.5h-608q-13 0-25.5-9.5t-16.5-22.5zM492 800q-4-13 2-22.5t20-9.5h608q13 0 25.5 9.5t16.5 22.5l21 64q4 13-2 22.5t-20 9.5h-608q-13 0-25.5-9.5t-16.5-22.5z" glyph-name="book" horiz-adv-x="1664" unicode="&#xf02d;"/><glyph d="M1164 1408q23 0 44-9 33-13 52.5-41t19.5-62v-1289q0-34-19.5-62t-52.5-41q-19-8-44-8-48 0-83 32l-441 424-441-424q-36-33-83-33-23 0-44 9-33 13-52.5 41t-19.5 62v1289q0 34 19.5 62t52.5 41q21 9 44 9h1048z" glyph-name="bookmark" horiz-adv-x="1280" unicode="&#xf02e;"/><glyph d="M384 0h896v256h-896v-256zM384 640h896v384h-160q-40 0-68 28t-28 68v160h-640v-640zM1536 576q0 26-19 45t-45 19-45-19-19-45 19-45 45-19 45 19 19 45zM1664 576v-416q0-13-9.5-22.5t-22.5-9.5h-224v-160q0-40-28-68t-68-28h-960q-40 0-68 28t-28 68v160h-224q-13 0-22.5 9.5t-9.5 22.5v416q0 79 56.5 135.5t135.5 56.5h64v544q0 40 28 68t68 28h672q40 0 88-20t76-48l152-152q28-28 48-76t20-88v-256h64q79 0 135.5-56.5t56.5-135.5z" glyph-name="print" horiz-adv-x="1664" unicode="&#xf02f;"/><glyph d="M960 864q119 0 203.5-84.5t84.5-203.5-84.5-203.5-203.5-84.5-203.5 84.5-84.5 203.5 84.5 203.5 203.5 84.5zM1664 1280q106 0 181-75t75-181v-896q0-106-75-181t-181-75h-1408q-106 0-181 75t-75 181v896q0 106 75 181t181 75h224l51 136q19 49 69.5 84.5t103.5 35.5h512q53 0 103.5-35.5t69.5-84.5l51-136h224zM960 128q185 0 316.5 131.5t131.5 316.5-131.5 316.5-316.5 131.5-316.5-131.5-131.5-316.5 131.5-316.5 316.5-131.5z" glyph-name="camera" horiz-adv-x="1920" unicode="&#xf030;"/><glyph d="M725 977l-170-450q33 0 136.5-2t160.5-2q19 0 57 2-87 253-184 452zM0-128l2 79q23 7 56 12.5t57 10.5 49.5 14.5 44.5 29 31 50.5l237 616 280 724h75 53q8-14 11-21l205-480q33-78 106-257.5t114-274.5q15-34 58-144.5t72-168.5q20-45 35-57 19-15 88-29.5t84-20.5q6-38 6-57 0-5-.5-13.5t-.5-12.5q-63 0-190 8t-191 8q-76 0-215-7t-178-8q0 43 4 78l131 28q1 0 12.5 2.5t15.5 3.5 14.5 4.5 15 6.5 11 8 9 11 2.5 14q0 16-31 96.5t-72 177.5-42 100l-450 2q-26-58-76.5-195.5t-50.5-162.5q0-22 14-37.5t43.5-24.5 48.5-13.5 57-8.5 41-4q1-19 1-58 0-9-2-27-58 0-174.5 10t-174.5 10q-8 0-26.5-4t-21.5-4q-80-14-188-14z" glyph-name="font" horiz-adv-x="1664" unicode="&#xf031;"/><glyph d="M555 15q74-32 140-32 376 0 376 335 0 114-41 180-27 44-61.5 74t-67.5 46.5-80.5 25-84 10.5-94.5 2q-73 0-101-10 0-53-.5-159t-.5-158q0-8-1-67.5t-.5-96.5 4.5-83.5 12-66.5zM541 761q42-7 109-7 82 0 143 13t110 44.5 74.5 89.5 25.5 142q0 70-29 122.5t-79 82-108 43.5-124 14q-50 0-130-13 0-50 4-151t4-152q0-27-.5-80t-.5-79q0-46 1-69zM0-128l2 94q15 4 85 16t106 27q7 12 12.5 27t8.5 33.5 5.5 32.5 3 37.5.5 34v35.5 30q0 982-22 1025-4 8-22 14.5t-44.5 11-49.5 7-48.5 4.5-30.5 3l-4 83q98 2 340 11.5t373 9.5q23 0 68-.5t68-.5q70 0 136.5-13t128.5-42 108-71 74-104.5 28-137.5q0-52-16.5-95.5t-39-72-64.5-57.5-73-45-84-40q154-35 256.5-134t102.5-248q0-100-35-179.5t-93.5-130.5-138-85.5-163.5-48.5-176-14q-44 0-132 3t-132 3q-106 0-307-11t-231-12z" glyph-name="bold" horiz-adv-x="1408" unicode="&#xf032;"/><glyph d="M0-126l17 85q22 7 61.5 16.5t72 19 59.5 23.5q28 35 41 101 1 7 62 289t114 543.5 52 296.5v25q-24 13-54.5 18.5t-69.5 8-58 5.5l19 103q33-2 120-6.5t149.5-7 120.5-2.5q48 0 98.5 2.5t121 7 98.5 6.5q-5-39-19-89-30-10-101.5-28.5t-108.5-33.5q-8-19-14-42.5t-9-40-7.5-45.5-6.5-42q-27-148-87.5-419.5t-77.5-355.5q-2-9-13-58t-20-90-16-83.5-6-57.5l1-18q17-4 185-31-3-44-16-99-11 0-32.5-1.5t-32.5-1.5q-29 0-87 10t-86 10q-138 2-206 2-51 0-143-9t-121-11z" glyph-name="italic" horiz-adv-x="1024" unicode="&#xf033;"/><glyph d="M1744 128q33 0 42-18.5t-11-44.5l-126-162q-20-26-49-26t-49 26l-126 162q-20 26-11 44.5t42 18.5h80v1024h-80q-33 0-42 18.5t11 44.5l126 162q20 26 49 26t49-26l126-162q20-26 11-44.5t-42-18.5h-80v-1024h80zM81 1407l54-27q12-5 211-5 44 0 132 2t132 2q36 0 107.5-.5t107.5-.5h293q6 0 21-.5t20.5 0 16 3 17.5 9 15 17.5l42 1q4 0 14-.5t14-.5q2-112 2-336 0-80-5-109-39-14-68-18-25 44-54 128-3 9-11 48t-14.5 73.5-7.5 35.5q-6 8-12 12.5t-15.5 6-13 2.5-18 .5-16.5-.5q-17 0-66.5.5t-74.5.5-64-2-71-6q-9-81-8-136 0-94 2-388t2-455q0-16-2.5-71.5t0-91.5 12.5-69q40-21 124-42.5t120-37.5q5-40 5-50 0-14-3-29l-34-1q-76-2-218 8t-207 10q-50 0-151-9t-152-9q-3 51-3 52v9q17 27 61.5 43t98.5 29 78 27q19 42 19 383 0 101-3 303t-3 303v117q0 2 .5 15.5t.5 25-1 25.5-3 24-5 14q-11 12-162 12-33 0-93-12t-80-26q-19-13-34-72.5t-31.5-111-42.5-53.5q-42 26-56 44v383z" glyph-name="text_height" horiz-adv-x="1792" unicode="&#xf034;"/><glyph d="M81 1407l54-27q12-5 211-5 44 0 132 2t132 2q70 0 246.5 1t304.5.5 247-4.5q33-1 56 31l42 1q4 0 14-.5t14-.5q2-112 2-336 0-80-5-109-39-14-68-18-25 44-54 128-3 9-11 47.5t-15 73.5-7 36q-10 13-27 19-5 2-66 2-30 0-93 1t-103 1-94-2-96-7q-9-81-8-136l1-152v52q0-55 1-154t1.5-180 .5-153q0-16-2.5-71.5t0-91.5 12.5-69q40-21 124-42.5t120-37.5q5-40 5-50 0-14-3-29l-34-1q-76-2-218 8t-207 10q-50 0-151-9t-152-9q-3 51-3 52v9q17 27 61.5 43t98.5 29 78 27q7 16 11.5 74t6 145.5 1.5 155-.5 153.5-.5 89q0 7-2.5 21.5t-2.5 22.5q0 7 .5 44t1 73 0 76.5-3 67.5-6.5 32q-11 12-162 12-41 0-163-13.5t-138-24.5q-19-12-34-71.5t-31.5-111.5-42.5-54q-42 26-56 44v383zM1310 125q12 0 42-19.5t57.5-41.5 59.5-49 36-30q26-21 26-49t-26-49q-4-3-36-30t-59.5-49-57.5-41.5-42-19.5q-13 0-20.5 10.5t-10 28.5-2.5 33.5 1.5 33 1.5 19.5h-1024q0-2 1.5-19.5t1.5-33-2.5-33.5-10-28.5-20.5-10.5q-12 0-42 19.5t-57.5 41.5-59.5 49-36 30q-26 21-26 49t26 49q4 3 36 30t59.5 49 57.5 41.5 42 19.5q13 0 20.5-10.5t10-28.5 2.5-33.5-1.5-33-1.5-19.5h1024q0 2-1.5 19.5t-1.5 33 2.5 33.5 10 28.5 20.5 10.5z" glyph-name="text_width" unicode="&#xf035;"/><glyph d="M1792 192v-128q0-26-19-45t-45-19h-1664q-26 0-45 19t-19 45v128q0 26 19 45t45 19h1664q26 0 45-19t19-45zM1408 576v-128q0-26-19-45t-45-19h-1280q-26 0-45 19t-19 45v128q0 26 19 45t45 19h1280q26 0 45-19t19-45zM1664 960v-128q0-26-19-45t-45-19h-1536q-26 0-45 19t-19 45v128q0 26 19 45t45 19h1536q26 0 45-19t19-45zM1280 1344v-128q0-26-19-45t-45-19h-1152q-26 0-45 19t-19 45v128q0 26 19 45t45 19h1152q26 0 45-19t19-45z" glyph-name="align_left" horiz-adv-x="1792" unicode="&#xf036;"/><glyph d="M1792 192v-128q0-26-19-45t-45-19h-1664q-26 0-45 19t-19 45v128q0 26 19 45t45 19h1664q26 0 45-19t19-45zM1408 576v-128q0-26-19-45t-45-19h-896q-26 0-45 19t-19 45v128q0 26 19 45t45 19h896q26 0 45-19t19-45zM1664 960v-128q0-26-19-45t-45-19h-1408q-26 0-45 19t-19 45v128q0 26 19 45t45 19h1408q26 0 45-19t19-45zM1280 1344v-128q0-26-19-45t-45-19h-640q-26 0-45 19t-19 45v128q0 26 19 45t45 19h640q26 0 45-19t19-45z" glyph-name="align_center" horiz-adv-x="1792" unicode="&#xf037;"/><glyph d="M1792 192v-128q0-26-19-45t-45-19h-1664q-26 0-45 19t-19 45v128q0 26 19 45t45 19h1664q26 0 45-19t19-45zM1792 576v-128q0-26-19-45t-45-19h-1280q-26 0-45 19t-19 45v128q0 26 19 45t45 19h1280q26 0 45-19t19-45zM1792 960v-128q0-26-19-45t-45-19h-1536q-26 0-45 19t-19 45v128q0 26 19 45t45 19h1536q26 0 45-19t19-45zM1792 1344v-128q0-26-19-45t-45-19h-1152q-26 0-45 19t-19 45v128q0 26 19 45t45 19h1152q26 0 45-19t19-45z" glyph-name="align_right" horiz-adv-x="1792" unicode="&#xf038;"/><glyph d="M1792 192v-128q0-26-19-45t-45-19h-1664q-26 0-45 19t-19 45v128q0 26 19 45t45 19h1664q26 0 45-19t19-45zM1792 576v-128q0-26-19-45t-45-19h-1664q-26 0-45 19t-19 45v128q0 26 19 45t45 19h1664q26 0 45-19t19-45zM1792 960v-128q0-26-19-45t-45-19h-1664q-26 0-45 19t-19 45v128q0 26 19 45t45 19h1664q26 0 45-19t19-45zM1792 1344v-128q0-26-19-45t-45-19h-1664q-26 0-45 19t-19 45v128q0 26 19 45t45 19h1664q26 0 45-19t19-45z" glyph-name="align_justify" horiz-adv-x="1792" unicode="&#xf039;"/><glyph d="M256 224v-192q0-13-9.5-22.5t-22.5-9.5h-192q-13 0-22.5 9.5t-9.5 22.5v192q0 13 9.5 22.5t22.5 9.5h192q13 0 22.5-9.5t9.5-22.5zM256 608v-192q0-13-9.5-22.5t-22.5-9.5h-192q-13 0-22.5 9.5t-9.5 22.5v192q0 13 9.5 22.5t22.5 9.5h192q13 0 22.5-9.5t9.5-22.5zM256 992v-192q0-13-9.5-22.5t-22.5-9.5h-192q-13 0-22.5 9.5t-9.5 22.5v192q0 13 9.5 22.5t22.5 9.5h192q13 0 22.5-9.5t9.5-22.5zM1792 224v-192q0-13-9.5-22.5t-22.5-9.5h-1344q-13 0-22.5 9.5t-9.5 22.5v192q0 13 9.5 22.5t22.5 9.5h1344q13 0 22.5-9.5t9.5-22.5zM256 1376v-192q0-13-9.5-22.5t-22.5-9.5h-192q-13 0-22.5 9.5t-9.5 22.5v192q0 13 9.5 22.5t22.5 9.5h192q13 0 22.5-9.5t9.5-22.5zM1792 608v-192q0-13-9.5-22.5t-22.5-9.5h-1344q-13 0-22.5 9.5t-9.5 22.5v192q0 13 9.5 22.5t22.5 9.5h1344q13 0 22.5-9.5t9.5-22.5zM1792 992v-192q0-13-9.5-22.5t-22.5-9.5h-1344q-13 0-22.5 9.5t-9.5 22.5v192q0 13 9.5 22.5t22.5 9.5h1344q13 0 22.5-9.5t9.5-22.5zM1792 1376v-192q0-13-9.5-22.5t-22.5-9.5h-1344q-13 0-22.5 9.5t-9.5 22.5v192q0 13 9.5 22.5t22.5 9.5h1344q13 0 22.5-9.5t9.5-22.5z" glyph-name="list" horiz-adv-x="1792" unicode="&#xf03a;"/><glyph d="M384 992v-576q0-13-9.5-22.5t-22.5-9.5q-14 0-23 9l-288 288q-9 9-9 23t9 23l288 288q9 9 23 9 13 0 22.5-9.5t9.5-22.5zM1792 224v-192q0-13-9.5-22.5t-22.5-9.5h-1728q-13 0-22.5 9.5t-9.5 22.5v192q0 13 9.5 22.5t22.5 9.5h1728q13 0 22.5-9.5t9.5-22.5zM1792 608v-192q0-13-9.5-22.5t-22.5-9.5h-1088q-13 0-22.5 9.5t-9.5 22.5v192q0 13 9.5 22.5t22.5 9.5h1088q13 0 22.5-9.5t9.5-22.5zM1792 992v-192q0-13-9.5-22.5t-22.5-9.5h-1088q-13 0-22.5 9.5t-9.5 22.5v192q0 13 9.5 22.5t22.5 9.5h1088q13 0 22.5-9.5t9.5-22.5zM1792 1376v-192q0-13-9.5-22.5t-22.5-9.5h-1728q-13 0-22.5 9.5t-9.5 22.5v192q0 13 9.5 22.5t22.5 9.5h1728q13 0 22.5-9.5t9.5-22.5z" glyph-name="indent_left" horiz-adv-x="1792" unicode="&#xf03b;"/><glyph d="M352 704q0-14-9-23l-288-288q-9-9-23-9-13 0-22.5 9.5t-9.5 22.5v576q0 13 9.5 22.5t22.5 9.5q14 0 23-9l288-288q9-9 9-23zM1792 224v-192q0-13-9.5-22.5t-22.5-9.5h-1728q-13 0-22.5 9.5t-9.5 22.5v192q0 13 9.5 22.5t22.5 9.5h1728q13 0 22.5-9.5t9.5-22.5zM1792 608v-192q0-13-9.5-22.5t-22.5-9.5h-1088q-13 0-22.5 9.5t-9.5 22.5v192q0 13 9.5 22.5t22.5 9.5h1088q13 0 22.5-9.5t9.5-22.5zM1792 992v-192q0-13-9.5-22.5t-22.5-9.5h-1088q-13 0-22.5 9.5t-9.5 22.5v192q0 13 9.5 22.5t22.5 9.5h1088q13 0 22.5-9.5t9.5-22.5zM1792 1376v-192q0-13-9.5-22.5t-22.5-9.5h-1728q-13 0-22.5 9.5t-9.5 22.5v192q0 13 9.5 22.5t22.5 9.5h1728q13 0 22.5-9.5t9.5-22.5z" glyph-name="indent_right" horiz-adv-x="1792" unicode="&#xf03c;"/><glyph d="M1792 1184v-1088q0-42-39-59-13-5-25-5-27 0-45 19l-403 403v-166q0-119-84.5-203.5t-203.5-84.5h-704q-119 0-203.5 84.5t-84.5 203.5v704q0 119 84.5 203.5t203.5 84.5h704q119 0 203.5-84.5t84.5-203.5v-165l403 402q18 19 45 19 12 0 25-5 39-17 39-59z" glyph-name="facetime_video" horiz-adv-x="1792" unicode="&#xf03d;"/><glyph d="M640 960q0-80-56-136t-136-56-136 56-56 136 56 136 136 56 136-56 56-136zM1664 576v-448h-1408v192l320 320 160-160 512 512zM1760 1280h-1600q-13 0-22.5-9.5t-9.5-22.5v-1216q0-13 9.5-22.5t22.5-9.5h1600q13 0 22.5 9.5t9.5 22.5v1216q0 13-9.5 22.5t-22.5 9.5zM1920 1248v-1216q0-66-47-113t-113-47h-1600q-66 0-113 47t-47 113v1216q0 66 47 113t113 47h1600q66 0 113-47t47-113z" glyph-name="picture" horiz-adv-x="1920" unicode="&#xf03e;"/><glyph d="M363 0l91 91-235 235-91-91v-107h128v-128h107zM886 928q0 22-22 22-10 0-17-7l-542-542q-7-7-7-17 0-22 22-22 10 0 17 7l542 542q7 7 7 17zM832 1120l416-416-832-832h-416v416zM1515 1024q0-53-37-90l-166-166-416 416 166 165q36 38 90 38 53 0 91-38l235-234q37-39 37-91z" glyph-name="pencil" unicode="&#xf040;"/><glyph d="M768 896q0 106-75 181t-181 75-181-75-75-181 75-181 181-75 181 75 75 181zM1024 896q0-109-33-179l-364-774q-16-33-47.5-52t-67.5-19-67.5 19-46.5 52l-365 774q-33 70-33 179 0 212 150 362t362 150 362-150 150-362z" glyph-name="map_marker" horiz-adv-x="1024" unicode="&#xf041;"/><glyph d="M768 96v1088q-148 0-273-73t-198-198-73-273 73-273 198-198 273-73zM1536 640q0-209-103-385.5t-279.5-279.5-385.5-103-385.5 103-279.5 279.5-103 385.5 103 385.5 279.5 279.5 385.5 103 385.5-103 279.5-279.5 103-385.5z" glyph-name="adjust" unicode="&#xf042;"/><glyph d="M512 384q0 36-20 69-1 1-15.5 22.5t-25.5 38-25 44-21 50.5q-4 16-21 16t-21-16q-7-23-21-50.5t-25-44-25.5-38-15.5-22.5q-20-33-20-69 0-53 37.5-90.5t90.5-37.5 90.5 37.5 37.5 90.5zM1024 512q0-212-150-362t-362-150-362 150-150 362q0 145 81 275 6 9 62.5 90.5t101 151 99.5 178 83 201.5q9 30 34 47t51 17 51.5-17 33.5-47q28-93 83-201.5t99.5-178 101-151 62.5-90.5q81-127 81-275z" glyph-name="tint" horiz-adv-x="1024" unicode="&#xf043;"/><glyph d="M888 352l116 116-152 152-116-116v-56h96v-96h56zM1328 1072q-16 16-33-1l-350-350q-17-17-1-33t33 1l350 350q17 17 1 33zM1408 478v-190q0-119-84.5-203.5t-203.5-84.5h-832q-119 0-203.5 84.5t-84.5 203.5v832q0 119 84.5 203.5t203.5 84.5h832q63 0 117-25 15-7 18-23 3-17-9-29l-49-49q-14-14-32-8-23 6-45 6h-832q-66 0-113-47t-47-113v-832q0-66 47-113t113-47h832q66 0 113 47t47 113v126q0 13 9 22l64 64q15 15 35 7t20-29zM1312 1216l288-288-672-672h-288v288zM1756 1084l-92-92-288 288 92 92q28 28 68 28t68-28l152-152q28-28 28-68t-28-68z" glyph-name="edit" horiz-adv-x="1792" unicode="&#xf044;"/><glyph d="M1408 547v-259q0-119-84.5-203.5t-203.5-84.5h-832q-119 0-203.5 84.5t-84.5 203.5v832q0 119 84.5 203.5t203.5 84.5h255v0q13 0 22.5-9.5t9.5-22.5q0-27-26-32-77-26-133-60-10-4-16-4h-112q-66 0-113-47t-47-113v-832q0-66 47-113t113-47h832q66 0 113 47t47 113v214q0 19 18 29 28 13 54 37 16 16 35 8 21-9 21-29zM1645 1043l-384-384q-18-19-45-19-12 0-25 5-39 17-39 59v192h-160q-323 0-438-131-119-137-74-473 3-23-20-34-8-2-12-2-16 0-26 13-10 14-21 31t-39.5 68.5-49.5 99.5-38.5 114-17.5 122q0 49 3.5 91t14 90 28 88 47 81.5 68.5 74 94.5 61.5 124.5 48.5 159.5 30.5 196.5 11h160v192q0 42 39 59 13 5 25 5 26 0 45-19l384-384q19-19 19-45t-19-45z" glyph-name="share" horiz-adv-x="1664" unicode="&#xf045;"/><glyph d="M1408 606v-318q0-119-84.5-203.5t-203.5-84.5h-832q-119 0-203.5 84.5t-84.5 203.5v832q0 119 84.5 203.5t203.5 84.5h832q63 0 117-25 15-7 18-23 3-17-9-29l-49-49q-10-10-23-10-3 0-9 2-23 6-45 6h-832q-66 0-113-47t-47-113v-832q0-66 47-113t113-47h832q66 0 113 47t47 113v254q0 13 9 22l64 64q10 10 23 10 6 0 12-3 20-8 20-29zM1639 1095l-814-814q-24-24-57-24t-57 24l-430 430q-24 24-24 57t24 57l110 110q24 24 57 24t57-24l263-263 647 647q24 24 57 24t57-24l110-110q24-24 24-57t-24-57z" glyph-name="check" horiz-adv-x="1664" unicode="&#xf046;"/><glyph d="M1792 640q0-26-19-45l-256-256q-19-19-45-19t-45 19-19 45v128h-384v-384h128q26 0 45-19t19-45-19-45l-256-256q-19-19-45-19t-45 19l-256 256q-19 19-19 45t19 45 45 19h128v384h-384v-128q0-26-19-45t-45-19-45 19l-256 256q-19 19-19 45t19 45l256 256q19 19 45 19t45-19 19-45v-128h384v384h-128q-26 0-45 19t-19 45 19 45l256 256q19 19 45 19t45-19l256-256q19-19 19-45t-19-45-45-19h-128v-384h384v128q0 26 19 45t45 19 45-19l256-256q19-19 19-45z" glyph-name="move" horiz-adv-x="1792" unicode="&#xf047;"/><glyph d="M979 1395q19 19 32 13t13-32v-1472q0-26-13-32t-32 13l-710 710q-9 9-13 19v-678q0-26-19-45t-45-19h-128q-26 0-45 19t-19 45v1408q0 26 19 45t45 19h128q26 0 45-19t19-45v-678q4 10 13 19z" glyph-name="step_backward" horiz-adv-x="1024" unicode="&#xf048;"/><glyph d="M1747 1395q19 19 32 13t13-32v-1472q0-26-13-32t-32 13l-710 710q-9 9-13 19v-710q0-26-13-32t-32 13l-710 710q-9 9-13 19v-678q0-26-19-45t-45-19h-128q-26 0-45 19t-19 45v1408q0 26 19 45t45 19h128q26 0 45-19t19-45v-678q4 10 13 19l710 710q19 19 32 13t13-32v-710q4 10 13 19z" glyph-name="fast_backward" horiz-adv-x="1792" unicode="&#xf049;"/><glyph d="M1619 1395q19 19 32 13t13-32v-1472q0-26-13-32t-32 13l-710 710q-9 9-13 19v-710q0-26-13-32t-32 13l-710 710q-19 19-19 45t19 45l710 710q19 19 32 13t13-32v-710q4 10 13 19z" glyph-name="backward" horiz-adv-x="1664" unicode="&#xf04a;"/><glyph d="M1384 609l-1328-738q-23-13-39.5-3t-16.5 36v1472q0 26 16.5 36t39.5-3l1328-738q23-13 23-31t-23-31z" glyph-name="play" horiz-adv-x="1408" unicode="&#xf04b;"/><glyph d="M1536 1344v-1408q0-26-19-45t-45-19h-512q-26 0-45 19t-19 45v1408q0 26 19 45t45 19h512q26 0 45-19t19-45zM640 1344v-1408q0-26-19-45t-45-19h-512q-26 0-45 19t-19 45v1408q0 26 19 45t45 19h512q26 0 45-19t19-45z" glyph-name="pause" unicode="&#xf04c;"/><glyph d="M1536 1344v-1408q0-26-19-45t-45-19h-1408q-26 0-45 19t-19 45v1408q0 26 19 45t45 19h1408q26 0 45-19t19-45z" glyph-name="stop" unicode="&#xf04d;"/><glyph d="M45-115q-19-19-32-13t-13 32v1472q0 26 13 32t32-13l710-710q9-9 13-19v710q0 26 13 32t32-13l710-710q19-19 19-45t-19-45l-710-710q-19-19-32-13t-13 32v710q-4-10-13-19z" glyph-name="forward" horiz-adv-x="1664" unicode="&#xf04e;"/><glyph d="M45-115q-19-19-32-13t-13 32v1472q0 26 13 32t32-13l710-710q9-9 13-19v710q0 26 13 32t32-13l710-710q9-9 13-19v678q0 26 19 45t45 19h128q26 0 45-19t19-45v-1408q0-26-19-45t-45-19h-128q-26 0-45 19t-19 45v678q-4-10-13-19l-710-710q-19-19-32-13t-13 32v710q-4-10-13-19z" glyph-name="fast_forward" horiz-adv-x="1792" unicode="&#xf050;"/><glyph d="M45-115q-19-19-32-13t-13 32v1472q0 26 13 32t32-13l710-710q9-9 13-19v678q0 26 19 45t45 19h128q26 0 45-19t19-45v-1408q0-26-19-45t-45-19h-128q-26 0-45 19t-19 45v678q-4-10-13-19z" glyph-name="step_forward" horiz-adv-x="1024" unicode="&#xf051;"/><glyph d="M14 557l710 710q19 19 45 19t45-19l710-710q19-19 13-32t-32-13h-1472q-26 0-32 13t13 32zM1473 0h-1408q-26 0-45 19t-19 45v256q0 26 19 45t45 19h1408q26 0 45-19t19-45v-256q0-26-19-45t-45-19z" glyph-name="eject" horiz-adv-x="1538" unicode="&#xf052;"/><glyph d="M1171 1235l-531-531 531-531q19-19 19-45t-19-45l-166-166q-19-19-45-19t-45 19l-742 742q-19 19-19 45t19 45l742 742q19 19 45 19t45-19l166-166q19-19 19-45t-19-45z" glyph-name="chevron_left" horiz-adv-x="1280" unicode="&#xf053;"/><glyph d="M1107 659l-742-742q-19-19-45-19t-45 19l-166 166q-19 19-19 45t19 45l531 531-531 531q-19 19-19 45t19 45l166 166q19 19 45 19t45-19l742-742q19-19 19-45t-19-45z" glyph-name="chevron_right" horiz-adv-x="1280" unicode="&#xf054;"/><glyph d="M1216 576v128q0 26-19 45t-45 19h-256v256q0 26-19 45t-45 19h-128q-26 0-45-19t-19-45v-256h-256q-26 0-45-19t-19-45v-128q0-26 19-45t45-19h256v-256q0-26 19-45t45-19h128q26 0 45 19t19 45v256h256q26 0 45 19t19 45zM1536 640q0-209-103-385.5t-279.5-279.5-385.5-103-385.5 103-279.5 279.5-103 385.5 103 385.5 279.5 279.5 385.5 103 385.5-103 279.5-279.5 103-385.5z" glyph-name="plus_sign" unicode="&#xf055;"/><glyph d="M1216 576v128q0 26-19 45t-45 19h-768q-26 0-45-19t-19-45v-128q0-26 19-45t45-19h768q26 0 45 19t19 45zM1536 640q0-209-103-385.5t-279.5-279.5-385.5-103-385.5 103-279.5 279.5-103 385.5 103 385.5 279.5 279.5 385.5 103 385.5-103 279.5-279.5 103-385.5z" glyph-name="minus_sign" unicode="&#xf056;"/><glyph d="M1149 414q0 26-19 45l-181 181 181 181q19 19 19 45 0 27-19 46l-90 90q-19 19-46 19-26 0-45-19l-181-181-181 181q-19 19-45 19-27 0-46-19l-90-90q-19-19-19-46 0-26 19-45l181-181-181-181q-19-19-19-45 0-27 19-46l90-90q19-19 46-19 26 0 45 19l181 181 181-181q19-19 45-19 27 0 46 19l90 90q19 19 19 46zM1536 640q0-209-103-385.5t-279.5-279.5-385.5-103-385.5 103-279.5 279.5-103 385.5 103 385.5 279.5 279.5 385.5 103 385.5-103 279.5-279.5 103-385.5z" glyph-name="remove_sign" unicode="&#xf057;"/><glyph d="M1284 802q0 28-18 46l-91 90q-19 19-45 19t-45-19l-408-407-226 226q-19 19-45 19t-45-19l-91-90q-18-18-18-46 0-27 18-45l362-362q19-19 45-19 27 0 46 19l543 543q18 18 18 45zM1536 640q0-209-103-385.5t-279.5-279.5-385.5-103-385.5 103-279.5 279.5-103 385.5 103 385.5 279.5 279.5 385.5 103 385.5-103 279.5-279.5 103-385.5z" glyph-name="ok_sign" unicode="&#xf058;"/><glyph d="M896 160v192q0 14-9 23t-23 9h-192q-14 0-23-9t-9-23v-192q0-14 9-23t23-9h192q14 0 23 9t9 23zM1152 832q0 88-55.5 163t-138.5 116-170 41q-243 0-371-213-15-24 8-42l132-100q7-6 19-6 16 0 25 12 53 68 86 92 34 24 86 24 48 0 85.5-26t37.5-59q0-38-20-61t-68-45q-63-28-115.5-86.5t-52.5-125.5v-36q0-14 9-23t23-9h192q14 0 23 9t9 23q0 19 21.5 49.5t54.5 49.5q32 18 49 28.5t46 35 44.5 48 28 60.5 12.5 81zM1536 640q0-209-103-385.5t-279.5-279.5-385.5-103-385.5 103-279.5 279.5-103 385.5 103 385.5 279.5 279.5 385.5 103 385.5-103 279.5-279.5 103-385.5z" glyph-name="question_sign" unicode="&#xf059;"/><glyph d="M1024 160v160q0 14-9 23t-23 9h-96v512q0 14-9 23t-23 9h-320q-14 0-23-9t-9-23v-160q0-14 9-23t23-9h96v-320h-96q-14 0-23-9t-9-23v-160q0-14 9-23t23-9h448q14 0 23 9t9 23zM896 1056v160q0 14-9 23t-23 9h-192q-14 0-23-9t-9-23v-160q0-14 9-23t23-9h192q14 0 23 9t9 23zM1536 640q0-209-103-385.5t-279.5-279.5-385.5-103-385.5 103-279.5 279.5-103 385.5 103 385.5 279.5 279.5 385.5 103 385.5-103 279.5-279.5 103-385.5z" glyph-name="info_sign" unicode="&#xf05a;"/><glyph d="M1197 512h-109q-26 0-45 19t-19 45v128q0 26 19 45t45 19h109q-32 108-112.5 188.5t-188.5 112.5v-109q0-26-19-45t-45-19h-128q-26 0-45 19t-19 45v109q-108-32-188.5-112.5t-112.5-188.5h109q26 0 45-19t19-45v-128q0-26-19-45t-45-19h-109q32-108 112.5-188.5t188.5-112.5v109q0 26 19 45t45 19h128q26 0 45-19t19-45v-109q108 32 188.5 112.5t112.5 188.5zM1536 704v-128q0-26-19-45t-45-19h-143q-37-161-154.5-278.5t-278.5-154.5v-143q0-26-19-45t-45-19h-128q-26 0-45 19t-19 45v143q-161 37-278.5 154.5t-154.5 278.5h-143q-26 0-45 19t-19 45v128q0 26 19 45t45 19h143q37 161 154.5 278.5t278.5 154.5v143q0 26 19 45t45 19h128q26 0 45-19t19-45v-143q161-37 278.5-154.5t154.5-278.5h143q26 0 45-19t19-45z" glyph-name="screenshot" unicode="&#xf05b;"/><glyph d="M1097 457l-146-146q-10-10-23-10t-23 10l-137 137-137-137q-10-10-23-10t-23 10l-146 146q-10 10-10 23t10 23l137 137-137 137q-10 10-10 23t10 23l146 146q10 10 23 10t23-10l137-137 137 137q10 10 23 10t23-10l146-146q10-10 10-23t-10-23l-137-137 137-137q10-10 10-23t-10-23zM1312 640q0 148-73 273t-198 198-273 73-273-73-198-198-73-273 73-273 198-198 273-73 273 73 198 198 73 273zM1536 640q0-209-103-385.5t-279.5-279.5-385.5-103-385.5 103-279.5 279.5-103 385.5 103 385.5 279.5 279.5 385.5 103 385.5-103 279.5-279.5 103-385.5z" glyph-name="remove_circle" unicode="&#xf05c;"/><glyph d="M1171 723l-422-422q-19-19-45-19t-45 19l-294 294q-19 19-19 45t19 45l102 102q19 19 45 19t45-19l147-147 275 275q19 19 45 19t45-19l102-102q19-19 19-45t-19-45zM1312 640q0 148-73 273t-198 198-273 73-273-73-198-198-73-273 73-273 198-198 273-73 273 73 198 198 73 273zM1536 640q0-209-103-385.5t-279.5-279.5-385.5-103-385.5 103-279.5 279.5-103 385.5 103 385.5 279.5 279.5 385.5 103 385.5-103 279.5-279.5 103-385.5z" glyph-name="ok_circle" unicode="&#xf05d;"/><glyph d="M1312 643q0 161-87 295l-754-753q137-89 297-89 111 0 211.5 43.5t173.5 116.5 116 174.5 43 212.5zM313 344l755 754q-135 91-300 91-148 0-273-73t-198-199-73-274q0-162 89-299zM1536 643q0-157-61-300t-163.5-246-245-164-298.5-61-298.5 61-245 164-163.5 246-61 300 61 299.5 163.5 245.5 245 164 298.5 61 298.5-61 245-164 163.5-245.5 61-299.5z" glyph-name="ban_circle" unicode="&#xf05e;"/><glyph d="M1536 640v-128q0-53-32.5-90.5t-84.5-37.5h-704l293-294q38-36 38-90t-38-90l-75-76q-37-37-90-37-52 0-91 37l-651 652q-37 37-37 90 0 52 37 91l651 650q38 38 91 38 52 0 90-38l75-74q38-38 38-91t-38-91l-293-293h704q52 0 84.5-37.5t32.5-90.5z" glyph-name="arrow_left" unicode="&#xf060;"/><glyph d="M1472 576q0-54-37-91l-651-651q-39-37-91-37-51 0-90 37l-75 75q-38 38-38 91t38 91l293 293h-704q-52 0-84.5 37.5t-32.5 90.5v128q0 53 32.5 90.5t84.5 37.5h704l-293 294q-38 36-38 90t38 90l75 75q38 38 90 38 53 0 91-38l651-651q37-35 37-90z" glyph-name="arrow_right" unicode="&#xf061;"/><glyph d="M1611 565q0-51-37-90l-75-75q-38-38-91-38-54 0-90 38l-294 293v-704q0-52-37.5-84.5t-90.5-32.5h-128q-53 0-90.5 32.5t-37.5 84.5v704l-294-293q-36-38-90-38t-90 38l-75 75q-38 38-38 90 0 53 38 91l651 651q35 37 90 37 54 0 91-37l651-651q37-39 37-91z" glyph-name="arrow_up" horiz-adv-x="1664" unicode="&#xf062;"/><glyph d="M1611 704q0-53-37-90l-651-652q-39-37-91-37-53 0-90 37l-651 652q-38 36-38 90 0 53 38 91l74 75q39 37 91 37 53 0 90-37l294-294v704q0 52 38 90t90 38h128q52 0 90-38t38-90v-704l294 294q37 37 90 37 52 0 91-37l75-75q37-39 37-91z" glyph-name="arrow_down" horiz-adv-x="1664" unicode="&#xf063;"/><glyph d="M1792 896q0-26-19-45l-512-512q-19-19-45-19t-45 19-19 45v256h-224q-98 0-175.5-6t-154-21.5-133-42.5-105.5-69.5-80-101-48.5-138.5-17.5-181q0-55 5-123 0-6 2.5-23.5t2.5-26.5q0-15-8.5-25t-23.5-10q-16 0-28 17-7 9-13 22t-13.5 30-10.5 24q-127 285-127 451 0 199 53 333 162 403 875 403h224v256q0 26 19 45t45 19 45-19l512-512q19-19 19-45z" glyph-name="share_alt" horiz-adv-x="1792" unicode="&#xf064;"/><glyph d="M755 480q0-13-10-23l-332-332 144-144q19-19 19-45t-19-45-45-19h-448q-26 0-45 19t-19 45v448q0 26 19 45t45 19 45-19l144-144 332 332q10 10 23 10t23-10l114-114q10-10 10-23zM1536 1344v-448q0-26-19-45t-45-19-45 19l-144 144-332-332q-10-10-23-10t-23 10l-114 114q-10 10-10 23t10 23l332 332-144 144q-19 19-19 45t19 45 45 19h448q26 0 45-19t19-45z" glyph-name="resize_full" unicode="&#xf065;"/><glyph d="M768 576v-448q0-26-19-45t-45-19-45 19l-144 144-332-332q-10-10-23-10t-23 10l-114 114q-10 10-10 23t10 23l332 332-144 144q-19 19-19 45t19 45 45 19h448q26 0 45-19t19-45zM1523 1248q0-13-10-23l-332-332 144-144q19-19 19-45t-19-45-45-19h-448q-26 0-45 19t-19 45v448q0 26 19 45t45 19 45-19l144-144 332 332q10 10 23 10t23-10l114-114q10-10 10-23z" glyph-name="resize_small" unicode="&#xf066;"/><glyph d="M1408 800v-192q0-40-28-68t-68-28h-416v-416q0-40-28-68t-68-28h-192q-40 0-68 28t-28 68v416h-416q-40 0-68 28t-28 68v192q0 40 28 68t68 28h416v416q0 40 28 68t68 28h192q40 0 68-28t28-68v-416h416q40 0 68-28t28-68z" glyph-name="plus" horiz-adv-x="1408" unicode="&#xf067;"/><glyph d="M1408 800v-192q0-40-28-68t-68-28h-1216q-40 0-68 28t-28 68v192q0 40 28 68t68 28h1216q40 0 68-28t28-68z" glyph-name="minus" horiz-adv-x="1408" unicode="&#xf068;"/><glyph d="M1482 486q46-26 59.5-77.5t-12.5-97.5l-64-110q-26-46-77.5-59.5t-97.5 12.5l-266 153v-307q0-52-38-90t-90-38h-128q-52 0-90 38t-38 90v307l-266-153q-46-26-97.5-12.5t-77.5 59.5l-64 110q-26 46-12.5 97.5t59.5 77.5l266 154-266 154q-46 26-59.5 77.5t12.5 97.5l64 110q26 46 77.5 59.5t97.5-12.5l266-153v307q0 52 38 90t90 38h128q52 0 90-38t38-90v-307l266 153q46 26 97.5 12.5t77.5-59.5l64-110q26-46 12.5-97.5t-59.5-77.5l-266-154z" glyph-name="asterisk" horiz-adv-x="1664" unicode="&#xf069;"/><glyph d="M768 1408q209 0 385.5-103t279.5-279.5 103-385.5-103-385.5-279.5-279.5-385.5-103-385.5 103-279.5 279.5-103 385.5 103 385.5 279.5 279.5 385.5 103zM896 161v190q0 14-9 23.5t-22 9.5h-192q-13 0-23-10t-10-23v-190q0-13 10-23t23-10h192q13 0 22 9.5t9 23.5zM894 505l18 621q0 12-10 18-10 8-24 8h-220q-14 0-24-8-10-6-10-18l17-621q0-10 10-17.5t24-7.5h185q14 0 23.5 7.5t10.5 17.5z" glyph-name="exclamation_sign" unicode="&#xf06a;"/><glyph d="M928 180v56 468 192h-320v-192-468-56q0-25 18-38.5t46-13.5h192q28 0 46 13.5t18 38.5zM472 1024h195l-126 161q-26 31-69 31-40 0-68-28t-28-68 28-68 68-28zM1160 1120q0 40-28 68t-68 28q-43 0-69-31l-125-161h194q40 0 68 28t28 68zM1536 864v-320q0-14-9-23t-23-9h-96v-416q0-40-28-68t-68-28h-1088q-40 0-68 28t-28 68v416h-96q-14 0-23 9t-9 23v320q0 14 9 23t23 9h440q-93 0-158.5 65.5t-65.5 158.5 65.5 158.5 158.5 65.5q107 0 168-77l128-165 128 165q61 77 168 77 93 0 158.5-65.5t65.5-158.5-65.5-158.5-158.5-65.5h440q14 0 23-9t9-23z" glyph-name="gift" unicode="&#xf06b;"/><glyph d="M1280 832q0 26-19 45t-45 19q-172 0-318-49.5t-259.5-134-235.5-219.5q-19-21-19-45 0-26 19-45t45-19q24 0 45 19 27 24 74 71t67 66q137 124 268.5 176t313.5 52q26 0 45 19t19 45zM1792 1030q0-95-20-193-46-224-184.5-383t-357.5-268q-214-108-438-108-148 0-286 47-15 5-88 42t-96 37q-16 0-39.5-32t-45-70-52.5-70-60-32q-43 0-63.5 17.5t-45.5 59.5q-2 4-6 11t-5.5 10-3 9.5-1.5 13.5q0 35 31 73.5t68 65.5 68 56 31 48q0 4-14 38t-16 44q-9 51-9 104 0 115 43.5 220t119 184.5 170.5 139 204 95.5q55 18 145 25.5t179.5 9 178.5 6 163.5 24 113.5 56.5l29.5 29.5t29.5 28 27 20 36.5 16 43.5 4.5q39 0 70.5-46t47.5-112 24-124 8-96z" glyph-name="leaf" horiz-adv-x="1792" unicode="&#xf06c;"/><glyph d="M1408-160v-64q0-13-9.5-22.5t-22.5-9.5h-1344q-13 0-22.5 9.5t-9.5 22.5v64q0 13 9.5 22.5t22.5 9.5h1344q13 0 22.5-9.5t9.5-22.5zM1152 896q0-78-24.5-144t-64-112.5-87.5-88-96-77.5-87.5-72-64-81.5-24.5-96.5q0-96 67-224l-4 1 1-1q-90 41-160 83t-138.5 100-113.5 122.5-72.5 150.5-27.5 184q0 78 24.5 144t64 112.5 87.5 88 96 77.5 87.5 72 64 81.5 24.5 96.5q0 94-66 224l3-1-1 1q90-41 160-83t138.5-100 113.5-122.5 72.5-150.5 27.5-184z" glyph-name="fire" horiz-adv-x="1408" unicode="&#xf06d;"/><glyph d="M1664 576q-152 236-381 353 61-104 61-225 0-185-131.5-316.5t-316.5-131.5-316.5 131.5-131.5 316.5q0 121 61 225-229-117-381-353 133-205 333.5-326.5t434.5-121.5 434.5 121.5 333.5 326.5zM944 960q0 20-14 34t-34 14q-125 0-214.5-89.5t-89.5-214.5q0-20 14-34t34-14 34 14 14 34q0 86 61 147t147 61q20 0 34 14t14 34zM1792 576q0-34-20-69-140-230-376.5-368.5t-499.5-138.5-499.5 139-376.5 368q-20 35-20 69t20 69q140 229 376.5 368t499.5 139 499.5-139 376.5-368q20-35 20-69z" glyph-name="eye_open" horiz-adv-x="1792" unicode="&#xf06e;"/><glyph d="M555 201l78 141q-87 63-136 159t-49 203q0 121 61 225-229-117-381-353 167-258 427-375zM944 960q0 20-14 34t-34 14q-125 0-214.5-89.5t-89.5-214.5q0-20 14-34t34-14 34 14 14 34q0 86 61 147t147 61q20 0 34 14t14 34zM1307 1151q0-7-1-9-106-189-316-567t-315-566l-49-89q-10-16-28-16-12 0-134 70-16 10-16 28 0 12 44 87-143 65-263.5 173t-208.5 245q-20 31-20 69t20 69q153 235 380 371t496 136q89 0 180-17l54 97q10 16 28 16 5 0 18-6t31-15.5 33-18.5 31.5-18.5 19.5-11.5q16-10 16-27zM1344 704q0-139-79-253.5t-209-164.5l280 502q8-45 8-84zM1792 576q0-35-20-69-39-64-109-145-150-172-347.5-267t-419.5-95l74 132q212 18 392.5 137t301.5 307q-115 179-282 294l63 112q95-64 182.5-153t144.5-184q20-34 20-69z" glyph-name="eye_close" horiz-adv-x="1792" unicode="&#xf070;"/><glyph d="M1024 161v190q0 14-9.5 23.5t-22.5 9.5h-192q-13 0-22.5-9.5t-9.5-23.5v-190q0-14 9.5-23.5t22.5-9.5h192q13 0 22.5 9.5t9.5 23.5zM1022 535l18 459q0 12-10 19-13 11-24 11h-220q-11 0-24-11-10-7-10-21l17-457q0-10 10-16.5t24-6.5h185q14 0 23.5 6.5t10.5 16.5zM1008 1469l768-1408q35-63-2-126-17-29-46.5-46t-63.5-17h-1536q-34 0-63.5 17t-46.5 46q-37 63-2 126l768 1408q17 31 47 49t65 18 65-18 47-49z" glyph-name="warning_sign" horiz-adv-x="1792" unicode="&#xf071;"/><glyph d="M1376 1376q44-52 12-148t-108-172l-161-161 160-696q5-19-12-33l-128-96q-7-6-19-6-4 0-7 1-15 3-21 16l-279 508-259-259 53-194q5-17-8-31l-96-96q-9-9-23-9h-2q-15 2-24 13l-189 252-252 189q-11 7-13 23-1 13 9 25l96 97q9 9 23 9 6 0 8-1l194-53 259 259-508 279q-14 8-17 24-2 16 9 27l128 128q14 13 30 8l665-159 160 160q76 76 172 108t148-12z" glyph-name="plane" horiz-adv-x="1408" unicode="&#xf072;"/><glyph d="M128-128h288v288h-288v-288zM480-128h320v288h-320v-288zM128 224h288v320h-288v-320zM480 224h320v320h-320v-320zM128 608h288v288h-288v-288zM864-128h320v288h-320v-288zM480 608h320v288h-320v-288zM1248-128h288v288h-288v-288zM864 224h320v320h-320v-320zM512 1088v288q0 13-9.5 22.5t-22.5 9.5h-64q-13 0-22.5-9.5t-9.5-22.5v-288q0-13 9.5-22.5t22.5-9.5h64q13 0 22.5 9.5t9.5 22.5zM1248 224h288v320h-288v-320zM864 608h320v288h-320v-288zM1248 608h288v288h-288v-288zM1280 1088v288q0 13-9.5 22.5t-22.5 9.5h-64q-13 0-22.5-9.5t-9.5-22.5v-288q0-13 9.5-22.5t22.5-9.5h64q13 0 22.5 9.5t9.5 22.5zM1664 1152v-1280q0-52-38-90t-90-38h-1408q-52 0-90 38t-38 90v1280q0 52 38 90t90 38h128v96q0 66 47 113t113 47h64q66 0 113-47t47-113v-96h384v96q0 66 47 113t113 47h64q66 0 113-47t47-113v-96h128q52 0 90-38t38-90z" glyph-name="calendar" horiz-adv-x="1664" unicode="&#xf073;"/><glyph d="M666 1055q-60-92-137-273-22 45-37 72.5t-40.5 63.5-51 56.5-63 35-81.5 14.5h-224q-14 0-23 9t-9 23v192q0 14 9 23t23 9h224q250 0 410-225zM1792 256q0-14-9-23l-320-320q-9-9-23-9-13 0-22.5 9.5t-9.5 22.5v192q-32 0-85-.5t-81-1-73 1-71 5-64 10.5-63 18.5-58 28.5-59 40-55 53.5-56 69.5q59 93 136 273 22-45 37-72.5t40.5-63.5 51-56.5 63-35 81.5-14.5h256v192q0 14 9 23t23 9q12 0 24-10l319-319q9-9 9-23zM1792 1152q0-14-9-23l-320-320q-9-9-23-9-13 0-22.5 9.5t-9.5 22.5v192h-256q-48 0-87-15t-69-45-51-61.5-45-77.5q-32-62-78-171-29-66-49.5-111t-54-105-64-100-74-83-90-68.5-106.5-42-128-16.5h-224q-14 0-23 9t-9 23v192q0 14 9 23t23 9h224q48 0 87 15t69 45 51 61.5 45 77.5q32 62 78 171 29 66 49.5 111t54 105 64 100 74 83 90 68.5 106.5 42 128 16.5h256v192q0 14 9 23t23 9q12 0 24-10l319-319q9-9 9-23z" glyph-name="random" horiz-adv-x="1792" unicode="&#xf074;"/><glyph d="M1792 640q0-174-120-321.5t-326-233-450-85.5q-70 0-145 8-198-175-460-242-49-14-114-22-17-2-30.5 9t-17.5 29v1q-3 4-.5 12t2 10 4.5 9.5l6 9t7 8.5 8 9q7 8 31 34.5t34.5 38 31 39.5 32.5 51 27 59 26 76q-157 89-247.5 220t-90.5 281q0 130 71 248.5t191 204.5 286 136.5 348 50.5q244 0 450-85.5t326-233 120-321.5z" glyph-name="comment" horiz-adv-x="1792" unicode="&#xf075;"/><glyph d="M1536 704v-128q0-201-98.5-362t-274-251.5-395.5-90.5-395.5 90.5-274 251.5-98.5 362v128q0 26 19 45t45 19h384q26 0 45-19t19-45v-128q0-52 23.5-90t53.5-57 71-30 64-13 44-2 44 2 64 13 71 30 53.5 57 23.5 90v128q0 26 19 45t45 19h384q26 0 45-19t19-45zM512 1344v-384q0-26-19-45t-45-19h-384q-26 0-45 19t-19 45v384q0 26 19 45t45 19h384q26 0 45-19t19-45zM1536 1344v-384q0-26-19-45t-45-19h-384q-26 0-45 19t-19 45v384q0 26 19 45t45 19h384q26 0 45-19t19-45z" glyph-name="magnet" unicode="&#xf076;"/><glyph d="M1683 205l-166-165q-19-19-45-19t-45 19l-531 531-531-531q-19-19-45-19t-45 19l-166 165q-19 19-19 45.5t19 45.5l742 741q19 19 45 19t45-19l742-741q19-19 19-45.5t-19-45.5z" glyph-name="chevron_up" horiz-adv-x="1792" unicode="&#xf077;"/><glyph d="M1683 728l-742-741q-19-19-45-19t-45 19l-742 741q-19 19-19 45.5t19 45.5l166 165q19 19 45 19t45-19l531-531 531 531q19 19 45 19t45-19l166-165q19-19 19-45.5t-19-45.5z" glyph-name="chevron_down" horiz-adv-x="1792" unicode="&#xf078;"/><glyph d="M1280 32q0-13-9.5-22.5t-22.5-9.5h-960q-8 0-13.5 2t-9 7-5.5 8-3 11.5-1 11.5v13 11 160 416h-192q-26 0-45 19t-19 45q0 24 15 41l320 384q19 22 49 22t49-22l320-384q15-17 15-41 0-26-19-45t-45-19h-192v-384h576q16 0 25-11l160-192q7-10 7-21zM1920 448q0-24-15-41l-320-384q-20-23-49-23t-49 23l-320 384q-15 17-15 41 0 26 19 45t45 19h192v384h-576q-16 0-25 12l-160 192q-7 9-7 20 0 13 9.5 22.5t22.5 9.5h960q8 0 13.5-2t9-7 5.5-8 3-11.5 1-11.5v-13-11-160-416h192q26 0 45-19t19-45z" glyph-name="retweet" horiz-adv-x="1920" unicode="&#xf079;"/><glyph d="M640 0q0-52-38-90t-90-38-90 38-38 90 38 90 90 38 90-38 38-90zM1536 0q0-52-38-90t-90-38-90 38-38 90 38 90 90 38 90-38 38-90zM1664 1088v-512q0-24-16.5-42.5t-40.5-21.5l-1044-122q13-60 13-70 0-16-24-64h920q26 0 45-19t19-45-19-45-45-19h-1024q-26 0-45 19t-19 45q0 11 8 31.5t16 36 21.5 40 15.5 29.5l-177 823h-204q-26 0-45 19t-19 45 19 45 45 19h256q16 0 28.5-6.5t19.5-15.5 13-24.5 8-26 5.5-29.5 4.5-26h1201q26 0 45-19t19-45z" glyph-name="shopping_cart" horiz-adv-x="1664" unicode="&#xf07a;"/><glyph d="M1664 928v-704q0-92-66-158t-158-66h-1216q-92 0-158 66t-66 158v960q0 92 66 158t158 66h320q92 0 158-66t66-158v-32h672q92 0 158-66t66-158z" glyph-name="folder_close" horiz-adv-x="1664" unicode="&#xf07b;"/><glyph d="M1879 584q0-31-31-66l-336-396q-43-51-120.5-86.5t-143.5-35.5h-1088q-34 0-60.5 13t-26.5 43q0 31 31 66l336 396q43 51 120.5 86.5t143.5 35.5h1088q34 0 60.5-13t26.5-43zM1536 928v-160h-832q-94 0-197-47.5t-164-119.5l-337-396-5-6q0 4-.5 12.5t-.5 12.5v960q0 92 66 158t158 66h320q92 0 158-66t66-158v-32h544q92 0 158-66t66-158z" glyph-name="folder_open" horiz-adv-x="1920" unicode="&#xf07c;"/><glyph d="M704 1216q0-26-19-45t-45-19h-128v-1024h128q26 0 45-19t19-45-19-45l-256-256q-19-19-45-19t-45 19l-256 256q-19 19-19 45t19 45 45 19h128v1024h-128q-26 0-45 19t-19 45 19 45l256 256q19 19 45 19t45-19l256-256q19-19 19-45z" glyph-name="resize_vertical" horiz-adv-x="768" unicode="&#xf07d;"/><glyph d="M1792 640q0-26-19-45l-256-256q-19-19-45-19t-45 19-19 45v128h-1024v-128q0-26-19-45t-45-19-45 19l-256 256q-19 19-19 45t19 45l256 256q19 19 45 19t45-19 19-45v-128h1024v128q0 26 19 45t45 19 45-19l256-256q19-19 19-45z" glyph-name="resize_horizontal" horiz-adv-x="1792" unicode="&#xf07e;"/><glyph d="M640 640v-512h-256v512h256zM1024 1152v-1024h-256v1024h256zM2048 0v-128h-2048v1536h128v-1408h1920zM1408 896v-768h-256v768h256zM1792 1280v-1152h-256v1152h256z" glyph-name="bar_chart" horiz-adv-x="2048" unicode="&#xf080;"/><glyph d="M1280 926q-56-25-121-34 68 40 93 117-65-38-134-51-61 66-153 66-87 0-148.5-61.5t-61.5-148.5q0-29 5-48-129 7-242 65t-192 155q-29-50-29-106 0-114 91-175-47 1-100 26v-2q0-75 50-133.5t123-72.5q-29-8-51-8-13 0-39 4 21-63 74.5-104t121.5-42q-116-90-261-90-26 0-50 3 148-94 322-94 112 0 210 35.5t168 95 120.5 137 75 162 24.5 168.5q0 18-1 27 63 45 105 109zM1536 1120v-960q0-119-84.5-203.5t-203.5-84.5h-960q-119 0-203.5 84.5t-84.5 203.5v960q0 119 84.5 203.5t203.5 84.5h960q119 0 203.5-84.5t84.5-203.5z" glyph-name="twitter_sign" unicode="&#xf081;"/><glyph d="M1248 1408q119 0 203.5-84.5t84.5-203.5v-960q0-119-84.5-203.5t-203.5-84.5h-188v595h199l30 232h-229v148q0 56 23.5 84t91.5 28l122 1v207q-63 9-178 9-136 0-217.5-80t-81.5-226v-171h-200v-232h200v-595h-532q-119 0-203.5 84.5t-84.5 203.5v960q0 119 84.5 203.5t203.5 84.5h960z" glyph-name="facebook_sign" unicode="&#xf082;"/><glyph d="M928 704q0 14-9 23t-23 9q-66 0-113-47t-47-113q0-14 9-23t23-9 23 9 9 23q0 40 28 68t68 28q14 0 23 9t9 23zM1152 574q0-106-75-181t-181-75-181 75-75 181 75 181 181 75 181-75 75-181zM128 0h1536v128h-1536v-128zM1280 574q0 159-112.5 271.5t-271.5 112.5-271.5-112.5-112.5-271.5 112.5-271.5 271.5-112.5 271.5 112.5 112.5 271.5zM256 1216h384v128h-384v-128zM128 1024h1536v118 138h-828l-64-128h-644v-128zM1792 1280v-1280q0-53-37.5-90.5t-90.5-37.5h-1536q-53 0-90.5 37.5t-37.5 90.5v1280q0 53 37.5 90.5t90.5 37.5h1536q53 0 90.5-37.5t37.5-90.5z" glyph-name="camera_retro" horiz-adv-x="1792" unicode="&#xf083;"/><glyph d="M832 1024q0 80-56 136t-136 56-136-56-56-136q0-42 19-83-41 19-83 19-80 0-136-56t-56-136 56-136 136-56 136 56 56 136q0 42-19 83 41-19 83-19 80 0 136 56t56 136zM1683 320q0-17-49-66t-66-49q-9 0-28.5 16t-36.5 33-38.5 40-24.5 26l-96-96 220-220q28-28 28-68 0-42-39-81t-81-39q-40 0-68 28l-671 671q-176-131-365-131-163 0-265.5 102.5t-102.5 265.5q0 160 95 313t248 248 313 95q163 0 265.5-102.5t102.5-265.5q0-189-131-365l355-355 96 96q-3 3-26 24.5t-40 38.5-33 36.5-16 28.5q0 17 49 66t66 49q13 0 23-10 6-6 46-44.5t82-79.5 86.5-86 73-78 28.5-41z" glyph-name="key" horiz-adv-x="1792" unicode="&#xf084;"/><glyph d="M896 640q0 106-75 181t-181 75-181-75-75-181 75-181 181-75 181 75 75 181zM1664 128q0 52-38 90t-90 38-90-38-38-90q0-53 37.5-90.5t90.5-37.5 90.5 37.5 37.5 90.5zM1664 1152q0 52-38 90t-90 38-90-38-38-90q0-53 37.5-90.5t90.5-37.5 90.5 37.5 37.5 90.5zM1280 731v-185q0-10-7-19.5t-16-10.5l-155-24q-11-35-32-76 34-48 90-115 7-11 7-20 0-12-7-19-23-30-82.5-89.5t-78.5-59.5q-11 0-21 7l-115 90q-37-19-77-31-11-108-23-155-7-24-30-24h-186q-11 0-20 7.5t-10 17.5l-23 153q-34 10-75 31l-118-89q-7-7-20-7-11 0-21 8-144 133-144 160 0 9 7 19 10 14 41 53t47 61q-23 44-35 82l-152 24q-10 1-17 9.5t-7 19.5v185q0 10 7 19.5t16 10.5l155 24q11 35 32 76-34 48-90 115-7 11-7 20 0 12 7 20 22 30 82 89t79 59q11 0 21-7l115-90q34 18 77 32 11 108 23 154 7 24 30 24h186q11 0 20-7.5t10-17.5l23-153q34-10 75-31l118 89q8 7 20 7 11 0 21-8 144-133 144-160 0-8-7-19-12-16-42-54t-45-60q23-48 34-82l152-23q10-2 17-10.5t7-19.5zM1920 198v-140q0-16-149-31-12-27-30-52 51-113 51-138 0-4-4-7-122-71-124-71-8 0-46 47t-52 68q-20-2-30-2t-30 2q-14-21-52-68t-46-47q-2 0-124 71-4 3-4 7 0 25 51 138-18 25-30 52-149 15-149 31v140q0 16 149 31 13 29 30 52-51 113-51 138 0 4 4 7 4 2 35 20t59 34 30 16q8 0 46-46.5t52-67.5q20 2 30 2t30-2q51 71 92 112l6 2q4 0 124-70 4-3 4-7 0-25-51-138 17-23 30-52 149-15 149-31zM1920 1222v-140q0-16-149-31-12-27-30-52 51-113 51-138 0-4-4-7-122-71-124-71-8 0-46 47t-52 68q-20-2-30-2t-30 2q-14-21-52-68t-46-47q-2 0-124 71-4 3-4 7 0 25 51 138-18 25-30 52-149 15-149 31v140q0 16 149 31 13 29 30 52-51 113-51 138 0 4 4 7 4 2 35 20t59 34 30 16q8 0 46-46.5t52-67.5q20 2 30 2t30-2q51 71 92 112l6 2q4 0 124-70 4-3 4-7 0-25-51-138 17-23 30-52 149-15 149-31z" glyph-name="cogs" horiz-adv-x="1920" unicode="&#xf085;"/><glyph d="M1408 768q0-139-94-257t-256.5-186.5-353.5-68.5q-86 0-176 16-124-88-278-128-36-9-86-16h-3q-11 0-20.5 8t-11.5 21q-1 3-1 6.5t.5 6.5 2 6l2.5 5t3.5 5.5 4 5 4.5 5 4 4.5q5 6 23 25t26 29.5 22.5 29 25 38.5 20.5 44q-124 72-195 177t-71 224q0 139 94 257t256.5 186.5 353.5 68.5 353.5-68.5 256.5-186.5 94-257zM1792 512q0-120-71-224.5t-195-176.5q10-24 20.5-44t25-38.5 22.5-29 26-29.5 23-25q1-1 4-4.5t4.5-5 4-5 3.5-5.5l2.5-5t2-6 .5-6.5-1-6.5q-3-14-13-22t-22-7q-50 7-86 16-154 40-278 128-90-16-176-16-271 0-472 132 58-4 88-4 161 0 309 45t264 129q125 92 192 212t67 254q0 77-23 152 129-71 204-178t75-230z" glyph-name="comments" horiz-adv-x="1792" unicode="&#xf086;"/><glyph d="M256 192q0 26-19 45t-45 19-45-19-19-45 19-45 45-19 45 19 19 45zM1408 768q0 51-39 89.5t-89 38.5h-352q0 58 48 159.5t48 160.5q0 98-32 145t-128 47q-26-26-38-85t-30.5-125.5-59.5-109.5q-22-23-77-91-4-5-23-30t-31.5-41-34.5-42.5-40-44-38.5-35.5-40-27-35.5-9h-32v-640h32q13 0 31.5-3t33-6.5 38-11 35-11.5 35.5-12.5 29-10.5q211-73 342-73h121q192 0 192 167 0 26-5 56 30 16 47.5 52.5t17.5 73.5-18 69q53 50 53 119 0 25-10 55.5t-25 47.5q32 1 53.5 47t21.5 81zM1536 769q0-89-49-163 9-33 9-69 0-77-38-144 3-21 3-43 0-101-60-178 1-139-85-219.5t-227-80.5h-36-93q-96 0-189.5 22.5t-216.5 65.5q-116 40-138 40h-288q-53 0-90.5 37.5t-37.5 90.5v640q0 53 37.5 90.5t90.5 37.5h274q36 24 137 155 58 75 107 128 24 25 35.5 85.5t30.5 126.5 62 108q39 37 90 37 84 0 151-32.5t102-101.5 35-186q0-93-48-192h176q104 0 180-76t76-179z" glyph-name="thumbs_up_alt" unicode="&#xf087;"/><glyph d="M256 1088q0 26-19 45t-45 19-45-19-19-45 19-45 45-19 45 19 19 45zM1408 512q0 35-21.5 81t-53.5 47q15 17 25 47.5t10 55.5q0 69-53 119 18 31 18 69 0 37-17.5 73.5t-47.5 52.5q5 30 5 56 0 85-49 126t-136 41h-128q-131 0-342-73-5-2-29-10.5t-35.5-12.5-35-11.5-38-11-33-6.5-31.5-3h-32v-640h32q16 0 35.5-9t40-27 38.5-35.5 40-44 34.5-42.5 31.5-41 23-30q55-68 77-91 41-43 59.5-109.5t30.5-125.5 38-85q96 0 128 47t32 145q0 59-48 160.5t-48 159.5h352q50 0 89 38.5t39 89.5zM1536 511q0-103-76-179t-180-76h-176q48-99 48-192 0-118-35-186-35-69-102-101.5t-151-32.5q-51 0-90 37-34 33-54 82t-25.5 90.5-17.5 84.5-31 64q-48 50-107 127-101 131-137 155h-274q-53 0-90.5 37.5t-37.5 90.5v640q0 53 37.5 90.5t90.5 37.5h288q22 0 138 40 128 44 223 66t200 22h112q140 0 226.5-79t85.5-216v-5q60-77 60-178 0-22-3-43 38-67 38-144 0-36-9-69 49-73 49-163z" glyph-name="thumbs_down_alt" unicode="&#xf088;"/><glyph d="M832 1504v-1339l-449-236q-22-12-40-12-21 0-31.5 14.5t-10.5 35.5q0 6 2 20l86 500-364 354q-25 27-25 48 0 37 56 46l502 73 225 455q19 41 49 41z" glyph-name="star_half" horiz-adv-x="896" unicode="&#xf089;"/><glyph d="M1664 940q0 81-21.5 143t-55 98.5-81.5 59.5-94 31-98 8-112-25.5-110.5-64-86.5-72-60-61.5q-18-22-49-22t-49 22q-24 28-60 61.5t-86.5 72-110.5 64-112 25.5-98-8-94-31-81.5-59.5-55-98.5-21.5-143q0-168 187-355l581-560 580 559q188 188 188 356zM1792 940q0-221-229-450l-623-600q-18-18-44-18t-44 18l-624 602q-10 8-27.5 26t-55.5 65.5-68 97.5-53.5 121-23.5 138q0 220 127 344t351 124q62 0 126.5-21.5t120-58 95.5-68.5 76-68q36 36 76 68t95.5 68.5 120 58 126.5 21.5q224 0 351-124t127-344z" glyph-name="heart_empty" horiz-adv-x="1792" unicode="&#xf08a;"/><glyph d="M640 96q0-4 1-20t.5-26.5-3-23.5-10-19.5-20.5-6.5h-320q-119 0-203.5 84.5t-84.5 203.5v704q0 119 84.5 203.5t203.5 84.5h320q13 0 22.5-9.5t9.5-22.5q0-4 1-20t.5-26.5-3-23.5-10-19.5-20.5-6.5h-320q-66 0-113-47t-47-113v-704q0-66 47-113t113-47h288 11 13t11.5-1 11.5-3 8-5.5 7-9 2-13.5zM1568 640q0-26-19-45l-544-544q-19-19-45-19t-45 19-19 45v288h-448q-26 0-45 19t-19 45v384q0 26 19 45t45 19h448v288q0 26 19 45t45 19 45-19l544-544q19-19 19-45z" glyph-name="signout" horiz-adv-x="1664" unicode="&#xf08b;"/><glyph d="M237 122h231v694h-231v-694zM483 1030q-1 52-36 86t-93 34-94.5-34-36.5-86q0-51 35.5-85.5t92.5-34.5h1q59 0 95 34.5t36 85.5zM1068 122h231v398q0 154-73 233t-193 79q-136 0-209-117h2v101h-231q3-66 0-694h231v388q0 38 7 56 15 35 45 59.5t74 24.5q116 0 116-157v-371zM1536 1120v-960q0-119-84.5-203.5t-203.5-84.5h-960q-119 0-203.5 84.5t-84.5 203.5v960q0 119 84.5 203.5t203.5 84.5h960q119 0 203.5-84.5t84.5-203.5z" glyph-name="linkedin_sign" unicode="&#xf08c;"/><glyph d="M480 672v448q0 14-9 23t-23 9-23-9-9-23v-448q0-14 9-23t23-9 23 9 9 23zM1152 320q0-26-19-45t-45-19h-429l-51-483q-2-12-10.5-20.5t-20.5-8.5h-1q-27 0-32 27l-76 485h-404q-26 0-45 19t-19 45q0 123 78.5 221.5t177.5 98.5v512q-52 0-90 38t-38 90 38 90 90 38h640q52 0 90-38t38-90-38-90-90-38v-512q99 0 177.5-98.5t78.5-221.5z" glyph-name="pushpin" horiz-adv-x="1152" unicode="&#xf08d;"/><glyph d="M1408 608v-320q0-119-84.5-203.5t-203.5-84.5h-832q-119 0-203.5 84.5t-84.5 203.5v832q0 119 84.5 203.5t203.5 84.5h704q14 0 23-9t9-23v-64q0-14-9-23t-23-9h-704q-66 0-113-47t-47-113v-832q0-66 47-113t113-47h832q66 0 113 47t47 113v320q0 14 9 23t23 9h64q14 0 23-9t9-23zM1792 1472v-512q0-26-19-45t-45-19-45 19l-176 176-652-652q-10-10-23-10t-23 10l-114 114q-10 10-10 23t10 23l652 652-176 176q-19 19-19 45t19 45 45 19h512q26 0 45-19t19-45z" glyph-name="external_link" horiz-adv-x="1792" unicode="&#xf08e;"/><glyph d="M1184 640q0-26-19-45l-544-544q-19-19-45-19t-45 19-19 45v288h-448q-26 0-45 19t-19 45v384q0 26 19 45t45 19h448v288q0 26 19 45t45 19 45-19l544-544q19-19 19-45zM1536 992v-704q0-119-84.5-203.5t-203.5-84.5h-320q-13 0-22.5 9.5t-9.5 22.5q0 4-1 20t-.5 26.5 3 23.5 10 19.5 20.5 6.5h320q66 0 113 47t47 113v704q0 66-47 113t-113 47h-288-11-13t-11.5 1-11.5 3-8 5.5-7 9-2 13.5q0 4-1 20t-.5 26.5 3 23.5 10 19.5 20.5 6.5h320q119 0 203.5-84.5t84.5-203.5z" glyph-name="signin" unicode="&#xf090;"/><glyph d="M458 653q-74 162-74 371h-256v-96q0-78 94.5-162t235.5-113zM1536 928v96h-256q0-209-74-371 141 29 235.5 113t94.5 162zM1664 1056v-128q0-71-41.5-143t-112-130-173-97.5-215.5-44.5q-42-54-95-95-38-34-52.5-72.5t-14.5-89.5q0-54 30.5-91t97.5-37q75 0 133.5-45.5t58.5-114.5v-64q0-14-9-23t-23-9h-832q-14 0-23 9t-9 23v64q0 69 58.5 114.5t133.5 45.5q67 0 97.5 37t30.5 91q0 51-14.5 89.5t-52.5 72.5q-53 41-95 95-113 5-215.5 44.5t-173 97.5-112 130-41.5 143v128q0 40 28 68t68 28h288v96q0 66 47 113t113 47h576q66 0 113-47t47-113v-96h288q40 0 68-28t28-68z" glyph-name="trophy" horiz-adv-x="1664" unicode="&#xf091;"/><glyph d="M519 336q4 6-3 13-9 7-14 2-4-6 3-13 9-7 14-2zM491 377q-5 7-12 4-6-4 0-12 7-8 12-5 6 4 0 13zM450 417q2 4-5 8-7 2-8-2-3-5 4-8 8-2 9 2zM471 394q2 1 1.5 4.5t-3.5 5.5q-6 7-10 3t1-11q6-6 11-2zM557 319q2 7-9 11-9 3-13-4-2-7 9-11 9-3 13 4zM599 316q0 8-12 8-10 0-10-8t11-8 11 8zM638 323q-2 7-13 5t-9-9q2-8 12-6t10 10zM1280 640q0 212-150 362t-362 150-362-150-150-362q0-167 98-300.5t252-185.5q18-3 26.5 5t8.5 20q0 52-1 95-6-1-15.5-2.5t-35.5-2-48 4-43.5 20-29.5 41.5q-23 59-57 74-2 1-4.5 3.5l-8 8t-7 9.5 4 7.5 19.5 3.5q6 0 15-2t30-15.5 33-35.5q16-28 37.5-42t43.5-14 38 3.5 30 9.5q7 47 33 69-49 6-86 18.5t-73 39-55.5 76-19.5 119.5q0 79 53 137-24 62 5 136 19 6 54.5-7.5t60.5-29.5l26-16q58 17 128 17t128-17q11 7 28.5 18t55.5 26 57 9q29-74 5-136 53-58 53-137 0-57-14-100.5t-35.5-70-53.5-44.5-62.5-26-68.5-12q35-31 35-95 0-40-.5-89t-.5-51q0-12 8.5-20t26.5-5q154 52 252 185.5t98 300.5zM1536 1120v-960q0-119-84.5-203.5t-203.5-84.5h-960q-119 0-203.5 84.5t-84.5 203.5v960q0 119 84.5 203.5t203.5 84.5h960q119 0 203.5-84.5t84.5-203.5z" glyph-name="github_sign" unicode="&#xf092;"/><glyph d="M1280 64q0 26-19 45t-45 19-45-19-19-45 19-45 45-19 45 19 19 45zM1536 64q0 26-19 45t-45 19-45-19-19-45 19-45 45-19 45 19 19 45zM1664 288v-320q0-40-28-68t-68-28h-1472q-40 0-68 28t-28 68v320q0 40 28 68t68 28h427q21-56 70.5-92t110.5-36h256q61 0 110.5 36t70.5 92h427q40 0 68-28t28-68zM1339 936q-17-40-59-40h-256v-448q0-26-19-45t-45-19h-256q-26 0-45 19t-19 45v448h-256q-42 0-59 40-17 39 14 69l448 448q18 19 45 19t45-19l448-448q31-30 14-69z" glyph-name="upload_alt" horiz-adv-x="1664" unicode="&#xf093;"/><glyph d="M1407 710q0 44-7 113.5t-18 96.5q-12 30-17 44t-9 36.5-4 48.5q0 23 5 68.5t5 67.5q0 37-10 55-4 1-13 1-19 0-58-4.5t-59-4.5q-60 0-176 24t-175 24q-43 0-94.5-11.5t-85-23.5-89.5-34q-137-54-202-103-96-73-159.5-189.5t-88-236-24.5-248.5q0-40 12.5-120t12.5-121q0-23-11-66.5t-11-65.5 12-36.5 34-14.5q24 0 72.5 11t73.5 11q57 0 169.5-15.5t169.5-15.5q181 0 284 36 129 45 235.5 152.5t166 245.5 59.5 275zM1535 712q0-165-70-327.5t-196-288-281-180.5q-124-44-326-44-57 0-170 14.5t-169 14.5q-24 0-72.5-14.5t-73.5-14.5q-73 0-123.5 55.5t-50.5 128.5q0 24 11 68t11 67q0 40-12.5 120.5t-12.5 121.5q0 111 18 217.5t54.5 209.5 100.5 194 150 156q78 59 232 120 194 78 316 78 60 0 175.5-24t173.5-24q19 0 57 5t58 5q81 0 118-50.5t37-134.5q0-23-5-68t-5-68q0-13 2-25t3.5-16.5 7.5-20.5 8-20q16-40 25-118.5t9-136.5z" glyph-name="lemon" unicode="&#xf094;"/><glyph d="M1408 296q0-27-10-70.5t-21-68.5q-21-50-122-106-94-51-186-51-27 0-53 3.5t-57.5 12.5-47 14.5-55.5 20.5-49 18q-98 35-175 83-127 79-264 216t-216 264q-48 77-83 175-3 9-18 49t-20.5 55.5-14.5 47-12.5 57.5-3.5 53q0 92 51 186 56 101 106 122 25 11 68.5 21t70.5 10q14 0 21-3 18-6 53-76 11-19 30-54t35-63.5 31-53.5q3-4 17.5-25t21.5-35.5 7-28.5q0-20-28.5-50t-62-55-62-53-28.5-46q0-9 5-22.5t8.5-20.5 14-24 11.5-19q76-137 174-235t235-174q2-1 19-11.5t24-14 20.5-8.5 22.5-5q18 0 46 28.5t53 62 55 62 50 28.5q14 0 28.5-7t35.5-21.5 25-17.5q25-15 53.5-31t63.5-35 54-30q70-35 76-53 3-7 3-21z" glyph-name="phone" horiz-adv-x="1408" unicode="&#xf095;"/><glyph d="M1120 1280h-832q-66 0-113-47t-47-113v-832q0-66 47-113t113-47h832q66 0 113 47t47 113v832q0 66-47 113t-113 47zM1408 1120v-832q0-119-84.5-203.5t-203.5-84.5h-832q-119 0-203.5 84.5t-84.5 203.5v832q0 119 84.5 203.5t203.5 84.5h832q119 0 203.5-84.5t84.5-203.5z" glyph-name="check_empty" horiz-adv-x="1408" unicode="&#xf096;"/><glyph d="M1152 1280h-1024v-1242l423 406 89 85 89-85 423-406v1242zM1164 1408q23 0 44-9 33-13 52.5-41t19.5-62v-1289q0-34-19.5-62t-52.5-41q-19-8-44-8-48 0-83 32l-441 424-441-424q-36-33-83-33-23 0-44 9-33 13-52.5 41t-19.5 62v1289q0 34 19.5 62t52.5 41q21 9 44 9h1048z" glyph-name="bookmark_empty" horiz-adv-x="1280" unicode="&#xf097;"/><glyph d="M1280 343q0 11-2 16t-18 16.5-40.5 25-47.5 26.5-45.5 25-28.5 15q-5 3-19 13t-25 15-21 5q-15 0-36.5-20.5t-39.5-45-38.5-45-33.5-20.5q-7 0-16.5 3.5t-15.5 6.5-17 9.5-14 8.5q-99 55-170 126.5t-127 170.5q-2 3-8.5 14t-9.5 17-6.5 15.5-3.5 16.5q0 13 20.5 33.5t45 38.5 45 39.5 20.5 36.5q0 10-5 21t-15 25-13 19q-3 6-15 28.5t-25 45.5-26.5 47.5-25 40.5-16.5 18-16 2q-48 0-101-22-46-21-80-94.5t-34-130.5q0-16 2.5-34t5-30.5 9-33 10-29.5 12.5-33 11-30q60-164 216.5-320.5t320.5-216.5q6-2 30-11t33-12.5 29.5-10 33-9 30.5-5 34-2.5q57 0 130.5 34t94.5 80q22 53 22 101zM1536 1120v-960q0-119-84.5-203.5t-203.5-84.5h-960q-119 0-203.5 84.5t-84.5 203.5v960q0 119 84.5 203.5t203.5 84.5h960q119 0 203.5-84.5t84.5-203.5z" glyph-name="phone_sign" unicode="&#xf098;"/><glyph d="M1620 1128q-67-98-162-167 1-14 1-42 0-130-38-259.5t-115.5-248.5-184.5-210.5-258-146-323-54.5q-271 0-496 145 35-4 78-4 225 0 401 138-105 2-188 64.5t-114 159.5q33-5 61-5 43 0 85 11-112 23-185.5 111.5t-73.5 205.5v4q68-38 146-41-66 44-105 115t-39 154q0 88 44 163 121-149 294.5-238.5t371.5-99.5q-8 38-8 74 0 134 94.5 228.5t228.5 94.5q140 0 236-102 109 21 205 78-37-115-142-178 93 10 186 50z" glyph-name="twitter" horiz-adv-x="1664" unicode="&#xf099;"/><glyph d="M959 1524v-264h-157q-86 0-116-36t-30-108v-189h293l-39-296h-254v-759h-306v759h-255v296h255v218q0 186 104 288.5t277 102.5q147 0 228-12z" glyph-name="facebook" horiz-adv-x="1024" unicode="&#xf09a;"/><glyph d="M768 1408q209 0 385.5-103t279.5-279.5 103-385.5q0-251-146.5-451.5t-378.5-277.5q-27-5-40 7t-13 30q0 3 .5 76.5t.5 134.5q0 97-52 142 57 6 102.5 18t94 39 81 66.5 53 105 20.5 150.5q0 119-79 206 37 91-8 204-28 9-81-11t-92-44l-38-24q-93 26-192 26t-192-26q-16 11-42.5 27t-83.5 38.5-85 13.5q-45-113-8-204-79-87-79-206 0-85 20.5-150t52.5-105 80.5-67 94-39 102.5-18q-39-36-49-103-21-10-45-15t-57-5-65.5 21.5-55.5 62.5q-19 32-48.5 52t-49.5 24l-20 3q-21 0-29-4.5t-5-11.5 9-14 13-12l7-5q22-10 43.5-38t31.5-51l10-23q13-38 44-61.5t67-30 69.5-7 55.5 3.5l23 4q0-38 .5-88.5t.5-54.5q0-18-13-30t-40-7q-232 77-378.5 277.5t-146.5 451.5q0 209 103 385.5t279.5 279.5 385.5 103zM291 305q3 7-7 12-10 3-13-2-3-7 7-12 9-6 13 2zM322 271q7 5-2 16-10 9-16 3-7-5 2-16 10-10 16-3zM352 226q9 7 0 19-8 13-17 6-9-5 0-18t17-7zM394 184q8 8-4 19-12 12-20 3-9-8 4-19 12-12 20-3zM451 159q3 11-13 16-15 4-19-7t13-15q15-6 19 6zM514 154q0 13-17 11-16 0-16-11 0-13 17-11 16 0 16 11zM572 164q-2 11-18 9-16-3-14-15t18-8 14 14z" glyph-name="github" unicode="&#xf09b;"/><glyph d="M1664 960v-256q0-26-19-45t-45-19h-64q-26 0-45 19t-19 45v256q0 106-75 181t-181 75-181-75-75-181v-192h96q40 0 68-28t28-68v-576q0-40-28-68t-68-28h-960q-40 0-68 28t-28 68v576q0 40 28 68t68 28h672v192q0 185 131.5 316.5t316.5 131.5 316.5-131.5 131.5-316.5z" glyph-name="unlock" horiz-adv-x="1664" unicode="&#xf09c;"/><glyph d="M1760 1408q66 0 113-47t47-113v-1216q0-66-47-113t-113-47h-1600q-66 0-113 47t-47 113v1216q0 66 47 113t113 47h1600zM160 1280q-13 0-22.5-9.5t-9.5-22.5v-224h1664v224q0 13-9.5 22.5t-22.5 9.5h-1600zM1760 0q13 0 22.5 9.5t9.5 22.5v608h-1664v-608q0-13 9.5-22.5t22.5-9.5h1600zM256 128v128h256v-128h-256zM640 128v128h384v-128h-384z" glyph-name="credit_card" horiz-adv-x="1920" unicode="&#xf09d;"/><glyph d="M384 192q0-80-56-136t-136-56-136 56-56 136 56 136 136 56 136-56 56-136zM896 69q2-28-17-48-18-21-47-21h-135q-25 0-43 16.5t-20 41.5q-22 229-184.5 391.5t-391.5 184.5q-25 2-41.5 20t-16.5 43v135q0 29 21 47 17 17 43 17h5q160-13 306-80.5t259-181.5q114-113 181.5-259t80.5-306zM1408 67q2-27-18-47-18-20-46-20h-143q-26 0-44.5 17.5t-19.5 42.5q-12 215-101 408.5t-231.5 336-336 231.5-408.5 102q-25 1-42.5 19.5t-17.5 43.5v143q0 28 20 46 18 18 44 18h3q262-13 501.5-120t425.5-294q187-186 294-425.5t120-501.5z" glyph-name="rss" horiz-adv-x="1408" unicode="&#xf09e;"/><glyph d="M1040 320q0-33-23.5-56.5t-56.5-23.5-56.5 23.5-23.5 56.5 23.5 56.5 56.5 23.5 56.5-23.5 23.5-56.5zM1296 320q0-33-23.5-56.5t-56.5-23.5-56.5 23.5-23.5 56.5 23.5 56.5 56.5 23.5 56.5-23.5 23.5-56.5zM1408 160v320q0 13-9.5 22.5t-22.5 9.5h-1216q-13 0-22.5-9.5t-9.5-22.5v-320q0-13 9.5-22.5t22.5-9.5h1216q13 0 22.5 9.5t9.5 22.5zM178 640h1180l-157 482q-4 13-16 21.5t-26 8.5h-782q-14 0-26-8.5t-16-21.5zM1536 480v-320q0-66-47-113t-113-47h-1216q-66 0-113 47t-47 113v320q0 25 16 75l197 606q17 53 63 86t101 33h782q55 0 101-33t63-86l197-606q16-50 16-75z" glyph-name="hdd" unicode="&#xf0a0;"/><glyph d="M1664 896q53 0 90.5-37.5t37.5-90.5-37.5-90.5-90.5-37.5v-384q0-52-38-90t-90-38q-417 347-812 380-58-19-91-66t-31-100.5 40-92.5q-20-33-23-65.5t6-58 33.5-55 48-50 61.5-50.5q-29-58-111.5-83t-168.5-11.5-132 55.5q-7 23-29.5 87.5t-32 94.5-23 89-15 101 3.5 98.5 22 110.5h-122q-66 0-113 47t-47 113v192q0 66 47 113t113 47h480q435 0 896 384 52 0 90-38t38-90v-384zM1536 292v954q-394-302-768-343v-270q377-42 768-341z" glyph-name="bullhorn" horiz-adv-x="1792" unicode="&#xf0a1;"/><glyph d="M912-160q0 16-16 16-59 0-101.5 42.5t-42.5 101.5q0 16-16 16t-16-16q0-73 51.5-124.5t124.5-51.5q16 0 16 16zM246 128h1300q-266 300-266 832 0 51-24 105t-69 103-121.5 80.5-169.5 31.5-169.5-31.5-121.5-80.5-69-103-24-105q0-532-266-832zM1728 128q0-52-38-90t-90-38h-448q0-106-75-181t-181-75-181 75-75 181h-448q-52 0-90 38t-38 90q50 42 91 88t85 119.5 74.5 158.5 50 206 19.5 260q0 152 117 282.5t307 158.5q-8 19-8 39 0 40 28 68t68 28 68-28 28-68q0-20-8-39 190-28 307-158.5t117-282.5q0-139 19.5-260t50-206 74.5-158.5 85-119.5 91-88z" glyph-name="bell" horiz-adv-x="1792" unicode="&#xf0a2;"/><glyph d="M1376 640l138-135q30-28 20-70-12-41-52-51l-188-48 53-186q12-41-19-70-29-31-70-19l-186 53-48-188q-10-40-51-52-12-2-19-2-31 0-51 22l-135 138-135-138q-28-30-70-20-41 11-51 52l-48 188-186-53q-41-12-70 19-31 29-19 70l53 186-188 48q-40 10-52 51-10 42 20 70l138 135-138 135q-30 28-20 70 12 41 52 51l188 48-53 186q-12 41 19 70 29 31 70 19l186-53 48 188q10 41 51 51 41 12 70-19l135-139 135 139q29 30 70 19 41-10 51-51l48-188 186 53q41 12 70-19 31-29 19-70l-53-186 188-48q40-10 52-51 10-42-20-70z" glyph-name="certificate" unicode="&#xf0a3;"/><glyph d="M256 192q0 26-19 45t-45 19-45-19-19-45 19-45 45-19 45 19 19 45zM1664 768q0 51-39 89.5t-89 38.5h-576q0 20 15 48.5t33 55 33 68 15 84.5q0 67-44.5 97.5t-115.5 30.5q-24 0-90-139-24-44-37-65-40-64-112-145-71-81-101-106-69-57-140-57h-32v-640h32q72 0 167-32t193.5-64 179.5-32q189 0 189 167 0 26-5 56 30 16 47.5 52.5t17.5 73.5-18 69q53 50 53 119 0 25-10 55.5t-25 47.5h331q52 0 90 38t38 90zM1792 769q0-105-75.5-181t-180.5-76h-169q-4-62-37-119 3-21 3-43 0-101-60-178 1-139-85-219.5t-227-80.5q-133 0-322 69-164 59-223 59h-288q-53 0-90.5 37.5t-37.5 90.5v640q0 53 37.5 90.5t90.5 37.5h288q10 0 21.5 4.5t23.5 14 22.5 18 24 22.5 20.5 21.5 19 21.5 14 17q65 74 100 129 13 21 33 62t37 72 40.5 63 55 49.5 69.5 17.5q125 0 206.5-67t81.5-189q0-68-22-128h374q104 0 180-76t76-179z" glyph-name="hand_right" horiz-adv-x="1792" unicode="&#xf0a4;"/><glyph d="M1376 128h32v640h-32q-35 0-67.5 12t-62.5 37-50 46-49 54q-8 9-12 14-72 81-112 145-14 22-38 68-1 3-10.5 22.5t-18.5 36-20 35.5-21.5 30.5-18.5 11.5q-71 0-115.5-30.5t-44.5-97.5q0-43 15-84.5t33-68 33-55 15-48.5h-576q-50 0-89-38.5t-39-89.5q0-52 38-90t90-38h331q-15-17-25-47.5t-10-55.5q0-69 53-119-18-32-18-69t17.5-73.5 47.5-52.5q-4-24-4-56 0-85 48.5-126t135.5-41q84 0 183 32t194 64 167 32zM1664 192q0 26-19 45t-45 19-45-19-19-45 19-45 45-19 45 19 19 45zM1792 768v-640q0-53-37.5-90.5t-90.5-37.5h-288q-59 0-223-59-190-69-317-69-142 0-230 77.5t-87 217.5l1 5q-61 76-61 178 0 22 3 43-33 57-37 119h-169q-105 0-180.5 76t-75.5 181q0 103 76 179t180 76h374q-22 60-22 128 0 122 81.5 189t206.5 67q38 0 69.5-17.5t55-49.5 40.5-63 37-72 33-62q35-55 100-129 2-3 14-17t19-21.5 20.5-21.5 24-22.5 22.5-18 23.5-14 21.5-4.5h288q53 0 90.5-37.5t37.5-90.5z" glyph-name="hand_left" horiz-adv-x="1792" unicode="&#xf0a5;"/><glyph d="M1280-64q0 26-19 45t-45 19-45-19-19-45 19-45 45-19 45 19 19 45zM1408 700q0 189-167 189-26 0-56-5-16 30-52.5 47.5t-73.5 17.5-69-18q-50 53-119 53-25 0-55.5-10t-47.5-25v331q0 52-38 90t-90 38q-51 0-89.5-39t-38.5-89v-576q-20 0-48.5 15t-55 33-68 33-84.5 15q-67 0-97.5-44.5t-30.5-115.5q0-24 139-90 44-24 65-37 64-40 145-112 81-71 106-101 57-69 57-140v-32h640v32q0 72 32 167t64 193.5 32 179.5zM1536 705q0-133-69-322-59-164-59-223v-288q0-53-37.5-90.5t-90.5-37.5h-640q-53 0-90.5 37.5t-37.5 90.5v288q0 10-4.5 21.5t-14 23.5-18 22.5-22.5 24-21.5 20.5-21.5 19-17 14q-74 65-129 100-21 13-62 33t-72 37-63 40.5-49.5 55-17.5 69.5q0 125 67 206.5t189 81.5q68 0 128-22v374q0 104 76 180t179 76q105 0 181-75.5t76-180.5v-169q62-4 119-37 21 3 43 3 101 0 178-60 139 1 219.5-85t80.5-227z" glyph-name="hand_up" unicode="&#xf0a6;"/><glyph d="M1408 576q0 84-32 183t-64 194-32 167v32h-640v-32q0-35-12-67.5t-37-62.5-46-50-54-49q-9-8-14-12-81-72-145-112-22-14-68-38-3-1-22.5-10.5t-36-18.5-35.5-20-30.5-21.5-11.5-18.5q0-71 30.5-115.5t97.5-44.5q43 0 84.5 15t68 33 55 33 48.5 15v-576q0-50 38.5-89t89.5-39q52 0 90 38t38 90v331q46-35 103-35 69 0 119 53 32-18 69-18t73.5 17.5 52.5 47.5q24-4 56-4 85 0 126 48.5t41 135.5zM1280 1344q0 26-19 45t-45 19-45-19-19-45 19-45 45-19 45 19 19 45zM1536 580q0-142-77.5-230t-217.5-87l-5 1q-76-61-178-61-22 0-43 3-54-30-119-37v-169q0-105-76-180.5t-181-75.5q-103 0-179 76t-76 180v374q-54-22-128-22-121 0-188.5 81.5t-67.5 206.5q0 38 17.5 69.5t49.5 55 63 40.5 72 37 62 33q55 35 129 100 3 2 17 14t21.5 19 21.5 20.5 22.5 24 18 22.5 14 23.5 4.5 21.5v288q0 53 37.5 90.5t90.5 37.5h640q53 0 90.5-37.5t37.5-90.5v-288q0-59 59-223 69-190 69-317z" glyph-name="hand_down" unicode="&#xf0a7;"/><glyph d="M1280 576v128q0 26-19 45t-45 19h-502l189 189q19 19 19 45t-19 45l-91 91q-18 18-45 18t-45-18l-362-362-91-91q-18-18-18-45t18-45l91-91 362-362q18-18 45-18t45 18l91 91q18 18 18 45t-18 45l-189 189h502q26 0 45 19t19 45zM1536 640q0-209-103-385.5t-279.5-279.5-385.5-103-385.5 103-279.5 279.5-103 385.5 103 385.5 279.5 279.5 385.5 103 385.5-103 279.5-279.5 103-385.5z" glyph-name="circle_arrow_left" unicode="&#xf0a8;"/><glyph d="M1285 640q0 27-18 45l-91 91-362 362q-18 18-45 18t-45-18l-91-91q-18-18-18-45t18-45l189-189h-502q-26 0-45-19t-19-45v-128q0-26 19-45t45-19h502l-189-189q-19-19-19-45t19-45l91-91q18-18 45-18t45 18l362 362 91 91q18 18 18 45zM1536 640q0-209-103-385.5t-279.5-279.5-385.5-103-385.5 103-279.5 279.5-103 385.5 103 385.5 279.5 279.5 385.5 103 385.5-103 279.5-279.5 103-385.5z" glyph-name="circle_arrow_right" unicode="&#xf0a9;"/><glyph d="M1284 641q0 27-18 45l-362 362-91 91q-18 18-45 18t-45-18l-91-91-362-362q-18-18-18-45t18-45l91-91q18-18 45-18t45 18l189 189v-502q0-26 19-45t45-19h128q26 0 45 19t19 45v502l189-189q19-19 45-19t45 19l91 91q18 18 18 45zM1536 640q0-209-103-385.5t-279.5-279.5-385.5-103-385.5 103-279.5 279.5-103 385.5 103 385.5 279.5 279.5 385.5 103 385.5-103 279.5-279.5 103-385.5z" glyph-name="circle_arrow_up" unicode="&#xf0aa;"/><glyph d="M1284 639q0 27-18 45l-91 91q-18 18-45 18t-45-18l-189-189v502q0 26-19 45t-45 19h-128q-26 0-45-19t-19-45v-502l-189 189q-19 19-45 19t-45-19l-91-91q-18-18-18-45t18-45l362-362 91-91q18-18 45-18t45 18l91 91 362 362q18 18 18 45zM1536 640q0-209-103-385.5t-279.5-279.5-385.5-103-385.5 103-279.5 279.5-103 385.5 103 385.5 279.5 279.5 385.5 103 385.5-103 279.5-279.5 103-385.5z" glyph-name="circle_arrow_down" unicode="&#xf0ab;"/><glyph d="M768 1408q209 0 385.5-103t279.5-279.5 103-385.5-103-385.5-279.5-279.5-385.5-103-385.5 103-279.5 279.5-103 385.5 103 385.5 279.5 279.5 385.5 103zM1042 887q-2-1-9.5-9.5t-13.5-9.5q2 0 4.5 5t5 11 3.5 7q6 7 22 15 14 6 52 12 34 8 51-11-2 2 9.5 13t14.5 12q3 2 15 4.5t15 7.5l2 22q-12-1-17.5 7t-6.5 21q0-2-6-8 0 7-4.5 8t-11.5-1-9-1q-10 3-15 7.5t-8 16.5-4 15q-2 5-9.5 11t-9.5 10q-1 2-2.5 5.5t-3 6.5-4 5.5-5.5 2.5-7-5-7.5-10-4.5-5q-3 2-6 1.5t-4.5-1-4.5-3-5-3.5q-3-2-8.5-3t-8.5-2q15 5-1 11-10 4-16 3 9 4 7.5 12t-8.5 14h5q-1 4-8.5 8.5t-17.5 8.5-13 6q-8 5-34 9.5t-33 .5q-5-6-4.5-10.5t4-14 3.5-12.5q1-6-5.5-13t-6.5-12q0-7 14-15.5t10-21.5q-3-8-16-16t-16-12q-5-8-1.5-18.5t10.5-16.5q2-2 1.5-4t-3.5-4.5-5.5-4-6.5-3.5l-3-2q-11-5-20.5 6t-13.5 26q-7 25-16 30-23 8-29-1-5 13-41 26-25 9-58 4 6 1 0 15-7 15-19 12 3 6 4 17.5t1 13.5q3 13 12 23 1 1 7 8.5t9.5 13.5.5 6q35-4 50 11 5 5 11.5 17t10.5 17q9 6 14 5.5t14.5-5.5 14.5-5q14-1 15.5 11t-7.5 20q12-1 3 17-4 7-8 9-12 4-27-5-8-4 2-8-1 1-9.5-10.5t-16.5-17.5-16 5q-1 1-5.5 13.5t-9.5 13.5q-8 0-16-15 3 8-11 15t-24 8q19 12-8 27-7 4-20.5 5t-19.5-4q-5-7-5.5-11.5t5-8 10.5-5.5 11.5-4 8.5-3q14-10 8-14-2-1-8.5-3.5t-11.5-4.5-6-4q-3-4 0-14t-2-14q-5 5-9 17.5t-7 16.5q7-9-25-6l-10 1q-4 0-16-2t-20.5-1-13.5 8q-4 8 0 20 1 4 4 2-4 3-11 9.5t-10 8.5q-46-15-94-41 6-1 12 1 5 2 13 6.5t10 5.5q34 14 42 7l5 5q14-16 20-25-7 4-30 1-20-6-22-12 7-12 5-18-4 3-11.5 10t-14.5 11-15 5q-16 0-22-1-146-80-235-222 7-7 12-8 4-1 5-9t2.5-11 11.5 3q9-8 3-19 1 1 44-27 19-17 21-21 3-11-10-18-1 2-9 9t-9 4q-3-5 .5-18.5t10.5-12.5q-7 0-9.5-16t-2.5-35.5-1-23.5l2-1q-3-12 5.5-34.5t21.5-19.5q-13-3 20-43 6-8 8-9 3-2 12-7.5t15-10 10-10.5q4-5 10-22.5t14-23.5q-2-6 9.5-20t10.5-23q-1 0-2.5-1t-2.5-1q3-7 15.5-14t15.5-13q1-3 2-10t3-11 8-2q2 20-24 62-15 25-17 29-3 5-5.5 15.5t-4.5 14.5q2 0 6-1.5t8.5-3.5 7.5-4 2-3q-3-7 2-17.5t12-18.5 17-19 12-13q6-6 14-19.5t0-13.5q9 0 20-10.5t17-19.5q5-8 8-26t5-24q2-7 8.5-13.5t12.5-9.5l16-8t13-7q5-2 18.5-10.5t21.5-11.5q10-4 16-4t14.5 2.5 13.5 3.5q15 2 29-15t21-21q36-19 55-11-2-1 .5-7.5t8-15.5 9-14.5 5.5-8.5q5-6 18-15t18-15q6 4 7 9-3-8 7-20t18-10q14 3 14 32-31-15-49 18 0 1-2.5 5.5t-4 8.5-2.5 8.5 0 7.5 5 3q9 0 10 3.5t-2 12.5-4 13q-1 8-11 20t-12 15q-5-9-16-8t-16 9q0-1-1.5-5.5t-1.5-6.5q-13 0-15 1 1 3 2.5 17.5t3.5 22.5q1 4 5.5 12t7.5 14.5 4 12.5-4.5 9.5-17.5 2.5q-19-1-26-20-1-3-3-10.5t-5-11.5-9-7q-7-3-24-2t-24 5q-13 8-22.5 29t-9.5 37q0 10 2.5 26.5t3 25-5.5 24.5q3 2 9 9.5t10 10.5q2 1 4.5 1.5t4.5 0 4 1.5 3 6q-1 1-4 3-3 3-4 3 7-3 28.5 1.5t27.5-1.5q15-11 22 2 0 1-2.5 9.5t-.5 13.5q5-27 29-9 3-3 15.5-5t17.5-5q3-2 7-5.5t5.5-4.5 5 .5 8.5 6.5q10-14 12-24 11-40 19-44 7-3 11-2t4.5 9.5 0 14-1.5 12.5l-1 8v18l-1 8q-15 3-18.5 12t1.5 18.5 15 18.5q1 1 8 3.5t15.5 6.5 12.5 8q21 19 15 35 7 0 11 9-1 0-5 3t-7.5 5-4.5 2q9 5 2 16 5 3 7.5 11t7.5 10q9-12 21-2 8 8 1 16 5 7 20.5 10.5t18.5 9.5q7-2 8 2t1 12 3 12q4 5 15 9t13 5l17 11q3 4 0 4 18-2 31 11 10 11-6 20 3 6-3 9.5t-15 5.5q3 1 11.5.5t10.5 1.5q15 10-7 16-17 5-43-12zM879 10q206 36 351 189-3 3-12.5 4.5t-12.5 3.5q-18 7-24 8 1 7-2.5 13t-8 9-12.5 8-11 7q-2 2-7 6t-7 5.5-7.5 4.5-8.5 2-10-1l-3-1q-3-1-5.5-2.5t-5.5-3-4-3 0-2.5q-21 17-36 22-5 1-11 5.5t-10.5 7-10 1.5-11.5-7q-5-5-6-15t-2-13q-7 5 0 17.5t2 18.5q-3 6-10.5 4.5t-12-4.5-11.5-8.5-9-6.5-8.5-5.5-8.5-7.5q-3-4-6-12t-5-11q-2 4-11.5 6.5t-9.5 5.5q2-10 4-35t5-38q7-31-12-48-27-25-29-40-4-22 12-26 0-7-8-20.5t-7-21.5q0-6 2-16z" glyph-name="globe" unicode="&#xf0ac;"/><glyph d="M384 64q0 26-19 45t-45 19-45-19-19-45 19-45 45-19 45 19 19 45zM1028 484l-682-682q-37-37-90-37-52 0-91 37l-106 108q-38 36-38 90 0 53 38 91l681 681q39-98 114.5-173.5t173.5-114.5zM1662 919q0-39-23-106-47-134-164.5-217.5t-258.5-83.5q-185 0-316.5 131.5t-131.5 316.5 131.5 316.5 316.5 131.5q58 0 121.5-16.5t107.5-46.5q16-11 16-28t-16-28l-293-169v-224l193-107q5 3 79 48.5t135.5 81 70.5 35.5q15 0 23.5-10t8.5-25z" glyph-name="wrench" horiz-adv-x="1664" unicode="&#xf0ad;"/><glyph d="M1024 128h640v128h-640v-128zM640 640h1024v128h-1024v-128zM1280 1152h384v128h-384v-128zM1792 320v-256q0-26-19-45t-45-19h-1664q-26 0-45 19t-19 45v256q0 26 19 45t45 19h1664q26 0 45-19t19-45zM1792 832v-256q0-26-19-45t-45-19h-1664q-26 0-45 19t-19 45v256q0 26 19 45t45 19h1664q26 0 45-19t19-45zM1792 1344v-256q0-26-19-45t-45-19h-1664q-26 0-45 19t-19 45v256q0 26 19 45t45 19h1664q26 0 45-19t19-45z" glyph-name="tasks" horiz-adv-x="1792" unicode="&#xf0ae;"/><glyph d="M1403 1241q17-41-14-70l-493-493v-742q0-42-39-59-13-5-25-5-27 0-45 19l-256 256q-19 19-19 45v486l-493 493q-31 29-14 70 17 39 59 39h1280q42 0 59-39z" glyph-name="filter" horiz-adv-x="1408" unicode="&#xf0b0;"/><glyph d="M640 1280h512v128h-512v-128zM1792 640v-480q0-66-47-113t-113-47h-1472q-66 0-113 47t-47 113v480h672v-160q0-26 19-45t45-19h320q26 0 45 19t19 45v160h672zM1024 640v-128h-256v128h256zM1792 1120v-384h-1792v384q0 66 47 113t113 47h352v160q0 40 28 68t68 28h576q40 0 68-28t28-68v-160h352q66 0 113-47t47-113z" glyph-name="briefcase" horiz-adv-x="1792" unicode="&#xf0b1;"/><glyph d="M1283 995l-355-355 355-355 144 144q29 31 70 14 39-17 39-59v-448q0-26-19-45t-45-19h-448q-42 0-59 40-17 39 14 69l144 144-355 355-355-355 144-144q31-30 14-69-17-40-59-40h-448q-26 0-45 19t-19 45v448q0 42 40 59 39 17 69-14l144-144 355 355-355 355-144-144q-19-19-45-19-12 0-24 5-40 17-40 59v448q0 26 19 45t45 19h448q42 0 59-40 17-39-14-69l-144-144 355-355 355 355-144 144q-31 30-14 69 17 40 59 40h448q26 0 45-19t19-45v-448q0-42-39-59-13-5-25-5-26 0-45 19z" glyph-name="fullscreen" unicode="&#xf0b2;"/><glyph d="M593 640q-162-5-265-128h-134q-82 0-138 40.5t-56 118.5q0 353 124 353 6 0 43.5-21t97.5-42.5 119-21.5q67 0 133 23-5-37-5-66 0-139 81-256zM1664 3q0-120-73-189.5t-194-69.5h-874q-121 0-194 69.5t-73 189.5q0 53 3.5 103.5t14 109 26.5 108.5 43 97.5 62 81 85.5 53.5 111.5 20q10 0 43-21.5t73-48 107-48 135-21.5 135 21.5 107 48 73 48 43 21.5q61 0 111.5-20t85.5-53.5 62-81 43-97.5 26.5-108.5 14-109 3.5-103.5zM640 1280q0-106-75-181t-181-75-181 75-75 181 75 181 181 75 181-75 75-181zM1344 896q0-159-112.5-271.5t-271.5-112.5-271.5 112.5-112.5 271.5 112.5 271.5 271.5 112.5 271.5-112.5 112.5-271.5zM1920 671q0-78-56-118.5t-138-40.5h-134q-103 123-265 128 81 117 81 256 0 29-5 66 66-23 133-23 59 0 119 21.5t97.5 42.5 43.5 21q124 0 124-353zM1792 1280q0-106-75-181t-181-75-181 75-75 181 75 181 181 75 181-75 75-181z" glyph-name="group" horiz-adv-x="1920" unicode="&#xf0c0;"/><glyph d="M1456 320q0 40-28 68l-208 208q-28 28-68 28-42 0-72-32 3-3 19-18.5t21.5-21.5 15-19 13-25.5 3.5-27.5q0-40-28-68t-68-28q-15 0-27.5 3.5t-25.5 13-19 15-21.5 21.5-18.5 19q-33-31-33-73 0-40 28-68l206-207q27-27 68-27 40 0 68 26l147 146q28 28 28 67zM753 1025q0 40-28 68l-206 207q-28 28-68 28-39 0-68-27l-147-146q-28-28-28-67 0-40 28-68l208-208q27-27 68-27 42 0 72 31-3 3-19 18.5t-21.5 21.5-15 19-13 25.5-3.5 27.5q0 40 28 68t68 28q15 0 27.5-3.5t25.5-13 19-15 21.5-21.5 18.5-19q33 31 33 73zM1648 320q0-120-85-203l-147-146q-83-83-203-83-121 0-204 85l-206 207q-83 83-83 203 0 123 88 209l-88 88q-86-88-208-88-120 0-204 84l-208 208q-84 84-84 204t85 203l147 146q83 83 203 83 121 0 204-85l206-207q83-83 83-203 0-123-88-209l88-88q86 88 208 88 120 0 204-84l208-208q84-84 84-204z" glyph-name="link" horiz-adv-x="1664" unicode="&#xf0c1;"/><glyph d="M1920 384q0-159-112.5-271.5t-271.5-112.5h-1088q-185 0-316.5 131.5t-131.5 316.5q0 132 71 241.5t187 163.5q-2 28-2 43 0 212 150 362t362 150q158 0 286.5-88t187.5-230q70 62 166 62 106 0 181-75t75-181q0-75-41-138 129-30 213-134.5t84-239.5z" glyph-name="cloud" horiz-adv-x="1920" unicode="&#xf0c2;"/><glyph d="M1527 88q56-89 21.5-152.5t-140.5-63.5h-1152q-106 0-140.5 63.5t21.5 152.5l503 793v399h-64q-26 0-45 19t-19 45 19 45 45 19h512q26 0 45-19t19-45-19-45-45-19h-64v-399zM748 813l-272-429h712l-272 429-20 31v37 399h-128v-399-37z" glyph-name="beaker" horiz-adv-x="1664" unicode="&#xf0c3;"/><glyph d="M960 640q26 0 45-19t19-45-19-45-45-19-45 19-19 45 19 45 45 19zM1260 576l507-398q28-20 25-56-5-35-35-51l-128-64q-13-7-29-7-17 0-31 8l-690 387-110-66q-8-4-12-5 14-49 10-97-7-77-56-147.5t-132-123.5q-132-84-277-84-136 0-222 78-90 84-79 207 7 76 56 147t131 124q132 84 278 84 83 0 151-31 9 13 22 22l122 73-122 73q-13 9-22 22-68-31-151-31-146 0-278 84-82 53-131 124t-56 147q-5 59 15.5 113t63.5 93q85 79 222 79 145 0 277-84 83-52 132-123t56-148q4-48-10-97 4-1 12-5l110-66 690 387q14 8 31 8 16 0 29-7l128-64q30-16 35-51 3-36-25-56zM579 836q46 42 21 108t-106 117q-92 59-192 59-74 0-113-36-46-42-21-108t106-117q92-59 192-59 74 0 113 36zM494 91q81 51 106 117t-21 108q-39 36-113 36-100 0-192-59-81-51-106-117t21-108q39-36 113-36 100 0 192 59zM672 704l96-58v11q0 36 33 56l14 8-79 47-26-26q-3-3-10-11t-12-12q-2-2-4-3.5t-3-2.5zM896 480l96-32 736 576-128 64-768-431v-113l-160-96 9-8q2-2 7-6 4-4 11-12t11-12l26-26zM1600 64l128 64-520 408-177-138q-2-3-13-7z" glyph-name="cut" horiz-adv-x="1792" unicode="&#xf0c4;"/><glyph d="M1696 1152q40 0 68-28t28-68v-1216q0-40-28-68t-68-28h-960q-40 0-68 28t-28 68v288h-544q-40 0-68 28t-28 68v672q0 40 20 88t48 76l408 408q28 28 76 48t88 20h416q40 0 68-28t28-68v-328q68 40 128 40h416zM1152 939l-299-299h299v299zM512 1323l-299-299h299v299zM708 676l316 316v416h-384v-416q0-40-28-68t-68-28h-416v-640h512v256q0 40 20 88t48 76zM1664-128v1152h-384v-416q0-40-28-68t-68-28h-416v-640h896z" glyph-name="copy" horiz-adv-x="1792" unicode="&#xf0c5;"/><glyph d="M1404 151q0-117-79-196t-196-79q-135 0-235 100l-777 776q-113 115-113 271 0 159 110 270t269 111q158 0 273-113l605-606q10-10 10-22 0-16-30.5-46.5t-46.5-30.5q-13 0-23 10l-606 607q-79 77-181 77-106 0-179-75t-73-181q0-105 76-181l776-777q63-63 145-63 64 0 106 42t42 106q0 82-63 145l-581 581q-26 24-60 24-29 0-48-19t-19-48q0-32 25-59l410-410q10-10 10-22 0-16-31-47t-47-31q-12 0-22 10l-410 410q-63 61-63 149 0 82 57 139t139 57q88 0 149-63l581-581q100-98 100-235z" glyph-name="paper_clip" horiz-adv-x="1408" unicode="&#xf0c6;"/><glyph d="M384 0h768v384h-768v-384zM1280 0h128v896q0 14-10 38.5t-20 34.5l-281 281q-10 10-34 20t-39 10v-416q0-40-28-68t-68-28h-576q-40 0-68 28t-28 68v416h-128v-1280h128v416q0 40 28 68t68 28h832q40 0 68-28t28-68v-416zM896 928v320q0 13-9.5 22.5t-22.5 9.5h-192q-13 0-22.5-9.5t-9.5-22.5v-320q0-13 9.5-22.5t22.5-9.5h192q13 0 22.5 9.5t9.5 22.5zM1536 896v-928q0-40-28-68t-68-28h-1344q-40 0-68 28t-28 68v1344q0 40 28 68t68 28h928q40 0 88-20t76-48l280-280q28-28 48-76t20-88z" glyph-name="save" unicode="&#xf0c7;"/><glyph d="M1536 1120v-960q0-119-84.5-203.5t-203.5-84.5h-960q-119 0-203.5 84.5t-84.5 203.5v960q0 119 84.5 203.5t203.5 84.5h960q119 0 203.5-84.5t84.5-203.5z" glyph-name="sign_blank" unicode="&#xf0c8;"/><glyph d="M1536 192v-128q0-26-19-45t-45-19h-1408q-26 0-45 19t-19 45v128q0 26 19 45t45 19h1408q26 0 45-19t19-45zM1536 704v-128q0-26-19-45t-45-19h-1408q-26 0-45 19t-19 45v128q0 26 19 45t45 19h1408q26 0 45-19t19-45zM1536 1216v-128q0-26-19-45t-45-19h-1408q-26 0-45 19t-19 45v128q0 26 19 45t45 19h1408q26 0 45-19t19-45z" glyph-name="reorder" unicode="&#xf0c9;"/><glyph d="M384 128q0-80-56-136t-136-56-136 56-56 136 56 136 136 56 136-56 56-136zM384 640q0-80-56-136t-136-56-136 56-56 136 56 136 136 56 136-56 56-136zM1792 224v-192q0-13-9.5-22.5t-22.5-9.5h-1216q-13 0-22.5 9.5t-9.5 22.5v192q0 13 9.5 22.5t22.5 9.5h1216q13 0 22.5-9.5t9.5-22.5zM384 1152q0-80-56-136t-136-56-136 56-56 136 56 136 136 56 136-56 56-136zM1792 736v-192q0-13-9.5-22.5t-22.5-9.5h-1216q-13 0-22.5 9.5t-9.5 22.5v192q0 13 9.5 22.5t22.5 9.5h1216q13 0 22.5-9.5t9.5-22.5zM1792 1248v-192q0-13-9.5-22.5t-22.5-9.5h-1216q-13 0-22.5 9.5t-9.5 22.5v192q0 13 9.5 22.5t22.5 9.5h1216q13 0 22.5-9.5t9.5-22.5z" glyph-name="ul" horiz-adv-x="1792" unicode="&#xf0ca;"/><glyph d="M381-84q0-80-54.5-126t-135.5-46q-106 0-172 66l57 88q49-45 106-45 29 0 50.5 14.5t21.5 42.5q0 64-105 56l-26 56q8 10 32.5 43.5t42.5 54 37 38.5v1q-16 0-48.5-1t-48.5-1v-53h-106v152h333v-88l-95-115q51-12 81-49t30-88zM383 543v-159h-362q-6 36-6 54 0 51 23.5 93t56.5 68 66 47.5 56.5 43.5 23.5 45q0 25-14.5 38.5t-39.5 13.5q-46 0-81-58l-85 59q24 51 71.5 79.5t105.5 28.5q73 0 123-41.5t50-112.5q0-50-34-91.5t-75-64.5-75.5-50.5-35.5-52.5h127v60h105zM1792 224v-192q0-13-9.5-22.5t-22.5-9.5h-1216q-13 0-22.5 9.5t-9.5 22.5v192q0 14 9 23t23 9h1216q13 0 22.5-9.5t9.5-22.5zM384 1123v-99h-335v99h107q0 41 .5 121.5t.5 121.5v12h-2q-8-17-50-54l-71 76 136 127h106v-404h108zM1792 736v-192q0-13-9.5-22.5t-22.5-9.5h-1216q-13 0-22.5 9.5t-9.5 22.5v192q0 14 9 23t23 9h1216q13 0 22.5-9.5t9.5-22.5zM1792 1248v-192q0-13-9.5-22.5t-22.5-9.5h-1216q-13 0-22.5 9.5t-9.5 22.5v192q0 13 9.5 22.5t22.5 9.5h1216q13 0 22.5-9.5t9.5-22.5z" glyph-name="ol" horiz-adv-x="1792" unicode="&#xf0cb;"/><glyph d="M1760 640q14 0 23-9t9-23v-64q0-14-9-23t-23-9h-1728q-14 0-23 9t-9 23v64q0 14 9 23t23 9h1728zM483 704q-28 35-51 80-48 98-48 188 0 181 134 309 133 127 393 127 50 0 167-19 66-12 177-48 10-38 21-118 14-123 14-183 0-18-5-45l-12-3-84 6-14 2q-50 149-103 205-88 91-210 91-114 0-182-59-67-58-67-146 0-73 66-140t279-129q69-20 173-66 58-28 95-52h-743zM990 448h411q7-39 7-92 0-111-41-212-23-56-71-104-37-35-109-81-80-48-153-66-80-21-203-21-114 0-195 23l-140 40q-57 16-72 28-8 8-8 22v13q0 108-2 156-1 30 0 68l2 37v44l102 2q15-34 30-71t22.5-56 12.5-27q35-57 80-94 43-36 105-57 59-22 132-22 64 0 139 27 77 26 122 86 47 61 47 129 0 84-81 157-34 29-137 71z" glyph-name="strikethrough" horiz-adv-x="1792" unicode="&#xf0cc;"/><glyph d="M48 1313q-37 2-45 4l-3 88q13 1 40 1 60 0 112-4 132-7 166-7 86 0 168 3 116 4 146 5 56 0 86 2l-1-14 2-64v-9q-60-9-124-9-60 0-79-25-13-14-13-132 0-13 .5-32.5t.5-25.5l1-229 14-280q6-124 51-202 35-59 96-92 88-47 177-47 104 0 191 28 56 18 99 51 48 36 65 64 36 56 53 114 21 73 21 229 0 79-3.5 128t-11 122.5-13.5 159.5l-4 59q-5 67-24 88-34 35-77 34l-100-2-14 3 2 86h84l205-10q76-3 196 10l18-2q6-38 6-51 0-7-4-31-45-12-84-13-73-11-79-17-15-15-15-41 0-7 1.5-27t1.5-31q8-19 22-396 6-195-15-304-15-76-41-122-38-65-112-123-75-57-182-89-109-33-255-33-167 0-284 46-119 47-179 122-61 76-83 195-16 80-16 237v333q0 188-17 213-25 36-147 39zM1536-96v64q0 14-9 23t-23 9h-1472q-14 0-23-9t-9-23v-64q0-14 9-23t23-9h1472q14 0 23 9t9 23z" glyph-name="underline" unicode="&#xf0cd;"/><glyph d="M512 160v192q0 14-9 23t-23 9h-320q-14 0-23-9t-9-23v-192q0-14 9-23t23-9h320q14 0 23 9t9 23zM512 544v192q0 14-9 23t-23 9h-320q-14 0-23-9t-9-23v-192q0-14 9-23t23-9h320q14 0 23 9t9 23zM1024 160v192q0 14-9 23t-23 9h-320q-14 0-23-9t-9-23v-192q0-14 9-23t23-9h320q14 0 23 9t9 23zM512 928v192q0 14-9 23t-23 9h-320q-14 0-23-9t-9-23v-192q0-14 9-23t23-9h320q14 0 23 9t9 23zM1024 544v192q0 14-9 23t-23 9h-320q-14 0-23-9t-9-23v-192q0-14 9-23t23-9h320q14 0 23 9t9 23zM1536 160v192q0 14-9 23t-23 9h-320q-14 0-23-9t-9-23v-192q0-14 9-23t23-9h320q14 0 23 9t9 23zM1024 928v192q0 14-9 23t-23 9h-320q-14 0-23-9t-9-23v-192q0-14 9-23t23-9h320q14 0 23 9t9 23zM1536 544v192q0 14-9 23t-23 9h-320q-14 0-23-9t-9-23v-192q0-14 9-23t23-9h320q14 0 23 9t9 23zM1536 928v192q0 14-9 23t-23 9h-320q-14 0-23-9t-9-23v-192q0-14 9-23t23-9h320q14 0 23 9t9 23zM1664 1248v-1088q0-66-47-113t-113-47h-1344q-66 0-113 47t-47 113v1088q0 66 47 113t113 47h1344q66 0 113-47t47-113z" glyph-name="table" horiz-adv-x="1664" unicode="&#xf0ce;"/><glyph d="M1190 955l293 293-107 107-293-293zM1637 1248q0-27-18-45l-1286-1286q-18-18-45-18t-45 18l-198 198q-18 18-18 45t18 45l1286 1286q18 18 45 18t45-18l198-198q18-18 18-45zM286 1438l98-30-98-30-30-98-30 98-98 30 98 30 30 98zM636 1276l196-60-196-60-60-196-60 196-196 60 196 60 60 196zM1566 798l98-30-98-30-30-98-30 98-98 30 98 30 30 98zM926 1438l98-30-98-30-30-98-30 98-98 30 98 30 30 98z" glyph-name="magic" horiz-adv-x="1664" unicode="&#xf0d0;"/><glyph d="M640 128q0 52-38 90t-90 38-90-38-38-90 38-90 90-38 90 38 38 90zM256 640h384v256h-158q-13 0-22-9l-195-195q-9-9-9-22v-30zM1536 128q0 52-38 90t-90 38-90-38-38-90 38-90 90-38 90 38 38 90zM1792 1216v-1024q0-15-4-26.5t-13.5-18.5-16.5-11.5-23.5-6-22.5-2-25.5 0-22.5.5q0-106-75-181t-181-75-181 75-75 181h-384q0-106-75-181t-181-75-181 75-75 181h-64q-3 0-22.5-.5t-25.5 0-22.5 2-23.5 6-16.5 11.5-13.5 18.5-4 26.5q0 26 19 45t45 19v320q0 8-.5 35t0 38 2.5 34.5 6.5 37 14 30.5 22.5 30l198 198q19 19 50.5 32t58.5 13h160v192q0 26 19 45t45 19h1024q26 0 45-19t19-45z" glyph-name="truck" horiz-adv-x="1792" unicode="&#xf0d1;"/><glyph d="M1536 640q0-209-103-385.5t-279.5-279.5-385.5-103q-111 0-218 32 59 93 78 164 9 34 54 211 20-39 73-67.5t114-28.5q121 0 216 68.5t147 188.5 52 270q0 114-59.5 214t-172.5 163-255 63q-105 0-196-29t-154.5-77-109-110.5-67-129.5-21.5-134q0-104 40-183t117-111q30-12 38 20 2 7 8 31t8 30q6 23-11 43-51 61-51 151 0 151 104.5 259.5t273.5 108.5q151 0 235.5-82t84.5-213q0-170-68.5-289t-175.5-119q-61 0-98 43.5t-23 104.5q8 35 26.5 93.5t30 103 11.5 75.5q0 50-27 83t-77 33q-62 0-105-57t-43-142q0-73 25-122l-99-418q-17-70-13-177-206 91-333 281t-127 423q0 209 103 385.5t279.5 279.5 385.5 103 385.5-103 279.5-279.5 103-385.5z" glyph-name="pinterest" unicode="&#xf0d2;"/><glyph d="M1248 1408q119 0 203.5-84.5t84.5-203.5v-960q0-119-84.5-203.5t-203.5-84.5h-725q85 122 108 210 9 34 53 209 21-39 73.5-67t112.5-28q181 0 295.5 147.5t114.5 373.5q0 84-35 162.5t-96.5 139-152.5 97-197 36.5q-104 0-194.5-28.5t-153-76.5-107.5-109.5-66.5-128-21.5-132.5q0-102 39.5-180t116.5-110q13-5 23.5 0t14.5 19q10 44 15 61 6 23-11 42-50 62-50 150 0 150 103.5 256.5t270.5 106.5q149 0 232.5-81t83.5-210q0-168-67.5-286t-173.5-118q-60 0-97 43.5t-23 103.5q8 34 26.5 92.5t29.5 102 11 74.5q0 49-26.5 81.5t-75.5 32.5q-61 0-103.5-56.5t-42.5-139.5q0-72 24-121l-98-414q-24-100-7-254h-183q-119 0-203.5 84.5t-84.5 203.5v960q0 119 84.5 203.5t203.5 84.5h960z" glyph-name="pinterest_sign" unicode="&#xf0d3;"/><glyph d="M917 631q0 26-6 64h-362v-132h217q-3-24-16.5-50t-37.5-53-66.5-44.5-96.5-17.5q-99 0-169 71t-70 171 70 171 169 71q92 0 153-59l104 101q-108 100-257 100-160 0-272-112.5t-112-271.5 112-271.5 272-112.5q165 0 266.5 105t101.5 270zM1262 585h109v110h-109v110h-110v-110h-110v-110h110v-110h110v110zM1536 1120v-960q0-119-84.5-203.5t-203.5-84.5h-960q-119 0-203.5 84.5t-84.5 203.5v960q0 119 84.5 203.5t203.5 84.5h960q119 0 203.5-84.5t84.5-203.5z" glyph-name="google_plus_sign" unicode="&#xf0d4;"/></font>
</defs>
</svg>
