<svg xmlns="http://www.w3.org/2000/svg"><defs><font horiz-adv-x="512"><font-face ascent="448" bbox="-1.00195 -64.9795 640.104 448.576" descent="-64" panose-1="2 0 5 3 0 0 0 0 0 0" underline-position="-50" underline-thickness="25" unicode-range="U+0020-F8FF" units-per-em="512"/><missing-glyph/><glyph d="M352 192c88.3066 0 160-71.6934 160-160 0-17.6611-14.3389-32-32-32h-64c-17.6611 0-32 14.3389-32 32s-14.3389 32-32 32h-12.79c-20.5898-37.7305-64.21-64-115.21-64s-94.6201 26.2695-115.21 64h-92.79c-8.83105 0-16 7.16895-16 16v96c0 8.83105 7.16895 16 16 16h118.61c15.71 13.4004 35.46 23 57.3896 28v47.5596l32 3.38086 32-3.38086v-47.5596c21.9297-4.92969 41.6797-14.5596 57.3896-28h38.6104zM81.5898 288.09c-9.41992-1-17.5898 6.81055-17.5898 16.7998v30.2207c0 9.98926 8.16992 17.7998 17.5898 16.8096l110.41-11.6602v27.7402c0 8.83105 7.16895 16 16 16h32c8.83105 0 16-7.16895 16-16v-27.7402l110.41 11.6602c9.41992.990234 17.5898-6.80957 17.5898-16.8096v-30.2207c0-9.98926-8.16992-17.7998-17.5898-16.7998l-142.41 15z" glyph-name="faucet" unicode="&#xe005;"/><glyph d="M624 128c8.83105 0 16-7.16895 16-16v-32c0-8.83105-7.16895-16-16-16h-337.61c-7.83008 54.21-54 96-110.39 96s-102.56-41.79-110.39-96h-49.6104c-8.83105 0-16 7.16895-16 16v288c0 8.83105 7.16895 16 16 16h512c8.83105 0 16-7.16895 16-16v-240h80zM96 204.32v107.68c0 4.41504-3.58496 8-8 8h-16c-4.41504 0-8-3.58496-8-8v-128.39c9.85938 8.0166 20.5459 14.9482 32 20.71zM192 222.86v89.1396c0 4.41504-3.58496 8-8 8h-16c-4.41504 0-8-3.58496-8-8v-89.1396c5.30957.489258 10.5703 1.13965 16 1.13965s10.6904-.650391 16-1.13965zM288 183.61v128.39c0 4.41504-3.58496 8-8 8h-16c-4.41504 0-8-3.58496-8-8v-107.68c11.4541-5.76172 22.1406-12.6934 32-20.71zM384 128v184c0 4.41504-3.58496 8-8 8h-16c-4.41504 0-8-3.58496-8-8v-184h32zM480 128v184c0 4.41504-3.58496 8-8 8h-16c-4.41504 0-8-3.58496-8-8v-184h32zM176 128c44.1533 0 80-35.8467 80-80s-35.8467-80-80-80-80 35.8467-80 80 35.8467 80 80 80zM176 16c17.6611 0 32 14.3389 32 32s-14.3389 32-32 32-32-14.3389-32-32 14.3389-32 32-32z" glyph-name="trailer" horiz-adv-x="640" unicode="&#xe041;"/><glyph d="M272.35 221.6c-2.19727-.946289-4.63184-1.47949-7.17578-1.47949h-.0341797c-.00292969 0 .00195312-.0146484-.00195312-.0146484-7.27051 0-13.5322 4.35449-16.3174 10.5947l-3.91992 8.84961c-1.15039-.729492-2.35059-1.37988-3.4707-2.14941-3.47168-2.44629-6.75293-5.02832-9.93945-7.82031-4.16406-3.56152-8.00098-7.31543-11.6504-11.4004-2.79688-3.0166-5.3916-6.11719-7.87012-9.41016-.700195-.969727-1.22949-2.0498-1.89941-3.0498l8.7998-4.10938c6.0166-2.84082 10.1523-8.94531 10.1523-16.0361 0-9.79199-7.9502-17.7432-17.7432-17.7432-2.70312 0-5.26562.606445-7.55957 1.68848l-9 4.2207c-1.61035-5.00293-2.92773-10.2646-3.87012-15.5303-1.9248-11.2178-6.14648-21.8359-12.0801-31.0498l9.14062-9.37012c3.09082-3.19824 4.99121-7.55957 4.99121-12.3545 0-9.80859-7.96387-17.7715-17.7725-17.7715-5.01465 0-9.54688 2.08105-12.7793 5.42578l-8.58984 8.7998c-13.0752-8.66602-28.8223-13.7949-45.6494-13.8799-1.03027 0-2.10059.259766-3.10059.259766l-2.87012-11c-2.08008-7.52637-8.97949-13.0732-17.165-13.0732-9.8291 0-17.8096 7.98047-17.8096 17.8105 0 1.44043.171875 2.84082.495117 4.18359l2.87988 11.0596c-15.5566 7.7666-28.2236 20.1123-36.3896 35.4297l-11.2705-3.33008c-1.60547-.477539-3.30273-.741211-5.06348-.741211-9.79004 0-17.7383 7.94824-17.7383 17.7383 0 8.03027 5.34668 14.8213 12.6719 17.0029l11.5801 3.43066c-.142578 1.98535-.214844 3.83594-.214844 5.85742 0 4.47168.353516 8.86133 1.03516 13.1426 1.72949 10.3799 4.72949 20.2197 7.51953 30.2197l-10.3496 3.54004c-6.94824 2.40234-11.9346 8.99512-11.9346 16.7549 0 9.78711 7.94629 17.7334 17.7334 17.7334 2.02734 0 3.97559-.34082 5.79102-.96875l10.4795-3.58984c6.40332 15.3193 14.1484 30.0723 23 43.9102l-8.87988 6.46973c-4.4375 3.20996-7.30176 8.43652-7.30176 14.3262 0 3.90625 1.27148 7.51855 3.42188 10.4443 3.24805 4.4248 8.49316 7.27441 14.3975 7.27441 3.9209 0 7.54688-1.26758 10.4922-3.41406l8.82031-6.4209c10.6797 12.8564 22.2119 24.5146 34.9502 35.3301l-6.4502 8.61035c-2.22168 2.95703-3.5625 6.6377-3.5625 10.6182 0 5.82617 2.82227 10.998 7.17285 14.2217 2.97461 2.20312 6.66211 3.53027 10.6445 3.53027 5.83789 0 11.0273-2.80078 14.2949-7.12988l6.32031-8.43066c13.8359 9.05371 28.5869 16.9834 43.9404 23.5703l-3.49023 9.7998c-.658203 1.8584-1.02734 3.86816-1.02734 5.95117 0 9.8252 7.97656 17.8018 17.8018 17.8018 7.74316 0 14.3379-4.9541 16.7852-11.8623l3.37988-9.45996c10.9004 3.16992 21.7305 6.38965 33.1104 8.21973 4.51367.758789 9.02637 1.15234 13.7539 1.15234 1 0 1.99512-.0175781 2.98633-.0527344l2.81934 10.7803c1.98633 7.66504 8.95117 13.3457 17.2334 13.3457 9.82617 0 17.8047-7.97754 17.8047-17.8037 0-1.54395-.197266-3.04297-.567383-4.47168l-2.83984-10.8506c15.5527-7.83105 28.2119-20.2178 36.3799-35.5693l11.3398 3.35938c1.6084.480469 3.30957.745117 5.07324.745117 9.79199 0 17.7412-7.9502 17.7412-17.7412 0-8.02832-5.34375-14.8184-12.665-17.0039l-11.8496-3.50977c.120117-1.82227.125977-3.67969.125977-5.53223 0-15.5859-4.2998-30.1758-11.7764-42.6475l9.7207-8.76074c3.56934-3.25 5.79688-7.92969 5.79688-13.1328 0-9.80469-7.95996-17.7646-17.7637-17.7646-4.60156 0-8.79688 1.75391-11.9531 4.62793l-10 9c-9.85547-6.88477-21.4219-11.7422-33.75-13.8398-4.16895-.80957-8.35547-1.85547-12.3604-3.08008l4-9.08008c.96875-2.18848 1.5293-4.61426 1.5293-7.16016 0-7.26172-4.37988-13.5078-10.6396-16.2402zM128 192c17.6611 0 32 14.3389 32 32s-14.3389 32-32 32-32-14.3389-32-32 14.3389-32 32-32zM208 288c8.83105 0 16 7.16895 16 16s-7.16895 16-16 16-16-7.16895-16-16 7.16895-16 16-16zM639.26 242.7c.470703-1.59277.724609-3.27344.724609-5.01758 0-8.04492-5.37891-14.8438-12.7344-16.9922l-11.5801-3.43066c.143555-1.99512.216797-3.85547.216797-5.88672 0-4.47852-.354492-8.875-1.03711-13.1631-1.72949-10.3701-4.72949-20.21-7.51953-30.21l10.3398-3.53027c6.94824-2.40234 11.9346-8.99414 11.9346-16.7549 0-9.78711-7.94629-17.7334-17.7344-17.7334-2.02637 0-3.97559.34082-5.79004.96875l-10.4805 3.58984c-6.40527-15.3213-14.1494-30.0781-23-43.9199l8.88086-6.45996c4.6377-3.20605 7.64746-8.54297 7.64746-14.6025 0-9.80176-7.95801-17.7598-17.7598-17.7598-4.10156 0-7.87988 1.39355-10.8877 3.73242l-8.82031 6.41992c-10.6826-12.8574-22.2148-24.5176-34.9502-35.3398l6.4502-8.61035c2.23926-2.96094 3.5918-6.6543 3.5918-10.6494 0-5.84082-2.83984-11.0225-7.21191-14.2402-2.97363-2.20508-6.66016-3.53418-10.6426-3.53418-5.83594 0-11.0234 2.80273-14.2871 7.13379l-6.32031 8.42969c-13.8379-9.05273-28.5889-16.9854-43.9404-23.5801l3.49023-9.79004c.658203-1.85742 1.02734-3.86816 1.02734-5.9502 0-9.8252-7.97656-17.8018-17.8018-17.8018-7.74316 0-14.3379 4.9541-16.7852 11.8623l-3.37988 9.45996c-10.8604-3.16992-21.7305-6.34961-33.1006-8.24023-4.51465-.757812-9.02832-1.15234-13.7568-1.15234-.999023 0-1.99316.0175781-2.9834.0527344l-2.81934-10.7803c-1.98633-7.66504-8.95117-13.3457-17.2334-13.3457-9.82617 0-17.8037 7.97754-17.8037 17.8047 0 1.54395.196289 3.04199.566406 4.47168l2.84082 10.8496c-15.5664 7.8291-28.2363 20.2207-36.4102 35.5801l-11.3398-3.36035c-1.61035-.480469-3.31348-.746094-5.0791-.746094-9.79199 0-17.7422 7.9502-17.7422 17.7432 0 8.02734 5.3418 14.8164 12.6611 17.0029l11.8594 3.51074c-.119141 1.82227-.125 3.67871-.125 5.53125 0 15.5869 4.29883 30.1768 11.7754 42.6484l-9.71973 8.75c-3.68848 3.25684-6.00293 8.0166-6.00293 13.3193 0 9.80762 7.96289 17.7705 17.7705 17.7705 4.69824 0 8.97363-1.82812 12.1523-4.80957l10-9c9.85645 6.9082 21.4297 11.7861 33.7695 13.8994 4.1709.804688 8.35742 1.85156 12.3604 3.08008l-4 9.08008c-.962891 2.18262-1.51953 4.60156-1.51953 7.13867 0 7.25391 4.37012 13.4951 10.6191 16.2314 2.19824.954102 4.63477 1.49414 7.18066 1.5.00390625 0-.00195312.0146484.00195312.0146484 7.27051 0 13.5322-4.35449 16.3174-10.5947l3.91992-8.84961c1.15039.729492 2.35059 1.37988 3.4707 2.14941 3.49023 2.4502 6.79199 5.03613 10 7.83008 4.13867 3.53516 7.94922 7.2666 11.5693 11.3301 2.82617 3.03223 5.44336 6.15332 7.94043 9.46973.69043.970703 1.21973 2.0498 1.88965 3.0498l-8.7998 4.11035c-6.0166 2.84082-10.1523 8.94531-10.1523 16.0352 0 9.79297 7.9502 17.7432 17.7432 17.7432 2.70312 0 5.26562-.605469 7.55957-1.68848l9-4.21973c1.60938 4.99902 2.92676 10.2578 3.87012 15.5195 1.91992 11.2236 6.14258 21.8457 12.0801 31.0605l-9.14062 9.37012c-3.09082 3.19824-4.99121 7.55957-4.99121 12.3535 0 9.80957 7.96387 17.7725 17.7725 17.7725 5.01465 0 9.54688-2.08105 12.7793-5.42578l8.58984-8.81055c13.0723 8.67285 28.8203 13.8066 45.6494 13.8906 1.03027 0 2.10059-.260742 3.10059-.260742l2.87012 11c2.10059 7.49609 8.98438 13.0137 17.1475 13.0137 9.83008 0 17.8105-7.98047 17.8105-17.8096 0-1.41602-.166016-2.79297-.478516-4.11426l-2.87988-11.0596c15.5527-7.77246 28.2188-20.1162 36.3896-35.4297l11.2705 3.33008c1.59766.478516 3.28906.739258 5.04199.739258h.0380859c.00585938 0 .0078125-.00097656.0136719-.00097656 8.0459 0 14.8506-5.35254 17.0459-12.6885zM416 32c17.6611 0 32 14.3389 32 32s-14.3389 32-32 32-32-14.3389-32-32 14.3389-32 32-32z" glyph-name="bacteria" horiz-adv-x="640" unicode="&#xe059;"/><glyph d="M511 345.07c.634766-2.13379.976562-4.3877.976562-6.72656 0-10.7275-7.1709-19.7949-16.9766-22.6641l-15.79-4.67969c.15625-2.4082.163086-4.86133.163086-7.30859 0-20.8174-5.75195-40.3027-15.7529-56.9512l12.9395-11.6699c5.1709-4.34766 8.44043-10.8584 8.44043-18.1357 0-13.0742-10.6152-23.6895-23.6895-23.6895-6.47754 0-12.3525 2.60547-16.6309 6.8252l-13.3301 12c-13.1318-9.21387-28.5537-15.7207-45-18.54-5.5625-1.07129-11.1484-2.46484-16.4893-4.10059l5.35938-12.1094c1.2793-2.91602 2.0127-6.17285 2.0127-9.55859 0-13.1035-10.6377-23.7412-23.7412-23.7412-9.7168 0-18.0791 5.85156-21.751 14.2197l-5.23047 11.7998c-1.5293-.980469-3.12988-1.87012-4.62988-2.87012-4.61719-3.25684-8.98438-6.69043-13.2295-10.4004-5.58008-4.76562-10.7148-9.79785-15.5908-15.2793-3.71875-4.00195-7.16699-8.11914-10.46-12.4902-.929688-1.29004-1.62988-2.74023-2.51953-4.05957l11.7197-5.49023c8.20801-3.71484 13.8818-11.9531 13.8818-21.542 0-13.0576-10.6016-23.6592-23.6602-23.6592-3.73535 0-7.26855.867188-10.4111 2.41113l-12 5.63965c-2.14844-6.6709-3.90527-13.6875-5.16016-20.71-2.5625-14.959-8.19336-29.1182-16.1104-41.3994l12.1904-12.5c3.92383-4.22949 6.32129-9.90332 6.32129-16.1221 0-13.0801-10.6201-23.7002-23.7002-23.7002-6.5127 0-12.416 2.63379-16.7012 6.8916l-11.4502 11.7402c-17.4336-11.5586-38.4326-18.4014-60.8701-18.5195-1.36035 0-2.75977.299805-4.12988.349609l-3.80957-14.6299c-2.67383-10.1768-11.9395-17.7002-22.9502-17.7002h-.0498047c-2.07324.00292969-4.07715.264648-6 .75-10.1992 2.62988-17.751 11.8857-17.751 22.9014 0 2.04688.260742 4.03418.750977 5.92871l3.84961 14.75c-20.7412 10.3623-37.6318 26.8203-48.5303 47.2402l-15-4.44043c-2.14062-.638672-4.40527-.989258-6.75293-.989258-13.0479 0-23.6406 10.5928-23.6406 23.6406 0 10.6992 7.12402 19.749 16.8838 22.6592l15.4404 4.55957c-.199219 2.7207-.300781 5.25781-.300781 8.0293 0 5.89355.458008 11.6826 1.34082 17.3311 2.37012 13.6738 5.52832 27.3877 9.2998 40.5293l-13 4.48047c-9.47656 3.08398-16.3213 11.9814-16.3213 22.4805 0 13.0527 10.5967 23.6504 23.6494 23.6504 2.86035 0 5.60254-.508789 8.1416-1.44141l12.9297-4.42969c8.61523 20.5029 19.0254 40.2393 30.9199 58.75l-11.0898 8.06055c-6.20508 4.27051-10.2344 11.3994-10.2344 19.4951 0 13.0693 10.6104 23.6797 23.6797 23.6797 5.48535 0 10.5381-1.86914 14.5547-5.00488l11-8c14.2725 17.249 29.6816 32.9014 46.7002 47.4395l-8 10.6299c-2.9541 3.9375-4.7373 8.83691-4.7373 14.1338 0 7.7666 3.76465 14.6611 9.56738 18.9561 3.96484 2.93848 8.87988 4.70801 14.1885 4.70801 7.78125 0 14.6973-3.73438 19.0518-9.50781l8-10.6299c18.4736 12.2129 38.1689 22.917 58.6895 31.8301l-4.2998 12.0498c-.799805 2.37695-1.24805 4.93555-1.24805 7.58105 0 13.1025 10.6377 23.7402 23.7402 23.7402 10.1953 0 18.8975-6.44043 22.2578-15.4707l4.2998-12c14.3408 4.27246 29.3477 7.81055 44.3301 10.4102 6.0459 1.01172 12.0889 1.53711 18.4199 1.53711 1.30859 0 2.6123-.0224609 3.91016-.0673828l3.75977 14.3701c2.64941 10.2295 11.9443 17.8125 22.998 17.8125 13.1123 0 23.7588-10.6465 23.7588-23.7588 0-2.05957-.262695-4.05762-.756836-5.96387l-3.79004-14.4697c20.7402-10.4336 37.6182-26.9492 48.5-47.4209l15.1201 4.48047c2.14844.639648 4.41797.985352 6.77246.985352 10.7344 0 19.8164-7.13379 22.7578-16.915zM160 80c26.4922 0 48 21.5078 48 48s-21.5078 48-48 48-48-21.5078-48-48 21.5078-48 48-48zM240 216c13.2461 0 24 10.7539 24 24s-10.7539 24-24 24-24-10.7539-24-24 10.7539-24 24-24z" glyph-name="bacterium" unicode="&#xe05a;"/><glyph d="M383.88 160.18h-256l-64 288h141.4c30.9912-.00195312 57.3018-20.1162 66.5996-48 9.29492-27.8818 35.6016-47.9961 66.5898-48h109.41zM-.120117-31.8203v64h512v-64c0-17.6611-14.3389-32-32-32h-448c-17.6611 0-32 14.3389-32 32zM479.88 224.18c17.6562-.00488281 31.9902-14.3418 31.9902-32v-128h-512v128c0 17.6611 14.3389 32 32 32h49l14.2197-64h-15.21c-8.83008 0-16-7.16895-16-16 0-8.83008 7.16992-16 16-16h352c8.83105 0 16 7.16992 16 16 0 8.83105-7.16895 16-16 16h-14.2695l21.3301 64h40.9395z" glyph-name="box-tissue" unicode="&#xe05b;"/><glyph d="M159.88 272.18c-8.83008 0-16 7.16992-16 16v64c0 8.83105 7.16992 16 16 16h64v64c0 8.83105 7.16992 16 16 16h64c8.83105 0 16-7.16895 16-16v-64h64c8.83105 0 16-7.16895 16-16v-64c0-8.83008-7.16895-16-16-16h-64v-64c0-8.83008-7.16895-16-16-16h-64c-8.83008 0-16 7.16992-16 16v64h-64zM568.07 111.87c4.87109-6.62695 7.80469-14.8232 7.80469-23.6709 0-13.1982-6.40527-24.9121-16.2754-32.1992l-135.029-99.5703c-17.2783-12.6621-38.6699-20.2148-61.7002-20.2695h-347c-8.80273.0595703-15.9404 7.19727-16 16v96c.0595703 8.80273 7.19727 15.9395 16 16h55.3604l46.5 37.7402c20.2246 16.3867 46.0615 26.25 74.0947 26.25h.0244141 160c17.6943 0 32.0654-14.3359 32.0654-32.0303 0-1.82324-.152344-3.61035-.445312-5.35059-2.62012-15.7393-17.3701-26.6094-33.3701-26.6094h-78.2393c-8.83105 0-16-7.16992-16-16 0-8.83105 7.16895-16 16-16h120.609l119.67 88.1797c6.63281 4.91016 14.8516 7.87012 23.7295 7.87012 13.2129 0 24.9355-6.43555 32.2012-16.3398z" glyph-name="hand-holding-medical" horiz-adv-x="576" unicode="&#xe05c;"/><glyph d="M106.66 277.36l-20.7402-49.6201c-1.08691-2.19531-3.34277-3.70703-5.95605-3.70703s-4.87695 1.51172-5.96387 3.70703l-20.6602 49.6602h-.0703125l-49.5898 20.5996c-2.10938 1.20508-3.55469 3.42969-3.67969 6v0c.124023 2.57617 1.5791 4.80371 3.7002 6l49.6299 20.6904h.0498047l20.7002 49.6299c1.0918 2.18848 3.3457 3.69434 5.95605 3.69434s4.87207-1.50586 5.96387-3.69434l20.6602-49.6406h.0703125l49.5693-20.6699c2.11328-1.2002 3.56055-3.42676 3.68066-6v0c-.125977-2.57031-1.57129-4.79492-3.68066-6l-49.5498-20.6494h-.0898438zM471.38-19.4102l37.4902-15.6299.0703125-.169922c-7.59082-17.0596-24-28.79-43.2402-28.79h-197.61c-15.9482.0273438-30.0625 7.79492-38.79 19.79l-125.6 172.61c-4.80469 6.60156-7.68066 14.7979-7.68066 23.5801 0 22.085 17.9297 40.0156 40.0146 40.0156 13.3027 0 25.0986-6.50586 32.376-16.5059l23.5898-32.4902v241c0 17.6611 14.3389 32 32 32s32-14.3389 32-32v-152c0-4.41504 3.58496-8 8-8h16c4.41504 0 8 3.58496 8 8v184c0 17.6611 14.3389 32 32 32s32-14.3389 32-32v-184c0-4.41504 3.58496-8 8-8h16c4.41504 0 8 3.58496 8 8v152c0 17.6611 14.3389 32 32 32s32-14.3389 32-32v-152c0-4.41504 3.58496-8 8-8h16c4.41504 0 8 3.58496 8 8v72c0 17.6611 14.3389 32 32 32s32-14.3389 32-32v-176.03c-.0195312-1.30957-.269531-2.66992-.269531-4-7.77051-3.70996-14.5-9.59961-18.3506-17.3398l-.469727-.950195-.410156-1-15.6299-37.4795-37.4902-15.6299-1-.430664-1-.489258c-12.6719-6.35254-21.3789-19.4189-21.3789-34.5479s8.70703-28.2402 21.3789-34.5928l1-.5zM349.79 108.48c1.31543.655273 2.21973 2.00879 2.21973 3.57715s-.904297 2.92676-2.21973 3.58203l-29.79 12.4199-12.4297 29.7803c-.657227 1.30957-2.00879 2.20996-3.57324 2.20996-1.56348 0-2.91992-.900391-3.57715-2.20996l-12.4199-29.7803-29.79-12.4199c-1.31543-.655273-2.21973-2.00879-2.21973-3.57715s.904297-2.92676 2.21973-3.58203l29.79-12.4102 12.4297-29.7803c.657227-1.30957 2.00879-2.20996 3.57324-2.20996 1.56348 0 2.91992.900391 3.57715 2.20996l12.4199 29.7803zM640 16.0898l-.0703125-.0703125v0c-.135742-2.55078-1.58008-4.75684-3.67969-5.94922l-49.5498-20.6602h-.0898438v0l-20.6904-49.6201c-1.08691-2.19531-3.34277-3.70703-5.95605-3.70703s-4.87695 1.51172-5.96387 3.70703l-20.6602 49.5898h-.0703125l-49.5693 20.6699c-2.10059 1.19238-3.54395 3.39844-3.68066 5.9502v0c.118164 2.57324 1.56641 4.80078 3.68066 6l49.6299 20.7402h.0498047l20.7002 49.6299c1.0918 2.18848 3.3457 3.69434 5.95605 3.69434s4.87207-1.50586 5.96387-3.69434l20.6797-49.6104h.0703125l49.5703-20.6699c2.11328-1.19922 3.5625-3.42676 3.67969-6z" glyph-name="hand-sparkles" horiz-adv-x="640" unicode="&#xe05d;"/><glyph d="M496 224c-26.4922 0-48 21.5078-48 48s21.5078 48 48 48 48-21.5078 48-48-21.5078-48-48-48zM311.47 269.55l-16.0801-4.96973 20.9004 66.1699c3.5 11.0703 14.1797 18.8604 25.71 17.5098 12.0508-1.27246 21.4727-11.4824 21.4727-23.8682 0-2.53418-.393555-4.97754-1.12305-7.27148l-15.3496-48.6104c-5.91699 2.19336-12.3369 3.43457-19 3.49023-.0107422 0-.0185547-.0107422-.0302734-.0107422-5.7373 0-11.2773-.853516-16.5-2.43945zM93.6504 61.6699c-36.4326 21.1162-60.9873 60.2432-61.6504 105.19v112.729c.179688 13.3203 11.6699 23.9102 24.9004 23.8604 13.1807-.0771484 23.8604-10.7988 23.8604-23.9971 0-.0507812 0-.102539-.00097656-.15332l2.06055-50.0498 60 189.85c3.5 11.0703 14.1797 18.9004 25.71 17.46 12.0371-1.28613 21.4443-11.4883 21.4443-23.8652 0-2.52441-.390625-4.95801-1.11426-7.24414l-38.5605-122c-.240234-.760742-.373047-1.57129-.373047-2.41016 0-4.41699 3.58496-8.00195 8.00195-8.00195 3.57617 0 6.60742 2.35156 7.63086 5.5918l47.9307 151.71c3.50977 11.0605 14.1797 18.8506 25.71 17.5098 12.0371-1.28613 21.4443-11.4883 21.4443-23.8652 0-2.52441-.390625-4.95801-1.11426-7.24414l-43.3701-137.79c-.241211-.762695-.375-1.57422-.375-2.41602 0-4.41699 3.58594-8.00293 8.00293-8.00293 3.57617 0 6.60645 2.35059 7.63184 5.58887l33.4502 106.42c3.5 11.0703 14.1895 18.8604 25.7197 17.5195 12.0371-1.28613 21.4443-11.4883 21.4443-23.8652 0-2.52441-.390625-4.95801-1.11426-7.24414l-34.1602-108.12-73.7002-22.7598c-62.1299-20.5283-107.005-79.04-107.06-148v-25.6904c-.80957-.169922-1.5498-.519531-2.34961-.709961zM519.1 112c11.6104 0 22.25-7.83984 24.4404-19.2402.3125-1.54395.477539-3.12402.477539-4.75977 0-13.2461-10.7549-24-24-24h-.0175781-160c-4.41504 0-8-3.58496-8-8s3.58496-8 8-8h127.1c11.6104 0 22.25-7.83984 24.4404-19.2402.3125-1.54395.477539-3.12402.477539-4.75977 0-13.2461-10.7549-24-24-24h-.0175781-128c-4.41504 0-8-3.58496-8-8s3.58496-8 8-8h95.0996c11.6104 0 22.25-7.83984 24.4404-19.2402.3125-1.54395.477539-3.12402.477539-4.75977 0-13.2461-10.7549-24-24-24h-.0175781-208c-22.6738.0859375-43.9951 6.60645-62 17.7197 3.8623 9.36328 5.9668 19.6699 5.9668 30.4199 0 38.6191-27.499 70.8652-63.9668 78.21v25.6504c0 54.8691 35.7324 101.431 85.1904 117.69l107.72 33.25c2.24121.692383 4.62207 1.0752 7.08984 1.0752 13.252 0 24.0107-10.7588 24.0107-24.0107 0-10.7842-7.125-19.917-16.9209-22.9453l-47.0898-17.0596h199.1c11.6104 0 22.25-7.83984 24.4404-19.2402.3125-1.54395.477539-3.12402.477539-4.75977 0-13.2461-10.7549-24-24-24h-.0175781-128c-4.41504 0-8-3.58496-8-8s3.58496-8 8-8h159.1zM416 384c-17.6611 0-32 14.3389-32 32s14.3389 32 32 32 32-14.3389 32-32-14.3389-32-32-32zM112 32c26.4922 0 48-21.5078 48-48s-21.5078-48-48-48-48 21.5078-48 48 21.5078 48 48 48z" glyph-name="hands-wash" horiz-adv-x="576" unicode="&#xe05e;"/><glyph d="M358.59 252.4l26.1104 23.8896c3.19727 2.92676 5.19238 7.13086 5.19238 11.8037 0 8.83203-7.1709 16.0029-16.0039 16.0029-4.16016 0-7.95117-1.59082-10.7988-4.19629l-27-24.7002-32.6895-29.9199 330.43-255.38c3.76562-2.92871 6.1709-7.50781 6.1709-12.6426 0-3.69434-1.25488-7.09863-3.36133-9.80762l-19.6396-25.2705c-2.92871-3.76855-7.50879-6.17578-12.6465-6.17578-3.69727 0-7.10254 1.25684-9.81348 3.36621l-588.35 454.72c-3.76562 2.92871-6.17188 7.50781-6.17188 12.6426 0 3.69434 1.25488 7.09766 3.36133 9.80762l19.6201 25.2695c2.92773 3.77148 7.51074 6.18164 12.6504 6.18164 3.69922 0 7.1084-1.25879 9.81934-3.37109l116.891-90.3301 20.3398 20.2998c5.78027 5.7998 13.7764 9.39258 22.5996 9.41016h83.79l-75.5996-69.2402 25.6895-19.8496 88.1201 80.6797c5.69238 5.21777 13.2881 8.40723 21.6104 8.41016h85.8896c8.82812-.0146484 16.8271-3.60742 22.6104-9.41016l54.5898-54.5898h112c8.7998 0 15.9502-7.12109 16-15.9102v-191.8c-.0273438-8.81836-7.18164-15.9727-16-16h-97.5898c-2.7002 15.1729-10.7646 28.5215-22.21 37.9102zM16 320h7.55957l382.44-295.59-8.7998-10.8203c-6.81543-8.38672-17.2246-13.7119-28.8633-13.7119-8.87793 0-17.0322 3.12012-23.4268 8.32227l-17.9102 15.5-.200195-.200195c-11.7383-14.4346-29.6592-23.5977-49.6963-23.5977-15.2695 0-29.2969 5.35938-40.3037 14.2979l-90.5 81.8896h-130.3c-8.83105 0-16 7.16992-16 16v191.91c.0273438 8.81836 7.18164 15.9727 16 16z" glyph-name="handshake-alt-slash" horiz-adv-x="640" unicode="&#xe05f;"/><glyph d="M0 319.79h23.8301l72.1699-55.79v-168c0-17.6611-14.3389-32-32-32h-64v255.79zM48 127.9c-8.83105 0-16-7.16992-16-16 0-8.83105 7.16895-16 16-16s16 7.16895 16 16c0 8.83008-7.16895 16-16 16zM128 96.0898v143.19l278-214.87-8.7998-10.8203c-6.81543-8.38672-17.2246-13.7119-28.8633-13.7119-8.87793 0-17.0322 3.12012-23.4268 8.32227l-17.9102 15.5-.200195-.200195c-11.7383-14.4346-29.6592-23.5977-49.6963-23.5977-15.2695 0-29.2969 5.35938-40.3037 14.2979l-90.5 81.8896h-18.2998zM544 319.79h96v-255.89h-64c-17.6611 0-32 14.3379-32 32v223.89zM592 95.9004c8.83105 0 16 7.16895 16 16 0 8.83008-7.16895 16-16 16s-16-7.16992-16-16c0-8.83105 7.16895-16 16-16zM303.33 245.33l330.5-255.43c3.76953-2.92871 6.17676-7.50977 6.17676-12.6475 0-3.69238-1.25293-7.09375-3.35645-9.80273l-19.6504-25.2705c-2.92773-3.77051-7.51074-6.18066-12.6504-6.18066-3.69922 0-7.1084 1.25879-9.81934 3.37109l-588.34 454.72c-3.76562 2.92871-6.17188 7.50781-6.17188 12.6426 0 3.69434 1.25488 7.09766 3.36133 9.80762l19.6201 25.2695c2.92773 3.77148 7.51074 6.18164 12.6504 6.18164 3.69922 0 7.1084-1.25879 9.81934-3.37109l116.891-90.3398 20.3398 20.3096c5.78027 5.7998 13.7764 9.39258 22.5996 9.41016h83.79l-75.5996-69.2402 25.6396-19.8096 88.0703 80.6396c5.68457 5.21973 13.2764 8.41016 21.5947 8.41016h.00488281 85.9004c.0117188 0 .0263672.00488281.0380859.00488281 8.82031 0 16.8047-3.60254 22.5615-9.41504l54.6104-54.5898v-193.5c-2.45605 2.78125-5.0625 5.31934-7.91016 7.7002l-145.59 118.2 26.0898 23.8896c3.05762 2.91504 4.95215 7.02441 4.95215 11.5781 0 8.83105-7.16895 16-16 16-4.03613 0-7.72559-1.49805-10.542-3.96777z" glyph-name="handshake-slash" horiz-adv-x="640" unicode="&#xe060;"/><glyph d="M616 144c-13.2461 0-24 10.7539-24 24s10.7539 24 24 24 24-10.7539 24-24-10.7539-24-24-24zM552 32c13.2461 0 24-10.7539 24-24s-10.7539-24-24-24-24 10.7539-24 24 10.7539 24 24 24zM488 88c13.2461 0 24-10.7539 24-24s-10.7539-24-24-24-24 10.7539-24 24 10.7539 24 24 24zM616-16c13.2461 0 24-10.7539 24-24s-10.7539-24-24-24-24 10.7539-24 24 10.7539 24 24 24zM616 88c13.2461 0 24-10.7539 24-24s-10.7539-24-24-24-24 10.7539-24 24 10.7539 24 24 24zM552 128c13.2461 0 24-10.7539 24-24s-10.7539-24-24-24-24 10.7539-24 24 10.7539 24 24 24zM477.22 173c1.76367-3.9668 2.75977-8.38281 2.75977-13 0-17.6543-14.3281-31.9883-31.9795-32h-32v-32h-96c-17.6611 0-32-14.3389-32-32s14.3389-32 32-32h96c0-35.3223-28.6777-64-64-64h-64v-32h-224v177.12c-39.25 35.2598-64 86.1299-64 142.88 0 106 86 192 192 192h42.0996c70.2783-.046875 132.342-34.8047 170-88.25 24.6201-35 52.1201-139.63 73.1201-186.75zM288 224c17.6436.0380859 31.9619 14.3564 32 32 0 17.6611-14.3389 32-32 32s-32-14.3389-32-32 14.3389-32 32-32z" glyph-name="head-side-cough" horiz-adv-x="640" unicode="&#xe061;"/><glyph d="M454.11 128.79l179.72-138.89c3.76562-2.92871 6.1709-7.50781 6.1709-12.6426 0-3.69434-1.25488-7.09863-3.36133-9.80762l-19.6396-25.2705c-2.92773-3.77051-7.51074-6.18066-12.6504-6.18066-3.69922 0-7.1084 1.25879-9.81934 3.37109l-588.351 454.72c-3.76562 2.92871-6.1709 7.50781-6.1709 12.6426 0 3.69434 1.25488 7.09766 3.36133 9.80762l19.6299 25.2695c2.92871 3.76855 7.50879 6.17676 12.6465 6.17676 3.69727 0 7.10254-1.25684 9.81348-3.36621l38.7197-29.9199c30.6045 20.9385 67.7969 33.2998 107.644 33.2998h.176758 42.0996c70.2783-.046875 132.342-34.8047 170-88.25 24.6201-35 52.1201-139.63 73.1201-186.75 8.51074-19.21-3.5498-40.4004-23.1094-44.21zM313.39 237.55c3.85059 5.28027 6.61035 11.4502 6.58008 18.4502-.0332031 17.6455-14.3535 31.9668-32 32-9.92969 0-18.4795-4.86035-24.3594-12zM616 144c-13.2461 0-24 10.7539-24 24s10.7539 24 24 24 24-10.7539 24-24-10.7539-24-24-24zM552 80c-13.2461 0-24 10.7539-24 24s10.7539 24 24 24 24-10.7539 24-24-10.7539-24-24-24zM288 64c0-17.6611 14.3389-32 32-32h96c0-35.3223-28.6777-64-64-64h-64v-32h-224v177.12c-39.25 35.2598-64 86.1299-64 142.88.015625 31.0195 7.56055 60.5098 20.7305 86.4102l318.81-246.41h-19.54c-17.6611 0-32-14.3389-32-32zM616 88c13.2461 0 24-10.7539 24-24s-10.7539-24-24-24-24 10.7539-24 24 10.7539 24 24 24z" glyph-name="head-side-cough-slash" horiz-adv-x="640" unicode="&#xe062;"/><glyph d="M.150391 263.58c.445312 9.60547 1.64062 19.0078 3.51953 28.1699l220.33-160.26v-195.49h-160v177.12c-41 36.8203-66.1699 90.6699-63.8496 150.46zM509.22 173c1.62891-3.79102 2.54688-7.97949 2.54688-12.3652 0-.211914-.00195312-.423828-.00683594-.634766h-272.55l-225.96 164.35c29.2305 73.0801 103.75 123.65 186.75 123.65h66.1104c70.2744-.046875 132.336-34.8047 169.989-88.25 24.6201-35 52.1201-139.63 73.1201-186.75zM320 224c17.6436.0380859 31.9619 14.3564 32 32 0 17.6611-14.3389 32-32 32s-32-14.3389-32-32 14.3389-32 32-32zM336 80c-8.83105 0-16-7.16895-16-16s7.16895-16 16-16h149.34l-10.6699-32h-138.67c-8.83105 0-16-7.16895-16-16s7.16895-16 16-16h128l-1.41016-4.24023c-8.47363-25.4199-32.458-43.7578-60.71-43.7598h-145.88v192h256l-16-48h-160z" glyph-name="head-side-mask" unicode="&#xe063;"/><glyph d="M272 208c8.83105 0 16-7.16895 16-16s-7.16895-16-16-16-16 7.16895-16 16 7.16895 16 16 16zM208 272c8.83105 0 16-7.16895 16-16s-7.16895-16-16-16-16 7.16895-16 16 7.16895 16 16 16zM509.2 173c1.76367-3.9668 2.75879-8.38281 2.75879-13 0-17.6475-14.3164-31.9775-31.959-32h-32v-64c0-35.3223-28.6777-64-64-64h-64v-64h-256v177.19c-39.3125 35.0342-64 86.0137-64 142.763v.046875c0 106 86 192 192 192h74.0898c70.3008 0 132.405-34.7725 170.04-88.25 24.6396-35.0195 52.1396-139.63 73.0703-186.75zM368 208c8.83105 0 16 7.16895 16 16s-7.16895 16-16 16h-12.1201c-28.5098 0-42.79 34.4697-22.6299 54.6299l8.58008 8.57031c2.89648 2.89648 4.68457 6.90137 4.68457 11.3174 0 8.83105-7.16992 16.002-16.002 16.002-4.41602 0-8.41602-1.79297-11.3125-4.68945l-8.57031-8.58008c-20.1602-20.1602-54.6299-5.87988-54.6299 22.6299v12.1201c0 8.83105-7.16895 16-16 16s-16-7.16895-16-16v-12.1201c0-28.5098-34.4697-42.79-54.6299-22.6299l-8.57031 8.58008c-2.89648 2.89648-6.90137 4.68457-11.3174 4.68457-8.83105 0-16.002-7.16992-16.002-16.002 0-4.41602 1.79297-8.41602 4.68945-11.3125l8.58008-8.57031c20.1602-20.1602 5.87988-54.6299-22.6299-54.6299h-12.1201c-8.83105 0-16-7.16895-16-16s7.16895-16 16-16h12.1201c28.5098 0 42.79-34.4697 22.6299-54.6299l-8.58008-8.57031c-2.89648-2.89648-4.68457-6.90137-4.68457-11.3174 0-8.83105 7.16992-16.002 16.002-16.002 4.41602 0 8.41602 1.79297 11.3125 4.68945l8.57031 8.58008c20.1602 20.1602 54.6299 5.87988 54.6299-22.6299v-12.1201c0-8.83105 7.16895-16 16-16s16 7.16895 16 16v12.1201c0 28.5098 34.4697 42.79 54.6299 22.6299l8.57031-8.58008c2.89648-2.89648 6.90137-4.68457 11.3174-4.68457 8.83105 0 16.002 7.16992 16.002 16.002 0 4.41602-1.79297 8.41602-4.68945 11.3125l-8.58008 8.57031c-20.1602 20.1602-5.87988 54.6299 22.6299 54.6299h12.1201z" glyph-name="head-side-virus" unicode="&#xe064;"/><glyph d="M570.69 211.73c2.9082-3.21777 4.83887-7.36914 5.30957-11.9209-.388672-3.95801-1.85742-7.64648-4.08984-10.6895l-21.4102-23.8105c-3.20117-2.90527-7.33496-4.83594-11.8701-5.30957-3.9668.40625-7.66406 1.88379-10.7197 4.12012l-15.9102 14v-210.12c0-17.6611-14.3389-32-32-32h-383.91c-17.6611 0-32 14.3389-32 32v210.11l-15.8994-14c-3.04297-2.23926-6.73047-3.71484-10.6904-4.11035-4.57715.460938-8.75586 2.38867-12 5.2998l-21.4102 23.79c-2.37695 2.95605-3.87891 6.67773-4.08984 10.71.241211 4.62402 2.20312 8.8125 5.25977 11.9004l256 226c6.28027 5.68945 18.21 10.2998 26.7402 10.2998s20.5-4.61035 26.7803-10.2998l101.22-89.3701v51.6699c0 8.83105 7.16895 16 16 16h64c8.83105 0 16-7.16895 16-16v-136.44zM288 272c-35.3223 0-64-28.6777-64-64s28.6777-64 64-64 64 28.6777 64 64-28.6777 64-64 64zM400 0c8.83105 0 16 7.16895 16 16 0 52.9834-43.0166 96-96 96h-64c-52.9834 0-96-43.0166-96-96 0-8.83105 7.16895-16 16-16h224z" glyph-name="house-user" horiz-adv-x="576" unicode="&#xe065;"/><glyph d="M272 160v-128h-176c-17.6611 0-32 14.3389-32 32v164.12l-21.6602-19.1201c-2.5957-2.02832-5.83691-3.30469-9.33984-3.48047-4.15527.22168-7.91113 2.00684-10.6602 4.78027l-18.79 21.3105c-2.06836 2.59668-3.37207 5.8584-3.5498 9.38965.234375 4.12598 2.01758 7.85352 4.78027 10.5801l211.8 187.5c5.54004 4.91992 16.0703 8.91992 23.4697 8.91992 7.40039 0 17.9502-4 23.4502-8.91992l88.5-78.3799v39.2998c0 8.83105 7.16895 16 16 16h32c8.83105 0 16-7.16895 16-16v-96l59.25-52.3896c2.74609-2.74707 4.5166-6.48145 4.75-10.6104-.186523-3.56445-1.51172-6.85449-3.61035-9.46973l-6.64941-7.53027h-136.94c-17.7998 0-33.6895-8.24023-44.7998-21.1201v37.1201c0 8.83105-7.16895 16-16 16h-64c-8.83105 0-16-7.16895-16-16v-64c0-8.83105 7.16895-16 16-16h64zM629.33 0c5.88867 0 10.6699-4.78125 10.6699-10.6699v-10.6602c-.0820312-23.4883-19.1201-42.5498-42.5996-42.6699h-298.801c-23.4795.120117-42.5176 19.1816-42.5996 42.6699v10.6602c0 5.88867 4.78125 10.6699 10.6699 10.6699h37.3301v160c0 17.6699 12.8896 32 28.7998 32h230.4c15.9102 0 28.7998-14.3301 28.7998-32v-160h37.3301zM544 0v144h-192v-144h192z" glyph-name="laptop-house" horiz-adv-x="640" unicode="&#xe066;"/><glyph d="M344 297.32c-6.99512 4.2207-15.291 6.65039-24.0498 6.65039s-16.9551-2.42969-23.9502-6.65039v134.68c0 8.83105 7.16895 16 16 16h16c8.83105 0 16-7.16895 16-16v-134.68zM195.54 3.54004c8.44824-8.67969 20.2178-14.0645 33.2754-14.0645 2.87988 0 5.69922.261719 8.43457.764648-13.043-16.7764-31.3789-29.1445-52.5-34.75l-59.5-15.8701c-62.75-16.8799-125.25 27.3799-125.25 88.6299 0 .0820312.0126953.125.0126953.207031 0 10.1719 1.3457 20.0322 3.86719 29.4131 22.0361 82.46 57.0371 160.927 102 231 22.1201 34.6299 36.1201 63.1299 80.1201 63.1299 38.6201 0 70-29.3799 70-65.75v-27.6797c-7.62012 5.0918-16.832 8.08496-26.6768 8.08496-26.4922 0-48-21.5088-48-48 0-13.3232 5.43945-25.3848 14.2168-34.085l8.58008-8.57031h-12.1201c-26.4922 0-48-21.5078-48-48s21.5078-48 48-48h12.1201l-8.58008-8.58008c-8.67383-8.69531-14.0391-20.707-14.0391-33.9473s5.36523-25.2363 14.0391-33.9326zM421.83 26.1699c-2.89648-2.89648-6.90137-4.68945-11.3174-4.68945s-8.41602 1.79297-11.3125 4.68945l-8.57031 8.57031c-20.1602 20.1602-54.6299 5.87988-54.6299-22.6201v-12.1201c0-8.83105-7.16895-16-16-16s-16 7.16895-16 16v12.1201c0 28.5-34.4697 42.7803-54.6299 22.6201l-8.57031-8.57031c-2.9082-2.99609-6.98242-4.85449-11.4834-4.85449-8.83105 0-16 7.16992-16 16 0 4.49902 1.86035 8.56641 4.85352 11.4746l8.58008 8.58008c20.1602 20.1602 5.87988 54.6299-22.6299 54.6299h-12.1201c-8.83105 0-16 7.16895-16 16s7.16895 16 16 16h12.1201c28.5098 0 42.79 34.4697 22.6299 54.6201l-8.58008 8.58008c-2.89648 2.89648-4.68457 6.90137-4.68457 11.3174 0 8.83105 7.16992 16.002 16.002 16.002 4.41602 0 8.41602-1.79297 11.3125-4.68945l8.57031-8.58008c20.1602-20.1602 54.6299-5.87988 54.6299 22.6299v12.1201c0 8.83105 7.16895 16 16 16s16-7.16895 16-16v-12.1201c0-28.5098 34.4697-42.79 54.6299-22.6299l8.57031 8.58008c2.89648 2.89648 6.90137 4.68457 11.3174 4.68457 8.83105 0 16.002-7.16992 16.002-16.002 0-4.41602-1.79297-8.41602-4.68945-11.3125l-8.58008-8.58008c-20.1602-20.1504-5.87988-54.6201 22.6299-54.6201h12.1201c8.83105 0 16-7.16895 16-16s-7.16895-16-16-16h-12.1201c-28.5098 0-42.79-34.4697-22.6299-54.6299l8.58008-8.58008c2.89355-2.89551 4.68457-6.89844 4.68457-11.3125 0-4.41309-1.79102-8.41211-4.68457-11.3076zM288 144c8.83105 0 16 7.16895 16 16s-7.16895 16-16 16-16-7.16895-16-16 7.16895-16 16-16zM352 80c8.83105 0 16 7.16895 16 16s-7.16895 16-16 16-16-7.16895-16-16 7.16895-16 16-16zM636.12 57.8701c2.52148-9.38086 3.87988-19.2021 3.87988-29.374v-.246094c0-61.25-62.5-105.51-125.25-88.6299l-59.5 15.8701c-21.1211 5.60547-39.457 17.9736-52.5 34.75 2.77246-.50293 5.59766-.761719 8.51465-.761719 26.3262 0 47.7002 21.374 47.7002 47.7002 0 13.4287-5.56152 25.5693-14.5049 34.2412l-8.58008 8.58008h12.1201c26.4922 0 48 21.5078 48 48s-21.5078 48-48 48h-12.1201l8.58008 8.53027c8.77734 8.7002 14.1602 20.7393 14.1602 34.0615 0 26.4922-21.5078 48-48 48-9.84375 0-19-2.96973-26.6201-8.06152v27.7197c0 36.3701 31.3799 65.75 70 65.75 44 0 58-28.5 80.1201-63.1299 44.9629-70.0732 79.9639-148.54 102-231z" glyph-name="lungs-virus" horiz-adv-x="640" unicode="&#xe067;"/><glyph d="M96 320c-35.3223 0-64 28.6777-64 64s28.6777 64 64 64 64-28.6777 64-64-28.6777-64-64-64zM96 143.92c0-.0400391-.0117188-.078125-.0117188-.119141 0-12.5332 5.24219-23.8516 13.6514-31.8809l50.3604-47.5303v-96.3896c0-17.6611-14.3389-32-32-32h-64c-17.6611 0-32 14.3389-32 32v128c-17.6611 0-32 14.3389-32 32v96c0 35.3223 28.6777 64 64 64h64c26.9717-.0253906 50.0303-16.7598 59.3799-40.4297-1.83984-1.26074-3.95996-2.02051-5.61035-3.57031l-72.1299-68.0801c-8.40918-8.03418-13.6396-19.3555-13.6396-31.8926v-.107422zM480 320c-35.3223 0-64 28.6777-64 64s28.6777 64 64 64 64-28.6777 64-64-28.6777-64-64-64zM512 288c35.3223 0 64-28.6777 64-64v-96c0-17.6611-14.3389-32-32-32v-128c0-17.6611-14.3389-32-32-32h-64c-17.6611 0-32 14.3389-32 32v96.3799l50.3604 47.5498c8.4082 8.07617 13.6445 19.4336 13.6445 32.002 0 12.5674-5.23633 23.9219-13.6445 31.998l-72.1201 68.0605c-1.62012 1.58984-3.78027 2.31934-5.62012 3.58984 9.35352 23.666 32.4102 40.3965 59.3799 40.4199h64zM444.4 152.66c2.22461-2.24219 3.59961-5.33203 3.59961-8.7373 0-3.4043-1.375-6.49121-3.59961-8.73242l-72.1201-68.0703c-2.1543-2.05371-5.07227-3.31543-8.28027-3.31543-6.62305 0-12 5.37695-12 12v.0556641 36.1396h-128v-36.1396c0-.0185547-.00292969-.0361328-.00292969-.0546875 0-6.62305-5.37695-12-12-12-3.20801 0-6.12305 1.26074-8.27734 3.31445l-72.1201 68.0703c-2.22461 2.24121-3.59961 5.33203-3.59961 8.73633 0 3.40527 1.375 6.49121 3.59961 8.7334l72.1201 68.0703c2.1543 2.05273 5.07227 3.31445 8.28027 3.31445 6.62305 0 12-5.37695 12-12v-.0449219-36h128v36c0 .0117188.00292969.0224609.00292969.0341797 0 6.62305 5.37695 12 12 12 3.20801 0 6.12305-1.26074 8.27734-3.31445z" glyph-name="people-arrows" horiz-adv-x="576" unicode="&#xe068;"/><glyph d="M32.4805 300.12c-.258789 1.12109-.386719 2.2959-.386719 3.49512 0 2.94531.825195 5.7002 2.25586 8.04492l324.841-251.061-66.6006-116.54c-2.75684-4.82227-7.94141-8.05957-13.8896-8.05957h-65.5c-8.81641.0166016-15.9678 7.17676-15.9678 15.9971 0 1.53027.21582 3.01074.617188 4.41309l49 171.59h-102.85l-43.2002-57.5898c-2.91797-3.89648-7.5625-6.40723-12.7998-6.41016h-40c-8.82812.00292969-15.9941 7.16406-15.9941 15.9932 0 1.33691.165039 2.63574.474609 3.87695l31.5195 108.13zM633.82-10.0898c3.77148-2.92871 6.18164-7.51074 6.18164-12.6514 0-3.69531-1.25488-7.09863-3.3623-9.80859l-19.6396-25.2598c-2.92773-3.77246-7.51074-6.18262-12.6514-6.18262-3.69434 0-7.09863 1.25488-9.80859 3.3623l-588.36 454.72c-3.76855 2.92871-6.17578 7.50879-6.17578 12.6465 0 3.69727 1.25684 7.10352 3.36621 9.81348l19.6299 25.2598c2.92871 3.76855 7.50879 6.17676 12.6465 6.17676 3.69727 0 7.10254-1.25684 9.81348-3.36621l189.3-146.3-36.9395 129.29c-.398438 1.39551-.614258 2.86621-.614258 4.38965 0 8.8291 7.16602 15.9971 15.9941 16h65.5098c5.12988 0 11.3496-3.61035 13.9004-8.05957l105.09-183.94h114.3c35.3398 0 96-28.6602 96-64s-60.6602-64-96-64h-56.8604z" glyph-name="plane-slash" horiz-adv-x="640" unicode="&#xe069;"/><glyph d="M235.51 288.18c33.3369-.00195312 60.7559-25.6123 63.7305-58.1797l20.3701-224c.175781-1.93066.262695-3.82324.262695-5.7998 0-35.3203-28.6738-63.9961-63.9932-64h-192c-35.3223 0-64.0059 28.6143-64.0059 63.9365 0 1.97656.0898438 3.93262.265625 5.86328l20.3701 224c2.97461 32.5674 30.3936 58.1777 63.7305 58.1797h151.27zM239.88 114.85v26.6602c0 7.3623-5.97754 13.3398-13.3398 13.3398h-40v40c0 7.35742-5.97266 13.3301-13.3301 13.3301h-26.6699c-7.35742 0-13.3301-5.97266-13.3301-13.3301v-40h-40c-7.35742 0-13.3301-5.97266-13.3301-13.3291v-.0107422-26.6602c0-7.3584 5.97266-13.334 13.3301-13.3398h40v-40c0-7.35645 5.97266-13.3301 13.3301-13.3301h26.6699c7.35742 0 13.3301 5.97363 13.3301 13.3301v40h40c7.36035.00585938 13.334 5.98047 13.3398 13.3398zM379.19 354.12c2.89648-2.89648 4.68945-6.90137 4.68945-11.3174s-1.79297-8.41602-4.68945-11.3125l-22.6201-22.6201c-2.89648-2.89746-6.90137-4.68945-11.3174-4.68945s-8.41699 1.79199-11.3125 4.68945l-43.3105 43.3096h-66.75v-32h-128v96c0 17.6611 14.3389 32 32 32h64c17.6611 0 32-14.3389 32-32h66.75c17.6553-.00195312 33.6582-7.16016 45.2402-18.7393z" glyph-name="pump-medical" horiz-adv-x="384" unicode="&#xe06a;"/><glyph d="M235.63 288c.00390625 0 .0107422-.0634766.0146484-.0634766 33.3496 0 60.7754-25.5625 63.7354-58.1465l20.3604-224c.174805-1.92773.259766-3.81738.259766-5.79004 0-35.3223-28.6777-64-64-64h-192c-35.3193.00390625-63.9941 28.6172-63.9941 63.9365 0 1.97363.0888672 3.92578.263672 5.85352l20.3604 224c2.95996 32.584 30.3906 58.21 63.7402 58.21h151.26zM160 32c33.1201 0 60 26.3301 60 58.7305 0 25-35.6699 75.4697-52 97.2695-1.82422 2.43848-4.72559 4.01855-8.00293 4.01855-3.26758 0-6.17188-1.57129-7.99707-3.99902-16.2998-21.7998-52-72.2695-52-97.2695 0-32.4199 26.8799-58.75 60-58.75zM379.31 353.94c2.89746-2.89648 4.69043-6.90137 4.69043-11.3174s-1.79297-8.41699-4.69043-11.3135l-22.6191-22.6191c-2.89648-2.89746-6.90137-4.69043-11.3174-4.69043s-8.41699 1.79297-11.3135 4.69043l-43.3096 43.3096h-66.75v-32h-128v96c0 17.6611 14.3389 32 32 32h64c17.6611 0 32-14.3389 32-32h66.75c17.6582 0 33.666-7.1582 45.25-18.7402z" glyph-name="pump-soap" horiz-adv-x="384" unicode="&#xe06b;"/><glyph d="M224 256c8.83105 0 16-7.16895 16-16s-7.16895-16-16-16-16 7.16895-16 16 7.16895 16 16 16zM466.5 364.32c17.3359-7.24121 29.5-24.3428 29.5-44.291v-.0292969c0-221.3-135.91-344.61-221.59-380.32-5.67578-2.3584-11.9619-3.66016-18.4873-3.66016-6.52441 0-12.7471 1.30176-18.4229 3.66016-107 44.6006-221.5 181.82-221.5 380.32 0 .0166016-.03125.0107422-.03125.0263672 0 19.9707 12.2402 37.1055 29.6211 44.3037l192 80c5.75293 2.17188 12 3.46582 18.46 3.66992 6.45605-.208008 12.7012-1.50586 18.4502-3.67969zM384 192c8.83105 0 16 7.16895 16 16s-7.16895 16-16 16h-12.1201c-28.5098 0-42.79 34.4697-22.6299 54.6299l8.58008 8.57031c2.89648 2.89648 4.68457 6.90137 4.68457 11.3174 0 8.83105-7.16992 16.002-16.002 16.002-4.41602 0-8.41602-1.79297-11.3125-4.68945l-8.57031-8.58008c-20.1602-20.1602-54.6299-5.87988-54.6299 22.6299v12.1201c0 8.83105-7.16895 16-16 16s-16-7.16895-16-16v-12.1201c0-28.5098-34.4697-42.79-54.6299-22.6299l-8.57031 8.58008c-2.89648 2.89648-6.90137 4.68457-11.3174 4.68457-8.83105 0-16.002-7.16992-16.002-16.002 0-4.41602 1.79297-8.41602 4.68945-11.3125l8.58008-8.57031c20.1602-20.1602 5.87988-54.6299-22.6299-54.6299h-12.1201c-8.83105 0-16-7.16895-16-16s7.16895-16 16-16h12.1201c28.5098 0 42.79-34.4697 22.6299-54.6299l-8.58008-8.57031c-2.89648-2.89648-4.68457-6.90137-4.68457-11.3174 0-8.83105 7.16992-16.002 16.002-16.002 4.41602 0 8.41602 1.79297 11.3125 4.68945l8.57031 8.58008c20.1602 20.1602 54.6299 5.87988 54.6299-22.6299v-12.1201c0-8.83105 7.16895-16 16-16s16 7.16895 16 16v12.1201c0 28.5098 34.4697 42.79 54.6299 22.6299l8.57031-8.58008c2.89648-2.89648 6.90137-4.68457 11.3174-4.68457 8.83105 0 16.002 7.16992 16.002 16.002 0 4.41602-1.79297 8.41602-4.68945 11.3125l-8.58008 8.57031c-20.1602 20.1602-5.87988 54.6299 22.6299 54.6299h12.1201zM288 192c8.83105 0 16-7.16895 16-16s-7.16895-16-16-16-16 7.16895-16 16 7.16895 16 16 16z" glyph-name="shield-virus" unicode="&#xe06c;"/><glyph d="M32 32v32h448v-32c0-52.9834-43.0166-96-96-96h-256c-52.9834 0-96 43.0166-96 96zM496 160c8.83105 0 16-7.16895 16-16v-32c0-8.83105-7.16895-16-16-16h-480c-8.83105 0-16 7.16895-16 16v32c0 8.83105 7.16895 16 16 16h96v32h-64c-8.83105 0-16 7.16895-16 16v16c0 8.83105 7.16895 16 16 16h80c17.6611 0 32-14.3389 32-32v-48h64v188.21c0 46.4297 31.29 89.0801 76.8701 97.9297 6.15625 1.23926 12.4512 1.8877 18.9697 1.8877 53.0283 0 96.0879-43.0166 96.1602-96.0273v-16c0-8.83105-7.16895-16-16-16h-32c-8.83105 0-16 7.16895-16 16v16c0 17.6611-14.3389 32-32 32s-32-14.3389-32-32v-192h64v48c0 17.6611 14.3389 32 32 32h80c8.83105 0 16-7.16895 16-16v-16c0-8.83105-7.16895-16-16-16h-64v-32h96z" glyph-name="sink" unicode="&#xe06d;"/><glyph d="M416 256c52.9834 0 96-43.0166 96-96v-128c0-52.9834-43.0166-96-96-96h-320c-52.9834 0-96 43.0166-96 96v128c0 52.9834 43.0166 96 96 96h128c.0634766-24.6279 9.49707-47.1133 24.9102-64h-88.9102c-52.9834 0-96-43.0166-96-96s43.0166-96 96-96h192c.0703125 0 .171875-.0322266.242188-.0322266 52.873 0 95.7998 42.9268 95.7998 95.7998 0 41.3477-26.251 76.6123-62.9824 90.0225 19.0049 17.4219 30.9033 42.4307 30.9404 70.21zM320 192c-35.3223 0-64 28.6777-64 64s28.6777 64 64 64 64-28.6777 64-64-28.6777-64-64-64zM208 352c-26.4922 0-48 21.5078-48 48s21.5078 48 48 48 48-21.5078 48-48-21.5078-48-48-48zM384 384c-17.6611 0-32 14.3389-32 32s14.3389 32 32 32 32-14.3389 32-32-14.3389-32-32-32zM160 160h192c35.3223 0 64-28.6777 64-64s-28.6777-64-64-64h-192c-35.3223 0-64 28.6777-64 64s28.6777 64 64 64z" glyph-name="soap" unicode="&#xe06e;"/><glyph d="M398.5 257.09c21.1045-32.3291 33.501-71.1426 33.501-112.596 0-.165039-.00097656-.329102-.00097656-.494141 0-116-94.8701-209.77-211.28-208-113.96 1.78027-208.08 100.5-204.63 214.43 3.10156 100.915 78.4639 183.935 175.91 199.07v34.5h-32c-8.81836.0273438-15.9727 7.18164-16 16v32c.0273438 8.81836 7.18164 15.9727 16 16h128c8.83105 0 16-7.16895 16-16v-32c0-8.83105-7.16895-16-16-16h-32v-34.5c37.3506-5.76855 71.749-21.625 99.6904-44.5898l24.6797 24.6797c2.89648 2.89746 6.90137 4.69043 11.3174 4.69043s8.41602-1.79297 11.3125-4.69043l22.6797-22.6797c2.89746-2.89648 4.69043-6.90137 4.69043-11.3174s-1.79297-8.41602-4.69043-11.3125l-26.5898-26.5801zM204.37 70.4502l-49.1299.0400391c1.7998 15.6299 14.8496 36.2002 26.4102 51.2002 21.9092 30.0996 34.3496 45.7295 34.3496 81.3096 0 35.1504-12.5703 61-55.5703 61-47.9492 0-56.4297-32.9404-56.4297-60.2402v-4.06934c.0703125-4.46582 3.71484-8.07129 8.19629-8.07129.0449219 0 .0888672 0 .133789.00097656h24.9004c.0439453-.00097656.0859375.00097656.130859.00097656 4.48145 0 8.12891 3.60352 8.19824 8.06934v5.22949c0 15.2803 3.30078 22.6797 12.6904 22.6797 10.4199 0 12.21-7.34961 12.21-24.2695 0-25.0205-6.67969-33.1504-27.0996-62.3398-23.7803-33.96-35.6699-56.1504-38.4502-91.3701-.0273438-.388672-.0449219-.765625-.0449219-1.16113 0-9.08496 7.37598-16.46 16.46-16.46.0654297 0 .129883 0 .194336.00097656h82.8506c.0410156-.00097656.0800781.00097656.121094.00097656 4.48145 0 8.12891 3.60352 8.19922 8.06934v22.3096c-.0703125 4.46484-3.71582 8.07129-8.19727 8.07129-.0410156 0-.0820312-.00097656-.123047-.00097656zM344 95.6797v107.021c0 38.6602-19 61.2998-55.7998 61.2998-36.6201 0-56.2002-22.4902-56.2002-63.2197v-105.33c0-33.9307 11.1904-63.4502 54.7695-63.4502 44.9307 0 57.2305 28.5195 57.2305 63.6797zM287.87 226.27c10.0098 0 13.0195-8.05957 13-19.3291v-115.94c0-13.2695-3.36035-21.2695-13-21.2695s-13.2305 7.47949-13.2305 20.5898v115.949c0 12.5 3.82031 20 13.2305 20z" glyph-name="stopwatch-20" horiz-adv-x="448" unicode="&#xe06f;"/><glyph d="M17.8896 324.38l88.4707-68.3799h-74.2607c-25.5898 0-40.79 28.5-26.5898 49.7998zM576 34.5801l57.8301-44.6797c3.76562-2.92871 6.1709-7.50781 6.1709-12.6426 0-3.69434-1.25488-7.09863-3.36133-9.80762l-19.6396-25.2598c-2.92773-3.77539-7.5127-6.1875-12.6553-6.1875-3.69727 0-7.10352 1.25684-9.81445 3.36719l-588.351 454.72c-3.76562 2.92871-6.1709 7.50781-6.1709 12.6426 0 3.69434 1.25488 7.09766 3.36133 9.80762l19.6299 25.2695c2.92871 3.76855 7.50879 6.17676 12.6465 6.17676 3.69727 0 7.10254-1.25684 9.81348-3.36621l34.6904-26.8203 10.6592 16c5.71387 8.57715 15.4521 14.2002 26.5215 14.2002h.0888672 405.18c.00390625 0-.0107422.0322266-.00683594.0322266 11.1172 0 20.9248-5.64941 26.707-14.2324l85.29-128c14.1104-21.2998-1.08984-49.7998-26.5898-49.7998h-318.48l41.4004-32h53.0801v-41l128-99v140h64v-189.42zM320 64v26.8799l64-49.4697v-73.4102c0-17.6611-14.3389-32-32-32h-256c-17.6611 0-32 14.3389-32 32v256h64v-160h192z" glyph-name="store-alt-slash" horiz-adv-x="640" unicode="&#xe070;"/><glyph d="M121.51 64h226.91l157.33-128h-414.52c-16.8105 0-30.4004 14.2998-30.4004 32v196.8c5.02051-1.53516 10.2939-2.76074 15.5801-3.59961 5.62891-.791016 11.2549-1.19727 17.0996-1.2002 9.65723.157227 19.0283 1.47559 28 3.7998v-99.7998zM93.5098 192.09c-.0644531 0-.0566406-.00390625-.121094-.00390625-4.37402 0-8.67969.294922-12.8984.864258-58.9404 8.46973-87.0098 81.6094-56.4902 135l133.51-108.62c-16.71-16.5205-38.8994-27.2402-64-27.2402zM602.13-10.0898c3.59863-3.04297 5.86719-7.59961 5.86719-12.6758 0-3.6582-1.1875-7.04102-3.19727-9.78418l-18.6602-25.2598c-2.66211-3.74902-7.04102-6.17871-11.9854-6.17871-3.54785 0-6.80469 1.26074-9.34473 3.3584l-558.939 454.72c-3.59863 3.04297-5.86719 7.59961-5.86719 12.6758 0 3.6582 1.1875 7.04102 3.19727 9.78418l18.6602 25.2598c2.66016 3.74805 7.03711 6.17676 11.9785 6.17676 3.55176 0 6.81055-1.26367 9.35156-3.36621l33.6895-27.4004 9.38965 15.7803c5.16309 8.89941 14.7383 14.8848 25.7305 15h383.81c10.998-.109375 20.5781-6.09668 25.7402-15l61.6602-103.6c31.9404-53.6006 3.59961-127.99-56.0596-136.4-4.28027-.598633-8.55762-.90625-13-.910156-28.0303 0-52.9199 13-70.1104 33.1104-17.1104-20.1104-42-33.1104-70.1104-33.1104-8.83496.130859-17.3857 1.58594-25.4102 4.14062l137.82-112.11v79.6797c8.95801-2.36523 18.3291-3.6875 28-3.7998 5.9082.00683594 11.5957.412109 17.29 1.2002 5.31152.757812 10.584 1.9873 15.5703 3.59961v-130.21z" glyph-name="store-slash" horiz-adv-x="640" unicode="&#xe071;"/><glyph d="M64 256c0 10.8096.530273 21.3398 1.41992 31.6699l316-244.25c-4.17969-32.2002-12.8701-57.7197-22.1797-85.5498-4.19727-12.7002-16.1592-21.8701-30.2588-21.8701h-.121094-280.86c-8.79395.0429688-15.917 7.19824-15.917 16.002 0 1.74512.279297 3.4248.796875 4.99805 21.3701 64.1201 31.1201 85.75 31.1201 126.87v172.13zM633.82-10.0898c3.77148-2.92871 6.18164-7.51074 6.18164-12.6514 0-3.69531-1.25488-7.09863-3.3623-9.80859l-19.6396-25.2598c-2.92773-3.77246-7.51074-6.18262-12.6514-6.18262-3.69434 0-7.09863 1.25488-9.80859 3.3623l-588.36 454.72c-3.76855 2.92871-6.17578 7.50879-6.17578 12.6465 0 3.69727 1.25684 7.10352 3.36621 9.81348l19.6299 25.2598c2.92871 3.76855 7.50879 6.17676 12.6465 6.17676 3.69727 0 7.10254-1.25684 9.81348-3.36621l53.2803-41.1504c16.6299 27.7002 37.9297 44.5303 61.2598 44.5303h284.5c-36.8701-38.5-60.5-108.38-60.5-192v-73l50.4297-39c-11.4297 31.5996-18.4297 70-18.4297 112 0 106 43 192 96 192s96-86 96-192c0-92.3203-32.7197-168.91-76.1797-187.28zM512 192c17.6201 0 32 28.6299 32 64s-14.3701 64-32 64-32-28.6201-32-64 14.3701-64 32-64z" glyph-name="toilet-paper-slash" horiz-adv-x="640" unicode="&#xe072;"/><glyph d="M132.65 235.68c-10.3945-7.33496-23.1328-11.6836-36.8105-11.6836-35.2344 0-63.8398 28.6055-63.8398 63.8398v.164062c.0615234 7.80859 1.5625 15.3242 4.20996 22.2197zM173.09 173.4c-40.2002-21.9072-68.8896-62.1416-75.1797-109.4h-65.9102c-17.6611 0-32 14.3389-32 32v32c.0332031 35.3076 28.6924 63.9668 64 64h64c.0224609 0 .0537109.0078125.0771484.0078125 17.5605 0 33.4727-7.11035 45.0127-18.6074zM544 224c-35.3076.0332031-63.9668 28.6924-64 64 0 35.3223 28.6777 64 64 64s64-28.6777 64-64-28.6777-64-64-64zM500.56 92.8896l133.271-102.989c3.76562-2.92871 6.1709-7.50781 6.1709-12.6426 0-3.69434-1.25488-7.09863-3.36133-9.80762l-19.6396-25.2705c-2.92773-3.77051-7.51074-6.18066-12.6504-6.18066-3.69922 0-7.1084 1.25879-9.81934 3.37109l-588.351 454.72c-3.76562 2.92871-6.1709 7.50781-6.1709 12.6426 0 3.69434 1.25488 7.09766 3.36133 9.80762l19.6299 25.2695c2.92871 3.76855 7.50879 6.17676 12.6465 6.17676 3.69727 0 7.10254-1.25684 9.81348-3.36621l163.94-126.7c6.90918 55.25 53.46 98.0801 110.6 98.0801.0234375 0 .0458984.00097656.0703125.00097656 61.7754 0 111.93-50.1533 111.93-111.93v-.0712891c0-47.3096-29.54-86.9297-71-103.23l55.0898-42.5996c37.6797-6.53711 69.0986-31.4668 84.4697-65.2803zM128 44.79c0 59.79 45.7402 108.38 104 114.08l244.57-189c-3.99707-1.1582-8.21582-1.81152-12.5703-1.87012h-288c-26.4922 0-48 21.5078-48 48v28.79zM576 192c35.3076-.0332031 63.9668-28.6924 64-64v-32c0-17.6611-14.3389-32-32-32h-66c-6.21875 47.2666-34.8916 87.5146-75.0898 109.4 11.54 11.4971 27.4609 18.5996 45.0215 18.5996h.0683594 64z" glyph-name="users-slash" horiz-adv-x="640" unicode="&#xe073;"/><glyph d="M483.55 220.45c.180664.00292969.332031.00488281.512695.00488281 15.7021 0 28.4502-12.748 28.4502-28.4502s-12.748-28.4502-28.4502-28.4502c-.180664 0-.362305.00195312-.542969.00488281h-21.5391c-50.6807 0-76.0703-61.2793-40.2305-97.1191l15.25-15.2402c4.66602-5.06836 7.50879-11.8418 7.50879-19.2666 0-15.7021-12.748-28.4502-28.4502-28.4502-7.42578 0-14.1904 2.85059-19.2588 7.5166l-15.2402 15.2305c-35.8398 35.8398-97.1094 10.4492-97.1094-40.2305v-21.5195c0-15.7021-12.748-28.4502-28.4502-28.4502s-28.4502 12.748-28.4502 28.4502v21.5391c0 50.6807-61.2695 76.0703-97.1094 40.2305l-15.2402-15.25c-5.06836-4.66602-11.8418-7.50879-19.2666-7.50879-15.7021 0-28.4502 12.748-28.4502 28.4502 0 7.42578 2.85059 14.1904 7.5166 19.2588l15.2305 15.2402c35.8398 35.8398 10.4492 97.1191-40.2305 97.1191h-21.5498c-.180664-.00292969-.361328-.00488281-.542969-.00488281-15.7021 0-28.4502 12.748-28.4502 28.4502s12.748 28.4502 28.4502 28.4502c.181641 0 .362305-.00195312.542969-.00488281h21.5693c50.6807 0 76.0703 61.2695 40.2305 97.1094l-15.25 15.25c-4.73047 5.08008-7.61816 11.8994-7.61816 19.3818 0 15.6963 12.7432 28.4404 28.4395 28.4404 7.48535 0 14.2988-2.89844 19.3789-7.63184l15.2402-15.2305c35.8398-35.8291 97.1094-10.4492 97.1094 40.2305v21.5596c0 15.7021 12.748 28.4502 28.4502 28.4502s28.4502-12.748 28.4502-28.4502v-21.5498c0-50.6797 61.2695-76.0596 97.1094-40.2295l15.2402 15.2197c5.08008 4.7334 11.9023 7.62305 19.3867 7.62305 15.6963 0 28.4404-12.7432 28.4404-28.4395 0-7.48242-2.89648-14.2939-7.62695-19.374l-15.2305-15.25c-35.8398-35.8398-10.4492-97.1094 40.2305-97.1094h21.5498zM224 176c26.4922 0 48 21.5078 48 48s-21.5078 48-48 48-48-21.5078-48-48 21.5078-48 48-48zM304 120c13.2461 0 24 10.7539 24 24s-10.7539 24-24 24-24-10.7539-24-24 10.7539-24 24-24z" glyph-name="virus" unicode="&#xe074;"/><glyph d="M114 220.4c9.90039.0996094 19.7002 2.89941 28.0996 8l244.5-189c-21.1992-7.5-38.1992-26.8008-38.1992-53.4004v-21.5c0-15.7002-12.7002-28.4004-28.4004-28.4004s-28.5 12.7002-28.5 28.4004v21.5c0 50.7002-61.2998 76-97.0996 40.2002l-15.2002-15.2002c-.5-.599609-1.10059-1.09961-1.60059-1.59961-11.5-10.6006-29.5996-9.90039-40.1992 1.59961-10.6006 11.5-9.90039 29.5 1.59961 40.2002l15.2002 15.2998c35.8994 35.7998 10.5 97.0996-40.2002 97.0996h-21.5996c-15.7002 0-28.4004 12.7002-28.4004 28.4004s12.7002 28.4004 28.4004 28.4004h21.5996zM617-57.7998c-5.40039-7-15.5-8.2998-22.4004-2.90039l-588.399 454.7c-7 5.5-8.2002 15.5-2.7998 22.5l19.5996 25.2998c5.5 7 15.5 8.2002 22.5 2.7998l93.2002-72.0996c11.0996 11.0996 29.3994 11.5996 40.5.5l15.2998-15.2002c35.7998-35.8994 97.0996-10.5 97.0996 40.2002v21.5996c0 15.7002 12.7002 28.4004 28.4004 28.4004s28.4004-12.7002 28.5-28.5v-21.5996c0-50.7002 61.2998-76 97.0996-40.2002l15.2002 15.2002c10.9004 10.0996 27.7002 10.0996 38.6006 0 11.5996-10.7002 12.2998-28.7002 1.59961-40.2002l-15.2002-15.2998c-35.8994-35.8008-10.5-97.1006 40.2002-97.1006h21.5c15.7002 0 28.4004-12.7002 28.4004-28.3994 0-15.7002-12.7002-28.4004-28.4004-28.4004h-21.5c-30.5 0-51.2002-22.0996-55.4004-47.5l163.2-126c7-5.5 8.2002-15.5 2.7998-22.5zM335.4 220.5c.0996094 1.2002.599609 2.2998.5 3.5 0 26.5-21.5 48-48 48-5.2002-.0996094-10.5-1.09961-15.4004-2.90039z" glyph-name="virus-slash" horiz-adv-x="640" unicode="&#xe075;"/><glyph d="M624 96c8.83105 0 16-7.16895 16-16s-7.16895-16-16-16h-12.1201c-28.5098 0-42.79-34.4697-22.6299-54.6299l8.58008-8.57031c2.89648-2.89648 4.68457-6.90137 4.68457-11.3174 0-8.83105-7.16992-16.002-16.002-16.002-4.41602 0-8.41602 1.79297-11.3125 4.68945l-8.57031 8.58008c-20.1602 20.1602-54.6299 5.87988-54.6299-22.6299v-12.1201c0-8.83105-7.16895-16-16-16s-16 7.16895-16 16v12.1201c0 28.5098-34.4697 42.79-54.6299 22.6299l-8.57031-8.58008c-2.89648-2.89648-6.90137-4.68457-11.3174-4.68457-8.83105 0-16.002 7.16992-16.002 16.002 0 4.41602 1.79297 8.41602 4.68945 11.3125l8.58008 8.57031c20.1602 20.1602 5.87988 54.6299-22.6299 54.6299h-12.1201c-8.83105 0-16 7.16895-16 16s7.16895 16 16 16h12.1201c28.5098 0 42.79 34.4697 22.6299 54.6299l-8.58008 8.57031c-2.89648 2.89648-4.68457 6.90137-4.68457 11.3174 0 8.83105 7.16992 16.002 16.002 16.002 4.41602 0 8.41602-1.79297 11.3125-4.68945l8.57031-8.58008c20.1602-20.1602 54.6299-5.87988 54.6299 22.6299v12.1201c0 8.83105 7.16895 16 16 16s16-7.16895 16-16v-12.1201c0-28.5098 34.4697-42.79 54.6299-22.6299l8.57031 8.58008c2.89648 2.89648 6.90137 4.68457 11.3174 4.68457 8.83105 0 16.002-7.16992 16.002-16.002 0-4.41602-1.79297-8.41602-4.68945-11.3125l-8.58008-8.57031c-20.1602-20.1602-5.87988-54.6299 22.6299-54.6299h12.1201zM480 64c17.6611 0 32 14.3389 32 32s-14.3389 32-32 32-32-14.3389-32-32 14.3389-32 32-32zM346.51 234.67c-38.0195 0-57.0498-45.96-30.1699-72.8398l11.4297-11.4297c3.8623-3.8623 6.24609-9.20117 6.24609-15.0879 0-11.7744-9.55957-21.334-21.334-21.334-5.88672 0-11.2197 2.38965-15.082 6.25195l-11.4297 11.4297c-26.8398 26.8799-72.8398 7.83008-72.8398-30.1699v-16.1602c0-11.7725-9.55762-21.3301-21.3301-21.3301s-21.3301 9.55762-21.3301 21.3301v16.1602c0 38.0195-45.96 57.0498-72.8398 30.1699l-11.4297-11.4297c-3.8623-3.8623-9.20117-6.24609-15.0879-6.24609-11.7744 0-21.334 9.55957-21.334 21.334 0 5.88672 2.38965 11.2197 6.25195 15.082l11.4297 11.4297c26.8799 26.8398 7.83008 72.8398-30.1699 72.8398h-16.1602c-11.7725 0-21.3301 9.55762-21.3301 21.3301s9.55762 21.3301 21.3301 21.3301h16.1602c38.0195 0 57.0498 45.96 30.1699 72.8398l-11.4297 11.4404c-3.83008 3.85645-6.19043 9.17188-6.19043 15.0312 0 11.7725 9.55762 21.3301 21.3301 21.3301 5.86035 0 11.1729-2.36914 15.0303-6.20215l11.4297-11.4297c26.8398-26.8799 72.8398-7.83008 72.8398 30.1699v16.1602c0 11.7725 9.55762 21.3301 21.3301 21.3301s21.3301-9.55762 21.3301-21.3301v-16.1602c0-38.0195 45.96-57.0498 72.8398-30.1699l11.4297 11.4297c3.85742 3.83301 9.17578 6.19531 15.0361 6.19531 11.7725 0 21.3301-9.55762 21.3301-21.3291 0-5.85938-2.36621-11.1689-6.19629-15.0254l-11.4297-11.4404c-26.8799-26.8398-7.83008-72.8398 30.1699-72.8398h16.1602c11.7725 0 21.3301-9.55762 21.3301-21.3301s-9.55762-21.3301-21.3301-21.3301h-16.1602zM160 256c17.6611 0 32 14.3389 32 32s-14.3389 32-32 32-32-14.3389-32-32 14.3389-32 32-32zM240 224c8.83105 0 16 7.16895 16 16s-7.16895 16-16 16-16-7.16895-16-16 7.16895-16 16-16z" glyph-name="viruses" horiz-adv-x="640" unicode="&#xe076;"/><glyph d="M437.252 208.123c6.76562-10.1484 10.748-22.3994 10.748-35.5v-204.623c0-17.6611-14.3389-32-32-32h-192v224l73.8115 221.438c-21.7695-12.3281-47.0635-19.5205-73.8115-19.6729-26.748.150391-52.042 7.34277-73.8115 19.6699l56.9463-170.836-13.4922-40.4805c-1.05957-3.17969-1.64258-6.58496-1.64258-10.1191v-224h-160c-17.6611 0-32 14.3389-32 32v204.623c0 13.1006 3.98242 25.3516 10.748 35.5l53.252 79.877v128c0 17.6611 14.3389 32 32 32h32c4.91211-.00195312 9.50586-1.49512 13.3115-4.03125l25-16.6719c16.4814-11.0186 36.4971-17.4463 57.793-17.4463s41.1025 6.42773 57.584 17.4463l25 16.6719c3.80566 2.53613 8.39941 4.0293 13.3115 4.03125h32c17.6611 0 32-14.3389 32-32v-128zM131.312 76.6885c2.78125 2.87891 4.48828 6.80078 4.48828 11.1152 0 8.83105-7.16992 16-16 16-4.31445 0-8.23242-1.71094-11.1113-4.49219l-48-48c-2.78125-2.87891-4.48828-6.80078-4.48828-11.1152 0-8.83105 7.16992-16 16-16 4.31445 0 8.23242 1.71094 11.1113 4.49219zM387.312 28.6885c2.89746 2.89453 4.69043 6.89844 4.69043 11.3135s-1.79297 8.41504-4.69043 11.3096l-48 48c-2.87891 2.78125-6.80078 4.48828-11.1152 4.48828-8.83105 0-16-7.16992-16-16 0-4.31445 1.71094-8.23242 4.49219-11.1113l48-48c2.89453-2.89746 6.89844-4.69043 11.3135-4.69043s8.41504 1.79297 11.3096 4.69043z" glyph-name="vest" horiz-adv-x="448" unicode="&#xe085;"/><glyph d="M437.252 208.123c6.76562-10.1484 10.748-22.3994 10.748-35.5v-204.623c0-17.6611-14.3389-32-32-32h-192v224l73.8105 221.434c-21.7705-12.3252-47.0635-19.5156-73.8105-19.668-26.7471.154297-52.041 7.34668-73.8115 19.6738l56.9463-170.84-13.4922-40.4805c-1.05957-3.17969-1.64258-6.58496-1.64258-10.1191v-224h-160c-17.6611 0-32 14.3389-32 32v204.623c0 13.1006 3.98242 25.3516 10.748 35.5l53.252 79.877v128c0 17.6611 14.3389 32 32 32h32l.0283203-.0146484c4.91113 0 9.47949-1.47949 13.2832-4.0166l25-16.6719c16.4814-11.0186 36.4971-17.4463 57.793-17.4463s41.1025 6.42773 57.584 17.4463l25 16.6719c3.80371 2.53711 8.39551 4.03125 13.3066 4.03125h.00488281 32c17.6611 0 32-14.3389 32-32v-128zM63.5 175.516l15.5156-15.5156-15.5156-15.5156c-2.12402-2.16699-3.43066-5.1377-3.43066-8.4082 0-6.62891 5.38086-12.0107 12.0098-12.0107 3.2793 0 6.25293 1.31738 8.4209 3.4502l15.5 15.5 15.5-15.5c2.16797-2.13281 5.14551-3.44629 8.42383-3.44629 6.62891 0 12.0107 5.38184 12.0107 12.0098 0 3.27051-1.31055 6.23828-3.43457 8.40527l-15.5156 15.5156 15.5156 15.5156c2.12402 2.16699 3.43066 5.1377 3.43066 8.4082 0 6.62891-5.38086 12.0107-12.0098 12.0107-3.2793 0-6.25293-1.31738-8.4209-3.4502l-15.5-15.5-15.5 15.5c-2.16797 2.13281-5.14551 3.44629-8.42383 3.44629-6.62891 0-12.0107-5.38184-12.0107-12.0098 0-3.27051 1.31055-6.23828 3.43457-8.40527zM96-8c22.0762 0 40 17.9238 40 40s-17.9238 40-40 40-40-17.9238-40-40 17.9238-40 40-40zM359.227 112.215c13.6875.0966797 24.7734 11.2139 24.7734 24.9229 0 .757812-.0341797 1.50684-.0996094 2.24707-1.16406 12.8008-12.5742 22.1113-25.4004 22.0762l-5.05078-.0371094.0371094 5.05762c.0722656 12.7998-9.26758 24.2568-22.0566 25.4189-.742188.0664062-1.46973.0947266-2.22949.0947266-13.7012 0-24.8418-11.0527-24.9854-24.7207l-.214844-48.5742c0-.00976562-.00097656-.0195312-.00097656-.0292969 0-3.68164 2.98926-6.6709 6.6709-6.6709h.0302734z" glyph-name="vest-patches" horiz-adv-x="448" unicode="&#xe086;"/><glyph d="M502.05 390.4l-214.05-214.04v-192.36h56c22.0898 0 40-17.9102 40-40 0-4.41992-3.58008-8-8-8h-240c-4.41992 0-8 3.58008-8 8 0 22.0898 17.9102 40 40 40h56v192.36l-214.05 214.04c-21.25 21.2598-6.2002 57.5996 23.8496 57.5996h444.4c30.0498 0 45.0996-36.3398 23.8496-57.5996z" glyph-name="glass-martini" unicode="&#xf000;"/><glyph d="M470.38 446.49c3.03613.957031 6.26953 1.47949 9.62012 1.47949 17.6514 0 31.9834-14.3223 32-31.9697v-352c0-35.3496-43-64-96-64s-96 28.6602-96 64 43 64 96 64c11.0361-.0605469 21.7158-1.4248 32-3.92969v184.609l-256-75v-233.68c0-35.3398-43-64-96-64s-96 28.6602-96 64 43 64 96 64c11.0352-.0625 21.7139-1.42285 32-3.91992v261.41c.00878906 14.3125 9.43359 26.4336 22.4102 30.5098z" glyph-name="music" unicode="&#xf001;"/><glyph d="M505 5.2998c9.2998-9.39941 9.2998-24.5996-.0996094-34l-28.3008-28.2998c-9.2998-9.40039-24.5-9.40039-33.8994 0l-99.7002 99.7002c-4.5 4.5-7 10.5996-7 17v16.2998c-35.2998-27.5996-79.7002-44-128-44-114.9 0-208 93.0996-208 208s93.0996 208 208 208 208-93.0996 208-208c0-48.2998-16.4004-92.7002-44-128h16.2998c6.40039 0 12.5-2.5 17-7zM208 112c70.7998 0 128 57.2998 128 128 0 70.7998-57.2998 128-128 128-70.7998 0-128-57.2998-128-128 0-70.7998 57.2998-128 128-128z" glyph-name="search" unicode="&#xf002;"/><glyph d="M462.3 385.4c62.7998-53.6006 66.1006-149.801 9.7998-207.9l-193.5-199.8c-12.5-12.9004-32.7998-12.9004-45.2998 0l-193.5 199.8c-56.2002 58.0996-52.8994 154.3 9.90039 207.9 54.7998 46.6992 136.399 38.2998 186.6-13.6006l19.7002-20.2998 19.7002 20.2998c50.2998 51.9004 131.8 60.2998 186.6 13.6006z" glyph-name="heart" unicode="&#xf004;"/><glyph d="M259.3 430.2c11.7998 23.8994 45.7002 23.5996 57.4004 0l65.2998-132.4 146.1-21.2998c26.2002-3.7998 36.7002-36.0996 17.7002-54.5996l-105.7-103 25-145.5c4.5-26.3008-23.1992-45.9004-46.3994-33.7002l-130.7 68.7002-130.7-68.7002c-23.2002-12.2998-50.8994 7.39941-46.3994 33.7002l25 145.5-105.7 103c-19 18.5-8.5 50.7998 17.7002 54.5996l146.1 21.2998z" glyph-name="star" horiz-adv-x="576" unicode="&#xf005;"/><glyph d="M224 192c-70.7002 0-128 57.2998-128 128s57.2998 128 128 128 128-57.2998 128-128-57.2998-128-128-128zM313.6 160c74.2002 0 134.4-60.2002 134.4-134.4v-41.5996c0-26.5-21.5-48-48-48h-352c-26.5 0-48 21.5-48 48v41.5996c0 74.2002 60.2002 134.4 134.4 134.4h16.6992c22.3008-10.2002 46.9004-16 72.9004-16s50.7002 5.7998 72.9004 16h16.6992z" glyph-name="user" horiz-adv-x="448" unicode="&#xf007;"/><glyph d="M488 384c13.2998 0 24-10.7002 24-24v-336c0-13.2998-10.7002-24-24-24h-8v20c0 6.59961-5.40039 12-12 12h-40c-6.59961 0-12-5.40039-12-12v-20h-320v20c0 6.59961-5.40039 12-12 12h-40c-6.59961 0-12-5.40039-12-12v-20h-8c-13.2998 0-24 10.7002-24 24v336c0 13.2998 10.7002 24 24 24h8v-20c0-6.59961 5.40039-12 12-12h40c6.59961 0 12 5.40039 12 12v20h320v-20c0-6.59961 5.40039-12 12-12h40c6.59961 0 12 5.40039 12 12v20h8zM96 76v40c0 6.59961-5.40039 12-12 12h-40c-6.59961 0-12-5.40039-12-12v-40c0-6.59961 5.40039-12 12-12h40c6.59961 0 12 5.40039 12 12zM96 172v40c0 6.59961-5.40039 12-12 12h-40c-6.59961 0-12-5.40039-12-12v-40c0-6.59961 5.40039-12 12-12h40c6.59961 0 12 5.40039 12 12zM96 268v40c0 6.59961-5.40039 12-12 12h-40c-6.59961 0-12-5.40039-12-12v-40c0-6.59961 5.40039-12 12-12h40c6.59961 0 12 5.40039 12 12zM368 60v96c0 6.59961-5.40039 12-12 12h-200c-6.59961 0-12-5.40039-12-12v-96c0-6.59961 5.40039-12 12-12h200c6.59961 0 12 5.40039 12 12zM368 228v96c0 6.59961-5.40039 12-12 12h-200c-6.59961 0-12-5.40039-12-12v-96c0-6.59961 5.40039-12 12-12h200c6.59961 0 12 5.40039 12 12zM480 76v40c0 6.59961-5.40039 12-12 12h-40c-6.59961 0-12-5.40039-12-12v-40c0-6.59961 5.40039-12 12-12h40c6.59961 0 12 5.40039 12 12zM480 172v40c0 6.59961-5.40039 12-12 12h-40c-6.59961 0-12-5.40039-12-12v-40c0-6.59961 5.40039-12 12-12h40c6.59961 0 12 5.40039 12 12zM480 268v40c0 6.59961-5.40039 12-12 12h-40c-6.59961 0-12-5.40039-12-12v-40c0-6.59961 5.40039-12 12-12h40c6.59961 0 12 5.40039 12 12z" glyph-name="film" unicode="&#xf008;"/><glyph d="M296 416h192c13.2549 0 24-10.7451 24-24v-160c0-13.2549-10.7451-24-24-24h-192c-13.2549 0-24 10.7451-24 24v160c0 13.2549 10.7451 24 24 24zM216 416c13.2549 0 24-10.7451 24-24v-160c0-13.2549-10.7451-24-24-24h-192c-13.2549 0-24 10.7451-24 24v160c0 13.2549 10.7451 24 24 24h192zM0 152c0 13.2549 10.7451 24 24 24h192c13.2549 0 24-10.7451 24-24v-160c0-13.2549-10.7451-24-24-24h-192c-13.2549 0-24 10.7451-24 24v160zM296-32c-13.2549 0-24 10.7451-24 24v160c0 13.2549 10.7451 24 24 24h192c13.2549 0 24-10.7451 24-24v-160c0-13.2549-10.7451-24-24-24h-192z" glyph-name="th-large" unicode="&#xf009;"/><glyph d="M149.333 392v-80c0-13.2549-10.7451-24-24-24h-101.333c-13.2549 0-24 10.7451-24 24v80c0 13.2549 10.7451 24 24 24h101.333c13.2549 0 24-10.7451 24-24zM330.667 152c0-13.2549-10.7451-24-24.001-24h-101.333c-13.2549 0-24 10.7451-24 24v80c0 13.2549 10.7451 24 24 24h101.334c13.2549 0 24-10.7451 24-24v-80zM362.667 392c0 13.2549 10.7451 24 24 24h101.333c13.2549 0 24-10.7451 24-24v-80c0-13.2549-10.7451-24-24-24h-101.333c-13.2549 0-24 10.7451-24 24v80zM330.667 312c0-13.2549-10.7451-24-24.001-24h-101.333c-13.2549 0-24 10.7451-24 24v80c0 13.2549 10.7451 24 24 24h101.334c13.2549 0 24-10.7451 24-24v-80zM125.333 256c13.2549 0 24-10.7451 24-24v-80c0-13.2549-10.7451-24-24-24h-101.333c-13.2549 0-24 10.7451-24 24v80c0 13.2549 10.7451 24 24 24h101.333zM0 72c0 13.2549 10.7451 24 24 24h101.333c13.2549 0 24-10.7451 24-24v-80c0-13.2549-10.7451-24-24-24h-101.333c-13.2549 0-24 10.7451-24 24v80zM386.667 128c-13.2549 0-24 10.7451-24 24v80c0 13.2549 10.7451 24 24 24h101.333c13.2549 0 24-10.7451 24-24v-80c0-13.2549-10.7451-24-24-24h-101.333zM386.667-32c-13.2549 0-24 10.7451-24 24v80c0 13.2549 10.7451 24 24 24h101.333c13.2549 0 24-10.7451 24-24v-80c0-13.2549-10.7451-24-24-24h-101.333zM181.333 72c0 13.2549 10.7451 24 24 24h101.333c13.2549 0 24-10.7451 24-24v-80c0-13.2549-10.7451-24-24-24h-101.333c-13.2549 0-24 10.7451-24 24v80z" glyph-name="th" unicode="&#xf00a;"/><glyph d="M149.333 232v-80c0-13.2549-10.7451-24-24-24h-101.333c-13.2549 0-24 10.7451-24 24v80c0 13.2549 10.7451 24 24 24h101.333c13.2549 0 24-10.7451 24-24zM0 72c0 13.2549 10.7451 24 24 24h101.333c13.2549 0 24-10.7451 24-24v-80c0-13.2549-10.7451-24-24-24h-101.333c-13.2549 0-24 10.7451-24 24v80zM125.333 416c13.2549 0 24-10.7451 24-24v-80c0-13.2549-10.7451-24-24-24h-101.333c-13.2549 0-24 10.7451-24 24v80c0 13.2549 10.7451 24 24 24h101.333zM205.333-32c-13.2549 0-24 10.7451-24 24v80c0 13.2549 10.7451 24 24 24h282.667c13.2549 0 24-10.7451 24-24v-80c0-13.2549-10.7451-24-24-24h-282.667zM181.333 392c0 13.2549 10.7451 24 24 24h282.667c13.2549 0 24-10.7451 24-24v-80c0-13.2549-10.7451-24-24-24h-282.667c-13.2549 0-24 10.7451-24 24v80zM205.333 128c-13.2549 0-24 10.7451-24 24v80c0 13.2549 10.7451 24 24 24h282.667c13.2549 0 24-10.7451 24-24v-80c0-13.2549-10.7451-24-24-24h-282.667z" glyph-name="th-list" unicode="&#xf00b;"/><glyph d="M173.898 8.5957l-166.4 166.4c-9.99707 9.99707-9.99707 26.2061 0 36.2041l36.2031 36.2041c9.99707 9.99805 26.207 9.99805 36.2041 0l112.095-112.095 240.095 240.095c9.99707 9.99707 26.207 9.99707 36.2041 0l36.2031-36.2041c9.99707-9.99707 9.99707-26.2061 0-36.2041l-294.4-294.401c-9.99805-9.99707-26.207-9.99707-36.2031.00097656z" glyph-name="check" unicode="&#xf00c;"/><glyph d="M242.72 192l100.07-100.07c12.2803-12.29 12.2803-32.1992 0-44.4795l-22.2402-22.2402c-12.2803-12.2803-32.2002-12.2803-44.4795 0l-100.07 100.07-100.07-100.07c-12.2793-12.2803-32.1992-12.2803-44.4795 0l-22.2402 22.2402c-12.2803 12.29-12.2803 32.2002 0 44.4795l100.07 100.07-100.07 100.07c-12.2803 12.29-12.2803 32.1992 0 44.4795l22.2402 22.2402c12.29 12.2803 32.2002 12.2803 44.4795 0l100.07-100.07 100.07 100.07c12.29 12.2803 32.1992 12.2803 44.4795 0l22.2402-22.2402c12.2803-12.29 12.2803-32.2002 0-44.4795z" glyph-name="times" horiz-adv-x="352" unicode="&#xf00d;"/><glyph d="M304 256v-32c0-6.59961-5.40039-12-12-12h-56v-56c0-6.59961-5.40039-12-12-12h-32c-6.59961 0-12 5.40039-12 12v56h-56c-6.59961 0-12 5.40039-12 12v32c0 6.59961 5.40039 12 12 12h56v56c0 6.59961 5.40039 12 12 12h32c6.59961 0 12-5.40039 12-12v-56h56c6.59961 0 12-5.40039 12-12zM505-28.7002l-28.2998-28.2998c-9.40039-9.40039-24.6006-9.40039-33.9004 0l-99.7998 99.7002c-4.5 4.5-7 10.5996-7 17v16.2998c-35.2998-27.5996-79.7002-44-128-44-114.9 0-208 93.0996-208 208s93.0996 208 208 208 208-93.0996 208-208c0-48.2998-16.4004-92.7002-44-128h16.2998c6.40039 0 12.5-2.5 17-7l99.7002-99.7002c9.2998-9.39941 9.2998-24.5996 0-34zM344 240c0 75.2002-60.7998 136-136 136s-136-60.7998-136-136 60.7998-136 136-136 136 60.7998 136 136z" glyph-name="search-plus" unicode="&#xf00e;"/><glyph d="M304 256v-32c0-6.59961-5.40039-12-12-12h-168c-6.59961 0-12 5.40039-12 12v32c0 6.59961 5.40039 12 12 12h168c6.59961 0 12-5.40039 12-12zM505-28.7002l-28.2998-28.2998c-9.40039-9.40039-24.6006-9.40039-33.9004 0l-99.7998 99.7002c-4.5 4.5-7 10.5996-7 17v16.2998c-35.2998-27.5996-79.7002-44-128-44-114.9 0-208 93.0996-208 208s93.0996 208 208 208 208-93.0996 208-208c0-48.2998-16.4004-92.7002-44-128h16.2998c6.40039 0 12.5-2.5 17-7l99.7002-99.7002c9.2998-9.39941 9.2998-24.5996 0-34zM344 240c0 75.2002-60.7998 136-136 136s-136-60.7998-136-136 60.7998-136 136-136 136 60.7998 136 136z" glyph-name="search-minus" unicode="&#xf010;"/><glyph d="M400 393.9c63-45 104-118.601 104-201.9 0-136.8-110.8-247.7-247.5-248-136.5-.299805-248.3 111-248.5 247.6-.0996094 83.3008 40.9004 157.101 103.8 202.2 11.7002 8.2998 28 4.7998 35-7.7002l15.7998-28.0996c5.90039-10.5 3.10059-23.7998-6.59961-31-41.5-30.7998-68-79.5996-68-134.9-.0996094-92.2998 74.5-168.1 168-168.1 91.5996 0 168.6 74.2002 168 169.1-.299805 51.8008-24.7002 101.801-68.0996 134-9.7002 7.2002-12.4004 20.5-6.5 30.9004l15.7998 28.0996c7 12.4004 23.2002 16.1006 34.7998 7.80078zM296 184c0-13.2998-10.7002-24-24-24h-32c-13.2998 0-24 10.7002-24 24v240c0 13.2998 10.7002 24 24 24h32c13.2998 0 24-10.7002 24-24v-240z" glyph-name="power-off" unicode="&#xf011;"/><glyph d="M216 160c8.83984 0 16-7.16016 16-16v-192c0-8.83984-7.16016-16-16-16h-48c-8.83984 0-16 7.16016-16 16v192c0 8.83984 7.16016 16 16 16h48zM88 64c8.83984 0 16-7.16016 16-16v-96c0-8.83984-7.16016-16-16-16h-48c-8.83984 0-16 7.16016-16 16v96c0 8.83984 7.16016 16 16 16h48zM344 256c8.83984 0 16-7.16016 16-16v-288c0-8.83984-7.16016-16-16-16h-48c-8.83984 0-16 7.16016-16 16v288c0 8.83984 7.16016 16 16 16h48zM472 352c8.83984 0 16-7.16016 16-16v-384c0-8.83984-7.16016-16-16-16h-48c-8.83984 0-16 7.16016-16 16v384c0 8.83984 7.16016 16 16 16h48zM600 448c8.83984 0 16-7.16016 16-16v-480c0-8.83984-7.16016-16-16-16h-48c-8.83984 0-16 7.16016-16 16v480c0 8.83984 7.16016 16 16 16h48z" glyph-name="signal" horiz-adv-x="640" unicode="&#xf012;"/><glyph d="M487.4 132.3c4.89941-2.7998 7.09961-8.59961 5.59961-14.0996-11.0996-35.7002-30-67.9004-54.7002-94.6006-3.7998-4.19922-9.89941-5.09961-14.7998-2.2998l-42.5996 24.6006c-18-15.3008-38.6006-27.2002-60.8008-35.1006v-49.2002c0-5.59961-3.89941-10.5-9.39941-11.6992-34.9004-7.80078-72.5-8.2002-109.2 0-5.5 1.19922-9.40039 6.09961-9.40039 11.6992v49.2002c-22.2998 7.7998-42.8994 19.7002-60.7998 35.1006l-42.5996-24.6006c-4.7998-2.7998-11-1.7998-14.7998 2.2998-24.7002 26.8008-43.6006 59-54.7002 94.6006-1.60059 5.39941.599609 11.2002 5.5 14l42.5996 24.5996c-4.2998 23.2002-4.2998 47 0 70.2002l-42.5996 24.5996c-4.90039 2.80078-7.2002 8.60059-5.5 14 11.0996 35.7002 30 67.9004 54.7002 94.6006 3.7998 4.2002 9.89941 5.09961 14.7998 2.2998l42.5-24.5996c18 15.2998 38.5996 27.1992 60.7998 35.0996v49.2002c0 5.59961 3.90039 10.5 9.40039 11.7002 34.8994 7.7998 72.5 8.19922 109.199 0 5.5-1.2002 9.40039-6.10059 9.40039-11.7002v-49.1006c22.2998-7.7998 42.9004-19.6992 60.7998-35.0996l42.6006 24.5996c4.7998 2.80078 11 1.80078 14.7998-2.2998 24.7002-26.7998 43.5996-59 54.7002-94.5996 1.59961-5.40039-.600586-11.2002-5.5-14l-42.6006-24.6006c4.2998-23.1992 4.2998-47 0-70.1992zM256 112c44.0996 0 80 35.9004 80 80s-35.9004 80-80 80-80-35.9004-80-80 35.9004-80 80-80z" glyph-name="cog" unicode="&#xf013;"/><glyph d="M280.37 299.74c2.09082 1.68555 4.76562 2.69434 7.6582 2.69434s5.55078-1.00879 7.6416-2.69434l184.33-151.74v-164c0-8.83105-7.16895-16-16-16l-112.02.30957c-8.83105 0-16.001 7.16895-16.001 15.999 0 .0175781 0 .0341797.00097656.0517578v95.6396c0 8.83105-7.16992 16-16 16h-64c-8.83105 0-16-7.16895-16-16v-95.71c0-8.80371-7.12695-15.9561-15.9209-16l-112.06-.290039c-8.83105 0-16 7.16895-16 16v163.89zM571.6 196.53c2.70703-2.20117 4.42578-5.56152 4.42578-9.31836 0-2.88867-1.02246-5.54004-2.72559-7.6123l-25.5-31c-2.20117-2.66309-5.53418-4.35059-9.25684-4.35059-2.90332 0-5.56641 1.0332-7.64258 2.75098l-235.23 193.74c-2.09082 1.68555-4.7666 2.69434-7.6582 2.69434-2.89258 0-5.55078-1.00879-7.6416-2.69434l-235.22-193.74c-2.0752-1.71387-4.73926-2.75586-7.63867-2.75586-3.73242 0-7.07031 1.70898-9.27148 4.38574l-25.5 31c-1.71875 2.07617-2.7627 4.74414-2.7627 7.64648 0 3.72266 1.69824 7.05176 4.3623 9.25391l253.13 208.47c8.29102 6.82227 18.9668 10.9209 30.5312 10.9209s22.1787-4.09863 30.4688-10.9209l89.5303-73.6602v72.6104c0 6.62305 5.37695 12 12 12h56c6.62305 0 12-5.37695 12-12v-138.51z" glyph-name="home" horiz-adv-x="576" unicode="&#xf015;"/><glyph d="M256 440c137 0 248-111 248-248s-111-248-248-248-248 111-248 248 111 248 248 248zM348.49 127c2.19531 2.73926 3.52637 6.21973 3.52637 10 0 5.05566-2.35059 9.56738-6.0166 12.5l-58 42.5v144c0 8.83105-7.16895 16-16 16h-32c-8.83105 0-16-7.16895-16-16v-155.55c0-12.6338 5.8418-23.8975 15-31.2305l67-49.7197v0c2.7373-2.19043 6.21387-3.51758 9.98926-3.51758 5.05566 0 9.56738 2.35059 12.501 6.01758l20 25v0z" glyph-name="clock" unicode="&#xf017;"/><glyph d="M573.19 45.3301c9.25977-21.1904-5.5-45.3301-27.7305-45.3301h-196.84l-10.3105 97.6797c-.859375 8.14062-7.71973 14.3203-15.9092 14.3203h-68.8008c-8.18945 0-15.0498-6.17969-15.9092-14.3203l-10.3105-97.6797h-196.84c-22.2305 0-36.9902 24.1396-27.7402 45.3301l139.79 320c4.96973 11.3799 15.7998 18.6699 27.7305 18.6699h97.5898l-2.4502-23.1602c-.5-4.71973 3.20996-8.83984 7.95996-8.83984h29.1602c4.75 0 8.45996 4.12012 7.95996 8.83984l-2.4502 23.1602h97.5898c11.9199 0 22.75-7.29004 27.7207-18.6699zM260.4 312.84l-4.59082-43.5801c-.75-7.08984 4.80078-13.2598 11.9307-13.2598h40.54c7.12012 0 12.6797 6.16992 11.9297 13.2598l-4.59961 43.5801c-.430664 4.07031-3.87012 7.16016-7.95996 7.16016h-39.29c-.00195312 0-.00390625-.0078125-.00488281-.0078125-4.12891 0-7.53125-3.13477-7.95508-7.15234zM315.64 144c9.5 0 16.9102 8.23047 15.9102 17.6797l-5.06934 48c-.860352 8.14062-7.7207 14.3203-15.9102 14.3203h-45.1504c-8.18945 0-15.0498-6.17969-15.9102-14.3203l-5.06934-48c-1-9.44922 6.40918-17.6797 15.9092-17.6797h55.29z" glyph-name="road" horiz-adv-x="576" unicode="&#xf018;"/><glyph d="M216 448h80c13.2998 0 24-10.7002 24-24v-168h87.7002c17.7998 0 26.7002-21.5 14.0996-34.0996l-152.1-152.2c-7.5-7.5-19.7998-7.5-27.2998 0l-152.301 152.2c-12.5996 12.5996-3.69922 34.0996 14.1006 34.0996h87.7998v168c0 13.2998 10.7002 24 24 24zM512 72v-112c0-13.2998-10.7002-24-24-24h-464c-13.2998 0-24 10.7002-24 24v112c0 13.2998 10.7002 24 24 24h146.7l49-49c20.0996-20.0996 52.5-20.0996 72.5996 0l49 49h146.7c13.2998 0 24-10.7002 24-24zM388-16c0 11-9 20-20 20s-20-9-20-20 9-20 20-20 20 9 20 20zM452-16c0 11-9 20-20 20s-20-9-20-20 9-20 20-20 20 9 20 20z" glyph-name="download" unicode="&#xf019;"/><glyph d="M567.938 204.092c5.07422-7.61035 8.06152-16.7998 8.06152-26.625v-129.467c0-26.5098-21.4902-48-48-48h-480c-26.5098 0-48 21.4902-48 48v129.467c0 9.8252 2.9873 19.0146 8.06152 26.625l105.689 158.534c8.60742 12.9102 23.2725 21.374 39.9385 21.374h268.621c16.667 0 31.332-8.46387 39.9395-21.374zM162.252 320l-85.334-128h123.082l32-64h112l32 64h123.082l-85.333 128h-251.497z" glyph-name="inbox" horiz-adv-x="576" unicode="&#xf01c;"/><glyph d="M500.33 448c6.62305 0 12-5.37695 12-12v-200.34c0-6.62305-5.37695-12-12-12h-200.33c-6.62305 0-12 5.37695-12 12v47.4102c0 .00390625-.00878906.00878906-.00878906.0136719 0 6.62305 5.37695 12 12 12 .194336 0 .386719-.00488281.579102-.0136719l101.529-4.87012c-31.6084 47.0322-85.1172 77.8594-145.992 77.8594-97.1367 0-176-78.8633-176-176s78.8633-176 176-176c44.502 0 85.168 16.5518 116.173 43.8301 2.10938 1.84375 4.87793 2.96582 7.89746 2.96582 3.31055 0 6.31055-1.34375 8.48242-3.51562l34-34c2.17383-2.17188 3.52246-5.17285 3.52246-8.48633 0-3.55176-1.54688-6.74512-4.00293-8.94336-43.8477-39.6924-102.079-63.9102-165.824-63.9102h-.355469c-136.9 0-247.9 110.93-248 247.81-.0996094 136.66 111.34 248.19 248 248.19.0927734 0 .116211.140625.208984.140625 75.5918 0 143.312-33.9727 188.711-87.4707l-4 82.7598c-.00878906.192383-.0136719.375977-.0136719.570312 0 6.62305 5.37695 12 12 12h.0136719 47.4102z" glyph-name="redo" unicode="&#xf01e;"/><glyph d="M440.65 435.43c-.00976562.192383-.0136719.375977-.0136719.570312 0 6.62109 5.37305 11.9961 11.9932 12h47.3701c6.62305 0 12-5.37695 12-12v-200.35c0-6.62305-5.37695-12-12-12h-200.22c-6.62305 0-12 5.37695-12 12v47.4092c0 .00488281-.00878906.00976562-.00878906.0136719 0 6.62305 5.37695 12 12 12 .194336 0 .386719-.00390625.578125-.0136719l101.46-4.85938c-31.5938 46.9941-85.1406 77.6738-145.973 77.6738-82.8662 0-152.428-57.4229-171.027-134.614-1.24219-5.29688-5.99707-9.25391-11.6699-9.25977h-49.0498c-6.62305 0-12 5.36719-12 11.9893 0 .748047.0693359 1.48047.200195 2.19043 21.6201 114.9 122.44 201.82 243.54 201.82.0966797 0 .123047.141602.219727.141602 75.5615 0 143.248-33.9814 188.601-87.4814zM255.83 16c.015625 0 .0185547.0898438.0332031.0898438 82.8701 0 152.43 57.4434 170.997 134.65 1.24219 5.29688 5.99707 9.25391 11.6699 9.25977h49.0498c6.62305 0 12-5.36719 12-11.9893 0-.748047-.0693359-1.48047-.200195-2.19043-21.6201-114.9-122.439-201.82-243.55-201.82-.0800781 0-.0908203-.140625-.170898-.140625-75.4814 0-143.106 33.9082-188.459 87.3105l4.14941-82.5703c.0107422-.201172.015625-.395508.015625-.599609 0-6.62305-5.37695-12-12-12h-.015625-47.3496c-6.62305 0-12 5.37695-12 12v200.33c0 6.62305 5.37695 12 12 12h200.2c6.62305 0 12-5.37695 12-12v-47.4004c0-.00390625.0078125-.00878906.0078125-.0136719 0-6.62305-5.37695-12-12-12-.193359 0-.386719.00488281-.578125.0136719l-101.8 4.87012c31.5254-47.0088 85.0449-77.7998 145.847-77.7998h.15332z" glyph-name="sync" unicode="&#xf021;"/><glyph d="M464-32h-416c-26.5098 0-48 21.4902-48 48v352c0 26.5098 21.4902 48 48 48h416c26.5098 0 48-21.4902 48-48v-352c0-26.5098-21.4902-48-48-48zM128 328c-22.0908 0-40-17.9092-40-40s17.9092-40 40-40 40 17.9092 40 40-17.9092 40-40 40zM128 232c-22.0908 0-40-17.9092-40-40s17.9092-40 40-40 40 17.9092 40 40-17.9092 40-40 40zM128 136c-22.0908 0-40-17.9092-40-40s17.9092-40 40-40 40 17.9092 40 40-17.9092 40-40 40zM416 272v32c0 6.62695-5.37305 12-12 12h-200c-6.62695 0-12-5.37305-12-12v-32c0-6.62695 5.37305-12 12-12h200c6.62695 0 12 5.37305 12 12zM416 176v32c0 6.62695-5.37305 12-12 12h-200c-6.62695 0-12-5.37305-12-12v-32c0-6.62695 5.37305-12 12-12h200c6.62695 0 12 5.37305 12 12zM416 80v32c0 6.62695-5.37305 12-12 12h-200c-6.62695 0-12-5.37305-12-12v-32c0-6.62695 5.37305-12 12-12h200c6.62695 0 12 5.37305 12 12z" glyph-name="list-alt" unicode="&#xf022;"/><glyph d="M400 224c26.5 0 48-21.5 48-48v-192c0-26.5-21.5-48-48-48h-352c-26.5 0-48 21.5-48 48v192c0 26.5 21.5 48 48 48h24v72c0 83.7998 68.2002 152 152 152s152-68.2002 152-152v-72h24zM296 224v72c0 39.7002-32.2998 72-72 72s-72-32.2998-72-72v-72h144z" glyph-name="lock" horiz-adv-x="448" unicode="&#xf023;"/><glyph d="M349.565 349.217c40.4951 0 82.6113 15.9062 116.949 31.8545 21.2168 9.85352 45.4854-5.62305 45.4854-29.0166v-243.1c0-10.5264-5.16016-20.4072-13.8428-26.3584-35.8379-24.5635-74.3359-40.8574-122.505-40.8574-67.373 0-111.629 34.7832-165.218 34.7832-50.8525 0-86.124-10.0586-114.435-22.1221v-94.4004c0-13.2549-10.7451-24-24-24h-16c-13.2549 0-24 10.7451-24 24v386.055c-14.5029 10.1201-24 26.9189-24 45.9453 0 31.7041 26.3447 57.2539 58.3379 55.9521 28.4678-1.1582 51.7793-23.9668 53.5508-52.4033.0761719-1.19141.0927734-2.37305.0927734-3.58301 0-7.03711-1.30176-13.7734-3.67871-19.9785 20.7363 7.62891 43.0898 12.0127 68.0449 12.0127 67.373 0 111.63-34.7832 165.218-34.7832z" glyph-name="flag" unicode="&#xf024;"/><glyph d="M256 416c141.504 0 256-114.521 256-256v-48c0-12.5312-7.1875-23.3711-17.6904-28.6221l-14.3818-7.19141c-2.01074-60.0889-51.3486-108.187-111.928-108.187h-24c-13.2549 0-24 10.7451-24 24v176c0 13.2549 10.7451 24 24 24h24c31.3418 0 59.6709-12.8789 80-33.627v1.62695c0 105.869-86.1309 192-192 192s-192-86.1309-192-192v-1.62695c20.3291 20.748 48.6582 33.627 80 33.627h24c13.2549 0 24-10.7451 24-24v-176c0-13.2549-10.7451-24-24-24h-24c-60.5791 0-109.917 48.0967-111.928 108.187l-14.3828 7.19141c-10.502 5.25098-17.6895 16.0908-17.6895 28.6221v48c0 141.504 114.52 256 256 256z" glyph-name="headphones" unicode="&#xf025;"/><glyph d="M215 377c15 15 41 4.46973 41-17v-336c0-21.4697-26-32-41-17l-88.9404 89h-102.06c-13.2461 0-24 10.7539-24 24v144c0 13.2461 10.7539 24 24 24h102z" glyph-name="volume-off" horiz-adv-x="256" unicode="&#xf026;"/><glyph d="M215.03 375.96c15.0098 15 40.9697 4.49023 40.9697-16.9795v-335.961c0-21.4395-25.9404-32-40.9697-16.9697l-88.9707 88.9502h-102.06c-13.2598 0-24 10.75-24 24v144c0 13.2598 10.7402 24 24 24h102.06zM338.23 267.88c28.2393-15.5498 45.7793-44.9902 45.7793-76.8701s-17.54-61.3301-45.7695-76.8799c-11.5605-6.34961-26.1807-2.20996-32.6104 9.4502-6.38965 11.6104-2.16016 26.2002 9.4502 32.6104 12.9004 7.08984 20.9199 20.4297 20.9199 34.8096s-8.01953 27.7197-20.9297 34.8203c-11.6104 6.41016-15.8398 21-9.4502 32.6094 6.41992 11.6104 21.0303 15.7803 32.6104 9.4502z" glyph-name="volume-down" horiz-adv-x="384" unicode="&#xf027;"/><glyph d="M215.03 376.95c15.0098 15.0098 40.9697 4.49023 40.9697-16.9697v-335.961c0-21.4395-25.9404-32-40.9697-16.9697l-88.9707 88.9502h-102.06c-13.2598 0-24 10.75-24 24v144c0 13.2598 10.7402 24 24 24h102.06zM448.35 428.03c79.9199-52.46 127.65-140.7 127.65-236.03s-47.7305-183.58-127.65-236.04c-11.5801-7.61035-26.4697-3.75977-33.5098 6.9502-7.33984 11.1602-4.21973 26.1797 6.9502 33.5 66.2695 43.4902 105.82 116.6 105.82 195.58 0 78.9795-39.5508 152.09-105.82 195.58-11.1699 7.33008-14.29 22.3398-6.9502 33.5098 7.33008 11.1895 22.3398 14.2803 33.5098 6.9502zM480 192c0-63.54-32.0596-121.94-85.7695-156.24-12-7.67969-26.6104-2.89941-33.1201 7.45996-7.09082 11.29-3.78027 26.2207 7.40918 33.3604 39.75 25.3896 63.4805 68.5303 63.4805 115.42s-23.7305 90.0303-63.4805 115.42c-11.1895 7.15039-14.5 22.0801-7.40918 33.3604 7.08984 11.2793 21.9297 14.5996 33.1201 7.45996 53.71-34.2998 85.7695-92.71 85.7695-156.24zM338.23 268.87c28.2393-15.54 45.7793-44.9805 45.7793-76.8604s-17.54-61.3301-45.7695-76.8799c-11.5605-6.34961-26.1807-2.20996-32.6104 9.4502-6.38965 11.6104-2.16016 26.2002 9.4502 32.6104 12.9004 7.08984 20.9199 20.4297 20.9199 34.8096 0 14.3701-8.01953 27.7197-20.9297 34.8096-11.6104 6.41016-15.8398 21-9.4502 32.6104 6.41992 11.6104 21.0303 15.7803 32.6104 9.4502z" glyph-name="volume-up" horiz-adv-x="576" unicode="&#xf028;"/><glyph d="M0 224v192h192v-192h-192zM64 352v-64h64v64h-64zM256 416h192v-192h-192v192zM384 288v64h-64v-64h64zM0-32v192h192v-192h-192zM64 96v-64h64v64h-64zM416 160h32v-128h-96v32h-32v-96h-64v192h96v-32h64v32zM416 0h32v-32h-32v32zM352 0h32v-32h-32v32z" glyph-name="qrcode" horiz-adv-x="448" unicode="&#xf029;"/><glyph d="M0 0v384h18v-384h-18zM26.8574.273438v383.727h9.14258v-383.727h-9.14258zM54 .273438v383.727h8.85742v-383.727h-8.85742zM98.8574.273438v383.727h8.85645v-383.727h-8.85645zM134.857.273438v383.727h17.7139v-383.727h-17.7139zM179.714.273438v383.727h8.85742v-383.727h-8.85742zM197.714.273438v383.727h8.85742v-383.727h-8.85742zM215.714.273438v383.727h8.85742v-383.727h-8.85742zM251.429.273438v383.727h18v-383.727h-18zM296.286.273438v383.727h18v-383.727h-18zM332.285.273438v383.727h18.001v-383.727h-18.001zM368.286.273438v383.727h18.001v-383.727h-18.001zM395.143.273438v383.727h18v-383.727h-18zM440.286.273438v383.727h26.8564v-383.727h-26.8564zM476 .273438v383.727h9.14258v-383.727h-9.14258zM494 0v384h18v-384h-18z" glyph-name="barcode" unicode="&#xf02a;"/><glyph d="M0 195.882v204.118c0 26.5098 21.4902 48 48 48h204.118c13.2461 0 25.252-5.37012 33.9404-14.0586l211.883-211.883c18.7441-18.7441 18.7441-49.1367 0-67.8818l-204.118-204.118c-18.7451-18.7441-49.1377-18.7441-67.8818 0l-211.883 211.883c-8.68848 8.68848-14.0586 20.6943-14.0586 33.9404zM112 384c-26.5098 0-48-21.4902-48-48s21.4902-48 48-48 48 21.4902 48 48-21.4902 48-48 48z" glyph-name="tag" unicode="&#xf02b;"/><glyph d="M497.941 222.059c18.7441-18.7441 18.7441-49.1367 0-67.8818l-204.118-204.118c-18.7461-18.7451-49.1387-18.7441-67.8818 0l-211.883 211.883c-8.68848 8.68848-14.0586 20.6943-14.0586 33.9404v204.118c0 26.5098 21.4902 48 48 48h204.118c13.2461 0 25.252-5.37012 33.9404-14.0586zM112 288c26.5098 0 48 21.4902 48 48s-21.4902 48-48 48-48-21.4902-48-48 21.4902-48 48-48zM625.941 154.177l-204.118-204.118c-18.7451-18.7441-49.1377-18.7441-67.8818 0l-.360352.360352 174.059 174.059c16.999 16.999 26.3604 39.6006 26.3604 63.6406s-9.3623 46.6406-26.3604 63.6396l-196.242 196.242h48.7207c13.2461 0 25.252-5.37012 33.9404-14.0586l211.883-211.883c18.7441-18.7441 18.7441-49.1367 0-67.8818z" glyph-name="tags" horiz-adv-x="640" unicode="&#xf02c;"/><glyph d="M448 88c0-7.5-3.5-14.2998-8.90039-18.5996-4.19922-15.4004-4.19922-59.3008 0-74.7002 5.40039-4.40039 8.90039-11.2002 8.90039-18.7002v-16c0-13.2998-10.7002-24-24-24h-328c-53 0-96 43-96 96v320c0 53 43 96 96 96h328c13.2998 0 24-10.7002 24-24v-336zM128 314v-20c0-3.2998 2.7002-6 6-6h212c3.2998 0 6 2.7002 6 6v20c0 3.2998-2.7002 6-6 6h-212c-3.2998 0-6-2.7002-6-6zM128 250v-20c0-3.2998 2.7002-6 6-6h212c3.2998 0 6 2.7002 6 6v20c0 3.2998-2.7002 6-6 6h-212c-3.2998 0-6-2.7002-6-6zM381.4 0c-1.90039 17.0996-1.90039 46.9004 0 64h-285.4c-17.5996 0-32-14.4004-32-32 0-17.7002 14.2998-32 32-32h285.4z" glyph-name="book" horiz-adv-x="448" unicode="&#xf02d;"/><glyph d="M0-64v464c0 26.5098 21.4902 48 48 48h288c26.5098 0 48-21.4902 48-48v-464l-192 112z" glyph-name="bookmark" horiz-adv-x="384" unicode="&#xf02e;"/><glyph d="M448 256c35.3496 0 64-28.6504 64-64v-112c0-8.83984-7.16016-16-16-16h-48v-96c0-17.6699-14.3301-32-32-32h-320c-17.6699 0-32 14.3301-32 32v96h-48c-8.83984 0-16 7.16016-16 16v112c0 35.3496 28.6504 64 64 64v160c0 17.6699 14.3301 32 32 32h274.74c8.49023 0 16.6299-3.37012 22.6299-9.37012l45.2598-45.25c6-6.00977 9.37012-14.1396 9.37012-22.6299v-114.75zM384 0v96h-256v-96h256zM384 224v96h-48c-8.83984 0-16 7.16016-16 16v48h-192v-160h256zM432 152c13.25 0 24 10.75 24 24 0 13.2598-10.75 24-24 24s-24-10.7402-24-24c0-13.25 10.75-24 24-24z" glyph-name="print" unicode="&#xf02f;"/><glyph d="M512 304v-288c0-26.5-21.5-48-48-48h-416c-26.5 0-48 21.5-48 48v288c0 26.5 21.5 48 48 48h88l12.2998 32.9004c7 18.6992 24.9004 31.0996 44.9004 31.0996h125.5c20 0 37.8994-12.4004 44.8994-31.0996l12.4004-32.9004h88c26.5 0 48-21.5 48-48zM376 160c0 66.2002-53.7998 120-120 120s-120-53.7998-120-120 53.7998-120 120-120 120 53.7998 120 120zM344 160c0-48.5-39.5-88-88-88s-88 39.5-88 88 39.5 88 88 88 88-39.5 88-88z" glyph-name="camera" unicode="&#xf030;"/><glyph d="M432 32c8.83105 0 16-7.16895 16-16v-32c0-8.83105-7.16895-16-16-16h-128c-8.83105 0-16 7.16895-16 16v32c0 8.83105 7.16895 16 16 16h19.5801l-23.2998 64h-152.561l-23.2998-64h19.5801c8.83105 0 16-7.16895 16-16v-32c0-8.83105-7.16895-16-16-16h-128c-8.83105 0-16 7.16895-16 16v32c0 8.83105 7.16895 16 16 16h23.4102l130.71 362.31c4.29297 12.6133 16.2363 21.6904 30.293 21.6904h.00683594 47.1602l-.00292969.00683594c14.0576 0 26.0098-9.08398 30.3027-21.6973l130.71-362.31h23.4102zM176.85 176h94.3008l-47.1504 129.49z" glyph-name="font" horiz-adv-x="448" unicode="&#xf031;"/><glyph d="M333.49 210c34.4395-27.54 55.5693-71.1504 50.8301-119.6-6.86035-70.6504-70.2002-122.4-141-122.4h-209.32c-8.83105 0-16 7.16895-16 16v48c0 8.83105 7.16895 16 16 16h31.8701v288h-31.8701c-8.83105 0-16 7.16895-16 16v48c0 8.83105 7.16895 16 16 16h199.42c74.5801 0 134.45-64.4902 127.07-140.79-2.43945-24.5273-12.1992-47.1309-27-65.21zM145.66 336v-96h87.7598c26.4922 0 48 21.5078 48 48s-21.5078 48-48 48h-87.7598zM233.42 48c30.9072 0 56 25.0928 56 56s-25.0928 56-56 56h-87.7598v-112h87.7598z" glyph-name="bold" horiz-adv-x="384" unicode="&#xf032;"/><glyph d="M320 400v-32c0-8.83105-7.16895-16-16-16h-62.7598l-80-320h46.7598c8.83105 0 16-7.16895 16-16v-32c0-8.83105-7.16895-16-16-16h-192c-8.83105 0-16 7.16895-16 16v32c0 8.83105 7.16895 16 16 16h62.7598l80 320h-46.7598c-8.83105 0-16 7.16895-16 16v32c0 8.83105 7.16895 16 16 16h192c8.83105 0 16-7.16895 16-16z" glyph-name="italic" horiz-adv-x="320" unicode="&#xf033;"/><glyph d="M304 416c8.83105 0 16-7.16895 16-16v-96c0-8.83105-7.16895-16-16-16h-32c-8.83105 0-16 7.16895-16 16v32h-56v-304h40c8.83105 0 16-7.16895 16-16v-32c0-8.83105-7.16895-16-16-16h-160c-8.83105 0-16 7.16895-16 16v32c0 8.83105 7.16895 16 16 16h40v304h-56v-32c0-8.83105-7.16895-16-16-16h-32c-8.83105 0-16 7.16895-16 16v96c0 8.83105 7.16895 16 16 16h288zM560 80c15.6396 0 20.6396-18 11.3096-27.3096l-80-80c-2.89551-2.89453-6.89844-4.68555-11.3115-4.68555-4.41406 0-8.41211 1.79102-11.3076 4.68555l-80 80c-10.0107 10-3 27.3096 11.3096 27.3096h48v224h-48c-15.6396 0-20.6396 18-11.3096 27.3096l80 80c2.89551 2.89453 6.89844 4.68555 11.3115 4.68555 4.41406 0 8.41211-1.79102 11.3076-4.68555l80-80c10.0205-10 3-27.3096-11.3096-27.3096h-48v-224h48z" glyph-name="text-height" horiz-adv-x="576" unicode="&#xf034;"/><glyph d="M432 416c8.83105 0 16-7.16895 16-16v-80c0-8.83105-7.16895-16-16-16h-32c-8.83105 0-16 7.16895-16 16v16h-120v-112h24c8.83105 0 16-7.16895 16-16v-32c0-8.83105-7.16895-16-16-16h-128c-8.83105 0-16 7.16895-16 16v32c0 8.83105 7.16895 16 16 16h24v112h-120v-16c0-8.83105-7.16895-16-16-16h-32c-8.83105 0-16 7.16895-16 16v80c0 8.83105 7.16895 16 16 16h416zM363.31 155.31l80-80c2.89453-2.89551 4.68555-6.89844 4.68555-11.3115 0-4.41406-1.79102-8.41211-4.68555-11.3076l-80-80c-10-10.0205-27.3096-3-27.3096 11.3096v48h-224v-48c0-15.6396-18-20.6396-27.3096-11.3096l-80 80c-2.89453 2.89551-4.68555 6.89844-4.68555 11.3115 0 4.41406 1.79102 8.41211 4.68555 11.3076l80 80c10 10.0107 27.3096 3 27.3096-11.3096v-48h224v48c0 15.6396 18 20.6396 27.3096 11.3096z" glyph-name="text-width" horiz-adv-x="448" unicode="&#xf035;"/><glyph d="M12.8301 96c-7.07617 0-12.8301 5.74414-12.8301 12.8193v.0107422 38.3398.00976562c0 7.07617 5.74414 12.8203 12.8193 12.8203h.0107422 262.34.00976562c7.07617 0 12.8203-5.74414 12.8203-12.8193v-.0107422-38.3398-.00976562c0-7.07617-5.74414-12.8203-12.8193-12.8203h-.0107422-262.34zM12.8301 352c-7.07617 0-12.8301 5.74414-12.8301 12.8193v.0107422 38.3398.00976562c0 7.07617 5.74414 12.8203 12.8193 12.8203h.0107422 262.34.00976562c7.07617 0 12.8203-5.74414 12.8203-12.8193v-.0107422-38.3398-.00976562c0-7.07617-5.74414-12.8203-12.8193-12.8203h-.0107422-262.34zM432 288c8.83105 0 16-7.16895 16-16v-32c0-8.83105-7.16895-16-16-16h-416c-8.83105 0-16 7.16895-16 16v32c0 8.83105 7.16895 16 16 16h416zM432 32c8.83105 0 16-7.16895 16-16v-32c0-8.83105-7.16895-16-16-16h-416c-8.83105 0-16 7.16895-16 16v32c0 8.83105 7.16895 16 16 16h416z" glyph-name="align-left" horiz-adv-x="448" unicode="&#xf036;"/><glyph d="M432 288c8.83105 0 16-7.16895 16-16v-32c0-8.83105-7.16895-16-16-16h-416c-8.83105 0-16 7.16895-16 16v32c0 8.83105 7.16895 16 16 16h416zM432 32c8.83105 0 16-7.16895 16-16v-32c0-8.83105-7.16895-16-16-16h-416c-8.83105 0-16 7.16895-16 16v32c0 8.83105 7.16895 16 16 16h416zM108.1 352c-6.67773 0-12.0996 5.42188-12.0996 12.0996v39.8105c0 6.67285 5.41699 12.0898 12.0898 12.0898h.00976562 231.811c6.67285 0 12.0898-5.41699 12.0898-12.0898v-39.8105-.00976562c0-6.67285-5.41699-12.0898-12.0898-12.0898h-231.811zM339.91 96h-231.811c-6.67773 0-12.0996 5.42188-12.0996 12.0996v39.8105c0 6.67285 5.41699 12.0898 12.0898 12.0898h.00976562 231.811c6.67285 0 12.0898-5.41699 12.0898-12.0898v-39.8105-.00976562c0-6.67285-5.41699-12.0898-12.0898-12.0898z" glyph-name="align-center" horiz-adv-x="448" unicode="&#xf037;"/><glyph d="M16 224c-8.83105 0-16 7.16895-16 16v32c0 8.83105 7.16895 16 16 16h416c8.83105 0 16-7.16895 16-16v-32c0-8.83105-7.16895-16-16-16h-416zM432 32c8.83105 0 16-7.16895 16-16v-32c0-8.83105-7.16895-16-16-16h-416c-8.83105 0-16 7.16895-16 16v32c0 8.83105 7.16895 16 16 16h416zM435.17 416c7.07617 0 12.8301-5.74414 12.8301-12.8193v-.0107422-38.3398-.00976562c0-7.07617-5.74414-12.8203-12.8193-12.8203h-.0107422-262.34-.00976562c-7.07617 0-12.8203 5.74414-12.8203 12.8193v.0107422 38.3398.00976562c0 7.07617 5.74414 12.8203 12.8193 12.8203h.0107422 262.34zM435.17 160c7.07617 0 12.8301-5.74414 12.8301-12.8193v-.0107422-38.3398-.00976562c0-7.07617-5.74414-12.8203-12.8193-12.8203h-.0107422-262.34-.00976562c-7.07617 0-12.8203 5.74414-12.8203 12.8193v.0107422 38.3398.00976562c0 7.07617 5.74414 12.8203 12.8193 12.8203h.0107422 262.34z" glyph-name="align-right" horiz-adv-x="448" unicode="&#xf038;"/><glyph d="M432 32c8.83105 0 16-7.16895 16-16v-32c0-8.83105-7.16895-16-16-16h-416c-8.83105 0-16 7.16895-16 16v32c0 8.83105 7.16895 16 16 16h416zM432 160c8.83105 0 16-7.16895 16-16v-32c0-8.83105-7.16895-16-16-16h-416c-8.83105 0-16 7.16895-16 16v32c0 8.83105 7.16895 16 16 16h416zM432 288c8.83105 0 16-7.16895 16-16v-32c0-8.83105-7.16895-16-16-16h-416c-8.83105 0-16 7.16895-16 16v32c0 8.83105 7.16895 16 16 16h416zM432 416c8.83105 0 16-7.16895 16-16v-32c0-8.83105-7.16895-16-16-16h-416c-8.83105 0-16 7.16895-16 16v32c0 8.83105 7.16895 16 16 16h416z" glyph-name="align-justify" horiz-adv-x="448" unicode="&#xf039;"/><glyph d="M80 80c8.83105 0 16-7.16895 16-16v-64c0-8.83105-7.16895-16-16-16h-64c-8.83105 0-16 7.16895-16 16v64c0 8.83105 7.16895 16 16 16h64zM80 400c8.83105 0 16-7.16895 16-16v-64c0-8.83105-7.16895-16-16-16h-64c-8.83105 0-16 7.16895-16 16v64c0 8.83105 7.16895 16 16 16h64zM80 240c8.83105 0 16-7.16895 16-16v-64c0-8.83105-7.16895-16-16-16h-64c-8.83105 0-16 7.16895-16 16v64c0 8.83105 7.16895 16 16 16h64zM496 64c8.83105 0 16-7.16895 16-16v-32c0-8.83105-7.16895-16-16-16h-320c-8.83105 0-16 7.16895-16 16v32c0 8.83105 7.16895 16 16 16h320zM496 384c8.83105 0 16-7.16895 16-16v-32c0-8.83105-7.16895-16-16-16h-320c-8.83105 0-16 7.16895-16 16v32c0 8.83105 7.16895 16 16 16h320zM496 224c8.83105 0 16-7.16895 16-16v-32c0-8.83105-7.16895-16-16-16h-320c-8.83105 0-16 7.16895-16 16v32c0 8.83105 7.16895 16 16 16h320z" glyph-name="list" unicode="&#xf03a;"/><glyph d="M100.69 84.71l-96 95.9805c-2.89453 2.89551-4.68555 6.89844-4.68555 11.3115 0 4.41406 1.79102 8.41211 4.68555 11.3076l96 96c9.97949 10 27.3096 3.01074 27.3096-11.3096v-191.98c0-14.2393-17.3096-21.3096-27.3096-11.3096zM432 32c8.83105 0 16-7.16895 16-16v-32c0-8.83105-7.16895-16-16-16h-416c-8.83105 0-16 7.16895-16 16v32c0 8.83105 7.16895 16 16 16h416zM435.17 160c7.07617 0 12.8301-5.74414 12.8301-12.8193v-.0107422-38.3398-.00976562c0-7.07617-5.74414-12.8203-12.8193-12.8203h-.0107422-230.34-.00976562c-7.07617 0-12.8203 5.74414-12.8203 12.8193v.0107422 38.3398.00976562c0 7.07617 5.74414 12.8203 12.8193 12.8203h.0107422 230.34zM435.17 288c7.07617 0 12.8301-5.74414 12.8301-12.8193v-.0107422-38.3398-.00976562c0-7.07617-5.74414-12.8203-12.8193-12.8203h-.0107422-230.34-.00976562c-7.07617 0-12.8203 5.74414-12.8203 12.8193v.0107422 38.3398.00976562c0 7.07617 5.74414 12.8203 12.8193 12.8203h.0107422 230.34zM432 416c8.83105 0 16-7.16895 16-16v-32c0-8.83105-7.16895-16-16-16h-416c-8.83105 0-16 7.16895-16 16v32c0 8.83105 7.16895 16 16 16h416z" glyph-name="outdent" horiz-adv-x="448" unicode="&#xf03b;"/><glyph d="M27.3096 84.7002c-9.97949-10-27.3096-3.00977-27.3096 11.2998v192c0 14.2197 17.2695 21.3398 27.3096 11.3203l96-96c2.89453-2.89648 4.68555-6.89941 4.68555-11.3125s-1.79102-8.41211-4.68555-11.3076zM432 32c8.83105 0 16-7.16895 16-16v-32c0-8.83105-7.16895-16-16-16h-416c-8.83105 0-16 7.16895-16 16v32c0 8.83105 7.16895 16 16 16h416zM435.17 160c7.07617 0 12.8301-5.74414 12.8301-12.8193v-.0107422-38.3398-.00976562c0-7.07617-5.74414-12.8203-12.8193-12.8203h-.0107422-230.34-.00976562c-7.07617 0-12.8203 5.74414-12.8203 12.8193v.0107422 38.3398.00976562c0 7.07617 5.74414 12.8203 12.8193 12.8203h.0107422 230.34zM435.17 288c7.07617 0 12.8301-5.74414 12.8301-12.8193v-.0107422-38.3398-.00976562c0-7.07617-5.74414-12.8203-12.8193-12.8203h-.0107422-230.34-.00976562c-7.07617 0-12.8203 5.74414-12.8203 12.8193v.0107422 38.3398.00976562c0 7.07617 5.74414 12.8203 12.8193 12.8203h.0107422 230.34zM432 416c8.83105 0 16-7.16895 16-16v-32c0-8.83105-7.16895-16-16-16h-416c-8.83105 0-16 7.16895-16 16v32c0 8.83105 7.16895 16 16 16h416z" glyph-name="indent" horiz-adv-x="448" unicode="&#xf03c;"/><glyph d="M336.2 384c26.3994 0 47.7998-21.4004 47.7998-47.7998v-288.4c0-26.3994-21.4004-47.7998-47.7998-47.7998h-288.4c-26.3994 0-47.7998 21.4004-47.7998 47.7998v288.4c0 26.3994 21.4004 47.7998 47.7998 47.7998h288.4zM525.6 346.3c21.3008 14.6006 50.4004-.399414 50.4004-25.7998v-256.9c0-25.5-29.2002-40.3994-50.4004-25.7998l-109.6 75.5v157.4z" glyph-name="video" horiz-adv-x="576" unicode="&#xf03d;"/><glyph d="M464 0h-416c-26.5098 0-48 21.4902-48 48v288c0 26.5098 21.4902 48 48 48h416c26.5098 0 48-21.4902 48-48v-288c0-26.5098-21.4902-48-48-48zM112 328c-30.9277 0-56-25.0723-56-56s25.0723-56 56-56 56 25.0723 56 56-25.0723 56-56 56zM64 64h384v112l-87.5146 87.5146c-4.68652 4.68652-12.2842 4.68652-16.9717 0l-135.514-135.515-55.5146 55.5146c-4.68652 4.68652-12.2842 4.68652-16.9717 0l-71.5137-71.5146v-48z" glyph-name="image" unicode="&#xf03e;"/><glyph d="M172.268-53.6699c-145.298 210.639-172.268 232.257-172.268 309.67 0 106.039 85.9609 192 192 192s192-85.9609 192-192c0-77.4131-26.9697-99.0312-172.268-309.67-9.53516-13.7744-29.9307-13.7734-39.4648 0z" glyph-name="map-marker" horiz-adv-x="384" unicode="&#xf041;"/><glyph d="M8 192c0 136.967 111.034 248 248 248s248-111.034 248-248-111.033-248-248-248-248 111.034-248 248zM256 8c101.689 0 184 82.2949 184 184 0 101.689-82.2949 184-184 184v-368z" glyph-name="adjust" unicode="&#xf042;"/><glyph d="M205.22 425.91c46.9902-158.48 146.78-200.07 146.78-311.82 0-98.4395-78.7197-178.09-176-178.09s-176 79.6504-176 178.09c0 111.19 100.01 154.061 146.78 311.82 9 30.1201 50.5 28.7803 58.4395 0zM176 0c8.83984 0 16 7.16016 16 16s-7.16016 16-16 16c-44.1104 0-80 35.8896-80 80 0 8.83984-7.16016 16-16 16s-16-7.16016-16-16c0-61.75 50.25-112 112-112z" glyph-name="tint" horiz-adv-x="352" unicode="&#xf043;"/><glyph d="M402.6 364.8l90.2002-90.2002c3.7998-3.7998 3.7998-10 0-13.7998l-218.399-218.399-92.8008-10.3008c-12.3994-1.39941-22.8994 9.10059-21.5 21.5l10.3008 92.8008 218.399 218.399c3.7998 3.7998 10 3.7998 13.7998 0zM564.6 387.7c15.2002-15.2002 15.2002-39.9004 0-55.2002l-35.3994-35.4004c-3.7998-3.7998-10-3.7998-13.7998 0l-90.2002 90.2002c-3.7998 3.7998-3.7998 10 0 13.7998l35.3994 35.4004c15.3008 15.2002 40 15.2002 55.2002 0zM384 101.8c0 3.2002 1.2998 6.2002 3.5 8.5l40 40c7.59961 7.5 20.5 2.2002 20.5-8.5v-157.8c0-26.5-21.5-48-48-48h-352c-26.5 0-48 21.5-48 48v352c0 26.5 21.5 48 48 48h285.8c10.7002 0 16.1006-12.9004 8.5-20.5l-40-40c-2.2998-2.2002-5.2998-3.5-8.5-3.5h-229.8v-320h320v101.8z" glyph-name="edit" horiz-adv-x="576" unicode="&#xf044;"/><glyph d="M64-20v424c0 6.59961 5.40039 12 12 12h48c6.59961 0 12-5.40039 12-12v-176.4l195.5 181c20.5996 17.1006 52.5 2.80078 52.5-24.5996v-384c0-27.4004-31.9004-41.7002-52.5-24.5996l-195.5 179.899v-175.3c0-6.59961-5.40039-12-12-12h-48c-6.59961 0-12 5.40039-12 12z" glyph-name="step-backward" horiz-adv-x="448" unicode="&#xf048;"/><glyph d="M0 12v360c0 6.59961 5.40039 12 12 12h40c6.59961 0 12-5.40039 12-12v-151.9l171.5 156.5c20.5996 17.1006 52.5 2.80078 52.5-24.5996v-131.9l171.5 156.5c20.5996 17.1006 52.5 2.80078 52.5-24.5996v-320c0-27.4004-31.9004-41.7002-52.5-24.5996l-171.5 155.3v-130.7c0-27.4004-31.9004-41.7002-52.5-24.5996l-171.5 155.3v-150.7c0-6.59961-5.40039-12-12-12h-40c-6.59961 0-12 5.40039-12 12z" glyph-name="fast-backward" unicode="&#xf049;"/><glyph d="M11.5 167.4c-15.2998 12.7998-15.2998 36.3994 0 49.1992l192 160c20.5996 17.2002 52.5 2.80078 52.5-24.5996v-320c0-27.4004-31.9004-41.7998-52.5-24.5996zM267.5 167.4c-15.2998 12.7998-15.2998 36.3994 0 49.1992l192 160c20.5996 17.2002 52.5 2.80078 52.5-24.5996v-320c0-27.4004-31.9004-41.7998-52.5-24.5996z" glyph-name="backward" unicode="&#xf04a;"/><glyph d="M424.4 233.3c31.5-18.5 31.3994-64.0996 0-82.5996l-352-208c-31.7002-18.7998-72.4004 3.7998-72.4004 41.2998v416.1c0 41.8008 43.7998 58.2002 72.4004 41.3008z" glyph-name="play" horiz-adv-x="448" unicode="&#xf04b;"/><glyph d="M144-31h-96c-26.5 0-48 21.5-48 48v352c0 26.5 21.5 48 48 48h96c26.5 0 48-21.5 48-48v-352c0-26.5-21.5-48-48-48zM448 17c0-26.5-21.5-48-48-48h-96c-26.5 0-48 21.5-48 48v352c0 26.5 21.5 48 48 48h96c26.5 0 48-21.5 48-48v-352z" glyph-name="pause" horiz-adv-x="448" unicode="&#xf04c;"/><glyph d="M400 416c26.5 0 48-21.5 48-48v-352c0-26.5-21.5-48-48-48h-352c-26.5 0-48 21.5-48 48v352c0 26.5 21.5 48 48 48h352z" glyph-name="stop" horiz-adv-x="448" unicode="&#xf04d;"/><glyph d="M500.5 216.6c15.2998-12.7998 15.2998-36.3994 0-49.1992l-192-160c-20.5996-17.2002-52.5-2.80078-52.5 24.5996v320c0 27.4004 31.9004 41.7002 52.5 24.5996zM244.5 216.6c15.2998-12.7998 15.2998-36.3994 0-49.1992l-192-160c-20.5996-17.2002-52.5-2.80078-52.5 24.5996v320c0 27.4004 31.9004 41.7002 52.5 24.5996z" glyph-name="forward" unicode="&#xf04e;"/><glyph d="M512 372v-360c0-6.59961-5.40039-12-12-12h-40c-6.59961 0-12 5.40039-12 12v151.9l-171.5-156.5c-20.5996-17.2002-52.5-2.80078-52.5 24.5996v131.9l-171.5-156.5c-20.5996-17.2002-52.5-2.80078-52.5 24.5996v320c0 27.4004 31.9004 41.7002 52.5 24.5996l171.5-155.399v130.8c0 27.4004 31.9004 41.7002 52.5 24.5996l171.5-155.399v150.8c0 6.59961 5.40039 12 12 12h40c6.59961 0 12-5.40039 12-12z" glyph-name="fast-forward" unicode="&#xf050;"/><glyph d="M384 404v-424c0-6.59961-5.40039-12-12-12h-48c-6.59961 0-12 5.40039-12 12v176.4l-195.5-181c-20.5996-17.1006-52.5-2.80078-52.5 24.5996v384c0 27.4004 31.9004 41.7002 52.5 24.5996l195.5-179.899v175.3c0 6.59961 5.40039 12 12 12h48c6.59961 0 12-5.40039 12-12z" glyph-name="step-forward" horiz-adv-x="448" unicode="&#xf051;"/><glyph d="M448 64v-64c0-17.6729-14.3271-32-32-32h-384c-17.6729 0-32 14.3271-32 32v64c0 17.6729 14.3271 32 32 32h384c17.6729 0 32-14.3271 32-32zM48.0527 128c-41.7285 0-63.5273 49.7324-35.3828 80.4346l175.946 192.008c19.0156 20.7432 51.7529 20.7422 70.7666 0l175.939-192.008c28.1973-30.7607 6.26758-80.4346-35.3828-80.4346h-351.887z" glyph-name="eject" horiz-adv-x="448" unicode="&#xf052;"/><glyph d="M34.5195 208.97l194.351 194.34c9.37012 9.37012 24.5703 9.37012 33.9395 0l22.6709-22.6699c9.35938-9.35938 9.36914-24.5195.0390625-33.8994l-154.029-154.74 154.02-154.75c9.33984-9.37988 9.32031-24.54-.0400391-33.9004l-22.6699-22.6699c-9.37012-9.37012-24.5693-9.37012-33.9395 0l-194.341 194.351c-9.36914 9.37012-9.36914 24.5693 0 33.9395z" glyph-name="chevron-left" horiz-adv-x="320" unicode="&#xf053;"/></font>
</defs>
</svg>
