<svg xmlns="http://www.w3.org/2000/svg"><defs><font horiz-adv-x="512"><font-face ascent="448" bbox="-0.0663408 -64.0662 640.004 448.1" descent="-64" panose-1="2 0 5 3 0 0 0 0 0 0" underline-position="-50" underline-thickness="25" unicode-range="U+0020-F5C8" units-per-em="512"/><missing-glyph/><glyph d="M458.4 383.7c75.2998-63.4004 64.0996-166.601 10.5996-221.3l-175.4-178.7c-10-10.2002-23.2998-15.7998-37.5996-15.7998-14.2002 0-27.5996 5.69922-37.5996 15.8994l-175.4 178.7c-53.5996 54.7002-64.5996 157.9 10.5996 221.2 57.8008 48.7002 147.101 41.2998 202.4-15 55.2998 56.2998 144.6 63.5996 202.4 15zM434.8 196.2c36.2002 36.8994 43.7998 107.7-7.2998 150.8-38.7002 32.5996-98.7002 27.9004-136.5-10.5996l-35-35.7002-35 35.7002c-37.5996 38.2998-97.5996 43.1992-136.5 10.5-51.2002-43.1006-43.7998-113.5-7.2998-150.7l175.399-178.7c2.40039-2.40039 4.40039-2.40039 6.80078 0z" glyph-name="heart" unicode="&#xf004;"/><glyph d="M528.1 276.5c26.2002-3.7998 36.7002-36.0996 17.7002-54.5996l-105.7-103 25-145.5c4.5-26.3008-23.1992-45.9004-46.3994-33.7002l-130.7 68.7002-130.7-68.7002c-23.2002-12.2998-50.8994 7.39941-46.3994 33.7002l25 145.5-105.7 103c-19 18.5-8.5 50.7998 17.7002 54.5996l146.1 21.2998 65.2998 132.4c11.7998 23.8994 45.7002 23.5996 57.4004 0l65.2998-132.4zM388.6 135.7l100.601 98-139 20.2002-62.2002 126-62.2002-126-139-20.2002 100.601-98-23.7002-138.4 124.3 65.2998 124.3-65.2998z" glyph-name="star" horiz-adv-x="576" unicode="&#xf005;"/><glyph d="M313.6 144c74.2002 0 134.4-60.2002 134.4-134.4v-25.5996c0-26.5-21.5-48-48-48h-352c-26.5 0-48 21.5-48 48v25.5996c0 74.2002 60.2002 134.4 134.4 134.4 28.7998 0 42.5-16 89.5996-16s60.9004 16 89.5996 16zM400-16v25.5996c0 47.6006-38.7998 86.4004-86.4004 86.4004-14.6992 0-37.8994-16-89.5996-16-51.2998 0-75 16-89.5996 16-47.6006 0-86.4004-38.7998-86.4004-86.4004v-25.5996h352zM224 160c-79.5 0-144 64.5-144 144s64.5 144 144 144 144-64.5 144-144-64.5-144-144-144zM224 400c-52.9004 0-96-43.0996-96-96s43.0996-96 96-96 96 43.0996 96 96-43.0996 96-96 96z" glyph-name="user" horiz-adv-x="448" unicode="&#xf007;"/><glyph d="M256 440c137 0 248-111 248-248s-111-248-248-248-248 111-248 248 111 248 248 248zM256-8c110.5 0 200 89.5 200 200s-89.5 200-200 200-200-89.5-200-200 89.5-200 200-200zM317.8 96.4004l-84.8994 61.6992c-3.10059 2.30078-4.90039 5.90039-4.90039 9.7002v164.2c0 6.59961 5.40039 12 12 12h32c6.59961 0 12-5.40039 12-12v-141.7l66.7998-48.5996c5.40039-3.90039 6.5-11.4004 2.60059-16.7998l-18.8008-25.9004c-3.89941-5.2998-11.3994-6.5-16.7998-2.59961z" glyph-name="clock" unicode="&#xf017;"/><glyph d="M464 416c26.5098 0 48-21.4902 48-48v-352c0-26.5098-21.4902-48-48-48h-416c-26.5098 0-48 21.4902-48 48v352c0 26.5098 21.4902 48 48 48h416zM458 16c3.31152 0 6 2.68848 6 6v340c0 3.31152-2.68848 6-6 6h-404c-3.31152 0-6-2.68848-6-6v-340c0-3.31152 2.68848-6 6-6h404zM416 108v-24c0-6.62695-5.37305-12-12-12h-200c-6.62695 0-12 5.37305-12 12v24c0 6.62695 5.37305 12 12 12h200c6.62695 0 12-5.37305 12-12zM416 204v-24c0-6.62695-5.37305-12-12-12h-200c-6.62695 0-12 5.37305-12 12v24c0 6.62695 5.37305 12 12 12h200c6.62695 0 12-5.37305 12-12zM416 300v-24c0-6.62695-5.37305-12-12-12h-200c-6.62695 0-12 5.37305-12 12v24c0 6.62695 5.37305 12 12 12h200c6.62695 0 12-5.37305 12-12zM164 288c0-19.8818-16.1182-36-36-36s-36 16.1182-36 36 16.1182 36 36 36 36-16.1182 36-36zM164 192c0-19.8818-16.1182-36-36-36s-36 16.1182-36 36 16.1182 36 36 36 36-16.1182 36-36zM164 96c0-19.8818-16.1182-36-36-36s-36 16.1182-36 36 16.1182 36 36 36 36-16.1182 36-36z" glyph-name="list-alt" unicode="&#xf022;"/><glyph d="M336.174 368c35.4668 0 73.0195 12.6914 108.922 28.1797 31.6406 13.6514 66.9043-9.65723 66.9043-44.1162v-239.919c0-16.1953-8.1543-31.3057-21.7129-40.1631-26.5762-17.3643-70.0693-39.9814-128.548-39.9814-68.6084 0-112.781 32-161.913 32-56.5674 0-89.957-11.2803-127.826-28.5566v-83.4434c0-8.83691-7.16309-16-16-16h-16c-8.83691 0-16 7.16309-16 16v406.438c-14.3428 8.2998-24 23.7979-24 41.5615 0 27.5693 23.2422 49.71 51.2012 47.8965 22.9658-1.49023 41.8662-19.4717 44.4805-42.3379.213867-1.83398.308594-3.65918.308594-5.5498 0-5.30273-.860352-10.4053-2.4502-15.1768 22.418 8.68555 49.4199 15.168 80.7207 15.168 68.6084 0 112.781-32 161.913-32zM464 112v240c-31.5059-14.6338-84.5547-32-127.826-32-59.9111 0-101.968 32-161.913 32-41.4365 0-80.4766-16.5879-102.261-32v-232c31.4473 14.5967 84.4648 24 127.826 24 59.9111 0 101.968-32 161.913-32 41.4365 0 80.4775 16.5879 102.261 32z" glyph-name="flag" unicode="&#xf024;"/><glyph d="M336 448c26.5098 0 48-21.4902 48-48v-464l-192 112-192-112v464c0 26.5098 21.4902 48 48 48h288zM336 19.5703v374.434c0 3.31348-2.68555 5.99609-6 5.99609h-276c-3.31152 0-6-2.68848-6-6v-374.43l144 84z" glyph-name="bookmark" horiz-adv-x="384" unicode="&#xf02e;"/><glyph d="M464 384c26.5098 0 48-21.4902 48-48v-288c0-26.5098-21.4902-48-48-48h-416c-26.5098 0-48 21.4902-48 48v288c0 26.5098 21.4902 48 48 48h416zM458 48c3.31152 0 6 2.68848 6 6v276c0 3.31152-2.68848 6-6 6h-404c-3.31152 0-6-2.68848-6-6v-276c0-3.31152 2.68848-6 6-6h404zM128 296c22.0908 0 40-17.9092 40-40s-17.9092-40-40-40-40 17.9092-40 40 17.9092 40 40 40zM96 96v48l39.5137 39.5146c4.6875 4.68652 12.2852 4.68652 16.9717 0l39.5146-39.5146 119.514 119.515c4.6875 4.68652 12.2852 4.68652 16.9717 0l87.5146-87.5146v-80h-320z" glyph-name="image" unicode="&#xf03e;"/><glyph d="M402.3 103.1l32 32c5 5 13.7002 1.5 13.7002-5.69922v-145.4c0-26.5-21.5-48-48-48h-352c-26.5 0-48 21.5-48 48v352c0 26.5 21.5 48 48 48h273.5c7.09961 0 10.7002-8.59961 5.7002-13.7002l-32-32c-1.5-1.5-3.5-2.2998-5.7002-2.2998h-241.5v-352h352v113.5c0 2.09961.799805 4.09961 2.2998 5.59961zM558.9 304.9l-262.601-262.601-90.3994-10c-26.2002-2.89941-48.5 19.2002-45.6006 45.6006l10 90.3994 262.601 262.601c22.8994 22.8994 59.8994 22.8994 82.6992 0l43.2002-43.2002c22.9004-22.9004 22.9004-60 .100586-82.7998zM460.1 274l-58.0996 58.0996-185.8-185.899-7.2998-65.2998 65.2998 7.2998zM524.9 353.7l-43.2002 43.2002c-4.10059 4.09961-10.7998 4.09961-14.7998 0l-30.9004-30.9004 58.0996-58.0996 30.9004 30.8994c4 4.2002 4 10.7998-.0996094 14.9004z" glyph-name="edit" horiz-adv-x="576" unicode="&#xf044;"/><glyph d="M256 440c137 0 248-111 248-248s-111-248-248-248-248 111-248 248 111 248 248 248zM256-8c110.5 0 200 89.5 200 200s-89.5 200-200 200-200-89.5-200-200 89.5-200 200-200zM357.8 254.2l-62.2002-62.2002 62.2002-62.2002c4.7002-4.7002 4.7002-12.2998 0-17l-22.5996-22.5996c-4.7002-4.7002-12.2998-4.7002-17 0l-62.2002 62.2002-62.2002-62.2002c-4.7002-4.7002-12.2998-4.7002-17 0l-22.5996 22.5996c-4.7002 4.7002-4.7002 12.2998 0 17l62.2002 62.2002-62.2002 62.2002c-4.7002 4.7002-4.7002 12.2998 0 17l22.5996 22.5996c4.7002 4.7002 12.2998 4.7002 17 0l62.2002-62.2002 62.2002 62.2002c4.7002 4.7002 12.2998 4.7002 17 0l22.5996-22.5996c4.7002-4.7002 4.7002-12.2998 0-17z" glyph-name="times-circle" unicode="&#xf057;"/><glyph d="M256 440c136.967 0 248-111.033 248-248s-111.033-248-248-248-248 111.033-248 248 111.033 248 248 248zM256 392c-110.549 0-200-89.4678-200-200 0-110.549 89.4678-200 200-200 110.549 0 200 89.4678 200 200 0 110.549-89.4678 200-200 200zM396.204 261.733c4.66699-4.70508 4.63672-12.3037-.0673828-16.9717l-172.589-171.204c-4.70508-4.66797-12.3027-4.63672-16.9697.0683594l-90.7812 91.5156c-4.66797 4.70605-4.63672 12.3047.0683594 16.9717l22.7188 22.5361c4.70508 4.66699 12.3027 4.63574 16.9697-.0693359l59.792-60.2773 141.353 140.216c4.70508 4.66797 12.3027 4.6377 16.9697-.0673828z" glyph-name="check-circle" unicode="&#xf058;"/><glyph d="M256 440c136.957 0 248-111.083 248-248 0-136.997-111.043-248-248-248s-248 111.003-248 248c0 136.917 111.043 248 248 248zM256-8c110.569 0 200 89.4697 200 200 0 110.529-89.5088 200-200 200-110.528 0-200-89.5049-200-200 0-110.569 89.4678-200 200-200zM363.244 247.2c0-67.0518-72.4209-68.084-72.4209-92.8633v-6.33691c0-6.62695-5.37305-12-12-12h-45.6475c-6.62695 0-12 5.37305-12 12v8.65918c0 35.7451 27.1006 50.0342 47.5791 61.5156 17.5615 9.84473 28.3242 16.541 28.3242 29.5791 0 17.2461-21.999 28.6934-39.7842 28.6934-23.1885 0-33.8936-10.9775-48.9424-29.9697-4.05664-5.11914-11.46-6.07031-16.666-2.12402l-27.8232 21.0986c-5.10742 3.87207-6.25098 11.0654-2.64453 16.3633 23.627 34.6934 53.7217 54.1846 100.575 54.1846 49.0713 0 101.45-38.3037 101.45-88.7998zM298 80c0-23.1592-18.8408-42-42-42s-42 18.8408-42 42 18.8408 42 42 42 42-18.8408 42-42z" glyph-name="question-circle" unicode="&#xf059;"/><glyph d="M288 304c.114258 0 .240234-.0175781.354492-.0175781 61.6543 0 111.71-50.0557 111.71-111.71s-50.0557-111.71-111.71-111.71-111.71 50.0557-111.71 111.71c0 10.7422 1.51953 21.1328 4.35547 30.9678 7.95898-4.52637 17.2129-7.17188 27-7.24023 30.9072 0 56 25.0928 56 56-.0683594 9.78711-2.71387 19.041-7.24023 27 9.88379 3.07617 20.3896 4.83008 31.2402 5zM572.52 206.6c2.21387-4.37793 3.46094-9.38965 3.46094-14.626 0-5.2373-1.24707-10.1855-3.46094-14.5635-54.1992-105.771-161.59-177.41-284.52-177.41s-230.29 71.5898-284.52 177.4c-2.21387 4.37793-3.46094 9.38965-3.46094 14.626 0 5.2373 1.24707 10.1855 3.46094 14.5635 54.1992 105.771 161.59 177.41 284.52 177.41s230.29-71.5898 284.52-177.4zM288 48c98.6602 0 189.1 55 237.93 144-48.8398 89-139.27 144-237.93 144s-189.09-55-237.93-144c48.8398-89 139.279-144 237.93-144z" glyph-name="eye" horiz-adv-x="576" unicode="&#xf06e;"/><glyph d="M634-23c3.66895-2.93262 6.00391-7.45117 6.00391-12.5088 0-3.7832-1.31543-7.26074-3.51367-10.001l-10-12.4902c-2.93359-3.66309-7.44824-5.99414-12.502-5.99414-3.77637 0-7.25 1.31152-9.98828 3.50391l-598 467.49c-3.66895 2.93262-6.00391 7.45117-6.00391 12.5088 0 3.7832 1.31543 7.26074 3.51367 10.001l10 12.4902c2.93359 3.66309 7.44824 5.99414 12.502 5.99414 3.77637 0 7.25-1.31152 9.98828-3.50391zM296.79 301.53c7.51172 1.60254 15.2266 2.45508 23.21 2.46973 60.4805 0 109.36-47.9102 111.58-107.85zM343.21 82.46c-7.51367-1.59375-15.2285-2.44336-23.21-2.45996-60.4697 0-109.35 47.9102-111.58 107.84zM320 336c-19.8799 0-39.2803-2.7998-58.2197-7.09961l-46.4102 36.29c32.9199 11.8096 67.9297 18.8096 104.63 18.8096 122.93 0 230.29-71.5898 284.57-177.4 2.21289-4.37793 3.45996-9.38965 3.45996-14.626 0-5.2373-1.24707-10.1855-3.45996-14.5635-14.1924-27.5625-31.9229-52.6689-52.9004-75.1104l-37.7402 29.5c17.2305 18.0527 31.9385 38.1318 44 60.2002-48.8398 89-139.279 144-237.93 144zM320 48c19.8896 0 39.2803 2.7998 58.2197 7.08984l46.4102-36.2803c-32.9199-11.7598-67.9297-18.8096-104.63-18.8096-122.92 0-230.28 71.5898-284.51 177.4-2.21387 4.37793-3.46094 9.38965-3.46094 14.626 0 5.2373 1.24707 10.1855 3.46094 14.5635 14.1885 27.5586 31.916 52.6621 52.8896 75.1006l37.7402-29.5c-17.249-18.0469-31.9727-38.1221-44.0498-60.1904 48.8496-89 139.279-144 237.93-144z" glyph-name="eye-slash" horiz-adv-x="640" unicode="&#xf070;"/><glyph d="M148 160h-40c-6.59961 0-12 5.40039-12 12v40c0 6.59961 5.40039 12 12 12h40c6.59961 0 12-5.40039 12-12v-40c0-6.59961-5.40039-12-12-12zM256 172c0-6.59961-5.40039-12-12-12h-40c-6.59961 0-12 5.40039-12 12v40c0 6.59961 5.40039 12 12 12h40c6.59961 0 12-5.40039 12-12v-40zM352 172c0-6.59961-5.40039-12-12-12h-40c-6.59961 0-12 5.40039-12 12v40c0 6.59961 5.40039 12 12 12h40c6.59961 0 12-5.40039 12-12v-40zM256 76c0-6.59961-5.40039-12-12-12h-40c-6.59961 0-12 5.40039-12 12v40c0 6.59961 5.40039 12 12 12h40c6.59961 0 12-5.40039 12-12v-40zM160 76c0-6.59961-5.40039-12-12-12h-40c-6.59961 0-12 5.40039-12 12v40c0 6.59961 5.40039 12 12 12h40c6.59961 0 12-5.40039 12-12v-40zM352 76c0-6.59961-5.40039-12-12-12h-40c-6.59961 0-12 5.40039-12 12v40c0 6.59961 5.40039 12 12 12h40c6.59961 0 12-5.40039 12-12v-40zM448 336v-352c0-26.5-21.5-48-48-48h-352c-26.5 0-48 21.5-48 48v352c0 26.5 21.5 48 48 48h48v52c0 6.59961 5.40039 12 12 12h40c6.59961 0 12-5.40039 12-12v-52h128v52c0 6.59961 5.40039 12 12 12h40c6.59961 0 12-5.40039 12-12v-52h48c26.5 0 48-21.5 48-48zM400-10v298h-352v-298c0-3.2998 2.7002-6 6-6h340c3.2998 0 6 2.7002 6 6z" glyph-name="calendar-alt" horiz-adv-x="448" unicode="&#xf073;"/><glyph d="M256 416c141.4 0 256-93.0996 256-208s-114.6-208-256-208c-32.7998 0-64 5.2002-92.9004 14.2998-29.0996-20.5996-77.5996-46.2998-139.1-46.2998-9.59961 0-18.2998 5.7002-22.0996 14.5-3.80078 8.7998-2 19 4.59961 26 .5.400391 31.5 33.7998 46.4004 73.2002-33 35.0996-52.9004 78.7002-52.9004 126.3 0 114.9 114.6 208 256 208zM256 48c114.7 0 208 71.7998 208 160s-93.2998 160-208 160-208-71.7998-208-160c0-42.2002 21.7002-74.0996 39.7998-93.4004l20.6006-21.7998-10.6006-28.0996c-5.5-14.5-12.5996-28.1006-19.8994-40.2002 23.5996 7.59961 43.1992 18.9004 57.5 29l19.5 13.7998 22.6992-7.2002c25.3008-8 51.7002-12.0996 78.4004-12.0996z" glyph-name="comment" unicode="&#xf075;"/><glyph d="M464 320c26.5098 0 48-21.4902 48-48v-224c0-26.5098-21.4902-48-48-48h-416c-26.5098 0-48 21.4902-48 48v288c0 26.5098 21.4902 48 48 48h146.74c8.49023 0 16.6299-3.37012 22.6299-9.37012l54.6299-54.6299h192zM464 48v224h-198.62c-8.49023 0-16.6299 3.37012-22.6299 9.37012l-54.6299 54.6299h-140.12v-288h416z" glyph-name="folder" unicode="&#xf07b;"/><glyph d="M527.9 224c37.6992 0 60.6992-41.5 40.6992-73.4004l-79.8994-128c-8.7998-14.0996-24.2002-22.5996-40.7002-22.5996h-400c-26.5 0-48 21.5-48 48v288c0 26.5 21.5 48 48 48h160l64-64h160c26.5 0 48-21.5 48-48v-48h47.9004zM48 330v-233.4l62.9004 104.2c8.69922 14.4004 24.2998 23.2002 41.0996 23.2002h280v42c0 3.2998-2.7002 6-6 6h-173.9l-64 64h-134.1c-3.2998 0-6-2.7002-6-6zM448 48l80 128h-378.8l-77.2002-128h376z" glyph-name="folder-open" horiz-adv-x="576" unicode="&#xf07c;"/><glyph d="M396.8 96c-6.39941 0-12.7998 6.40039-12.7998 12.7998v230.4c0 6.39941 6.40039 12.7998 12.7998 12.7998h22.4004c6.39941 0 12.7998-6.40039 12.7998-12.7998v-230.4c0-6.39941-6.40039-12.7998-12.7998-12.7998h-22.4004zM204.8 96c-6.39941 0-12.7998 6.40039-12.7998 12.7998v198.4c0 6.39941 6.40039 12.7998 12.7998 12.7998h22.4004c6.39941 0 12.7998-6.40039 12.7998-12.7998v-198.4c0-6.39941-6.40039-12.7998-12.7998-12.7998h-22.4004zM300.8 96c-6.39941 0-12.7998 6.40039-12.7998 12.7998v134.4c0 6.39941 6.40039 12.7998 12.7998 12.7998h22.4004c6.39941 0 12.7998-6.40039 12.7998-12.7998v-134.4c0-6.39941-6.40039-12.7998-12.7998-12.7998h-22.4004zM496 48c8.83984 0 16-7.16016 16-16v-16c0-8.83984-7.16016-16-16-16h-464c-17.6699 0-32 14.3301-32 32v336c0 8.83984 7.16016 16 16 16h16c8.83984 0 16-7.16016 16-16v-320h448zM108.8 96c-6.39941 0-12.7998 6.40039-12.7998 12.7998v70.4004c0 6.39941 6.40039 12.7998 12.7998 12.7998h22.4004c6.39941 0 12.7998-6.40039 12.7998-12.7998v-70.4004c0-6.39941-6.40039-12.7998-12.7998-12.7998h-22.4004z" glyph-name="chart-bar" unicode="&#xf080;"/><glyph d="M532 61.7998c15.2998-30.7002 37.4004-54.5 37.7998-54.7998 6.2998-6.7002 8-16.5 4.40039-25-3.7002-8.5-12-14-21.2002-14-53.5996 0-96.7002 20.2998-125.2 38.7998-19-4.39941-39-6.7998-59.7998-6.7998-86.2002 0-159.9 40.4004-191.3 97.7998-9.7002 1.2002-19.2002 2.7998-28.4004 4.90039-28.5-18.6006-71.7002-38.7998-125.2-38.7998-9.19922 0-17.5996 5.5-21.1992 14-3.7002 8.5-1.90039 18.2998 4.39941 25 .400391.399414 22.4004 24.1992 37.7002 54.8994-27.5 27.2002-44 61.2002-44 98.2002 0 88.4004 93.0996 160 208 160 86.2998 0 160.3-40.5 191.8-98.0996 99.7002-11.8008 176.2-77.9004 176.2-157.9 0-37.0996-16.5-71.0996-44-98.2002zM139.2 154.1l19.7998-4.5c16-3.69922 32.5-5.59961 49-5.59961 86.7002 0 160 51.2998 160 112s-73.2998 112-160 112-160-51.2998-160-112c0-28.7002 16.2002-50.5996 29.7002-64l24.7998-24.5-15.5-31.0996c-2.59961-5.10059-5.2998-10.1006-8-14.8008 14.5996 5.10059 29 12.3008 43.0996 21.4004zM498.3 96c13.5 13.4004 29.7002 35.2998 29.7002 64 0 49.2002-48.2998 91.5-112.7 106 .299805-3.2998.700195-6.59961.700195-10 0-80.9004-78-147.5-179.3-158.3 29.0996-29.6006 77.2998-49.7002 131.3-49.7002 16.5 0 33 1.90039 49 5.59961l19.9004 4.60059 17.0996-11.1006c14.0996-9.09961 28.5-16.2998 43.0996-21.3994-2.69922 4.7002-5.39941 9.7002-8 14.7998l-15.5 31.0996z" glyph-name="comments" horiz-adv-x="576" unicode="&#xf086;"/><glyph d="M288 62.7002v-54.2998l-130.7-68.6006c-23.3994-12.2998-50.8994 7.60059-46.3994 33.7002l25 145.5-105.7 103c-19 18.5-8.5 50.7998 17.7002 54.5996l146.1 21.2002 65.2998 132.4c5.90039 11.8994 17.2998 17.7998 28.7002 17.7998v-68.0996l-62.2002-126-139-20.2002 100.601-98-23.7002-138.4z" glyph-name="star-half" horiz-adv-x="576" unicode="&#xf089;"/><glyph d="M484.112 420.111c28.1221-28.123 35.9434-68.0039 19.0215-97.0547-23.0576-39.584 50.1436-163.384-82.3311-295.86-132.301-132.298-256.435-59.3594-295.857-82.3291-29.0459-16.917-68.9219-9.11426-97.0576 19.0205-28.1221 28.1221-35.9434 68.0029-19.0215 97.0547 23.0566 39.5859-50.1436 163.386 82.3301 295.86 132.308 132.309 256.407 59.3496 295.862 82.332 29.0498 16.9219 68.9307 9.09863 97.0537-19.0234zM461.707 347.217c13.5166 23.2031-27.7578 63.7314-50.4883 50.4912-66.6025-38.7939-165.646 45.5898-286.081-74.8457-120.444-120.445-36.0449-219.472-74.8447-286.08-13.542-23.2471 27.8145-63.6953 50.4932-50.4883 66.6006 38.7949 165.636-45.5996 286.076 74.8428 120.444 120.445 36.0449 219.472 74.8447 286.08zM291.846 338.481c1.37012-10.96-6.40332-20.957-17.3643-22.3271-54.8467-6.85547-135.779-87.7871-142.636-142.636-1.37305-10.9883-11.3984-18.7334-22.3262-17.3643-10.9609 1.37012-18.7344 11.3652-17.3643 22.3262 9.16211 73.2852 104.167 168.215 177.364 177.364 10.9531 1.36816 20.9561-6.40234 22.3262-17.3633z" glyph-name="lemon" unicode="&#xf094;"/><glyph d="M527.9 416c26.5996 0 48.0996-21.5 48.0996-48v-352c0-26.5-21.5-48-48.0996-48h-479.801c-26.5996 0-48.0996 21.5-48.0996 48v352c0 26.5 21.5 48 48.0996 48h479.801zM54.0996 368c-3.2998 0-6-2.7002-6-6v-42h479.801v42c0 3.2998-2.7002 6-6 6h-467.801zM521.9 16c3.2998 0 6 2.7002 6 6v170h-479.801v-170c0-3.2998 2.7002-6 6-6h467.801zM192 116v-40c0-6.59961-5.40039-12-12-12h-72c-6.59961 0-12 5.40039-12 12v40c0 6.59961 5.40039 12 12 12h72c6.59961 0 12-5.40039 12-12zM384 116v-40c0-6.59961-5.40039-12-12-12h-136c-6.59961 0-12 5.40039-12 12v40c0 6.59961 5.40039 12 12 12h136c6.59961 0 12-5.40039 12-12z" glyph-name="credit-card" horiz-adv-x="576" unicode="&#xf09d;"/><glyph d="M567.403 212.358c5.59668-8.04688 8.59668-17.6113 8.59668-27.4121v-136.946c0-26.5098-21.4902-48-48-48h-480c-26.5098 0-48 21.4902-48 48v136.946c0 10.167 3.19531 19.6465 8.59668 27.4121l105.08 151.053c8.67383 12.4678 23.0791 20.5889 39.4043 20.5889h269.838c16.3252 0 30.7305-8.12109 39.4043-20.5889zM153.081 336l-77.9131-112h425.664l-77.9131 112h-269.838zM528 48v128h-480v-128h480zM496 112c0-17.6729-14.3271-32-32-32s-32 14.3271-32 32 14.3271 32 32 32 32-14.3271 32-32zM400 112c0-17.6729-14.3271-32-32-32s-32 14.3271-32 32 14.3271 32 32 32 32-14.3271 32-32z" glyph-name="hdd" horiz-adv-x="576" unicode="&#xf0a0;"/><glyph d="M428.8 310.4c45.0996 0 83.2002-38.1016 83.2002-83.2002 0-45.6162-37.7646-83.2002-83.2002-83.2002h-35.6475c-1.71387-7.70605-4.43555-15.2051-7.92969-22.0645 2.50586-22.0059-3.50293-44.9775-15.9844-62.791-1.14062-52.4863-37.3984-91.1445-99.9404-91.1445h-21.2988c-60.0635 0-98.5117 40-127.2 40h-2.67871c-5.74707-4.95215-13.5361-8-22.1201-8h-64c-17.6729 0-32 12.8936-32 28.7998v230.4c0 15.9062 14.3271 28.7998 32 28.7998h64.001c8.58398 0 16.373-3.04785 22.1201-8h2.67871c6.96387 0 14.8623 6.19336 30.1816 23.6689l.128906.148438.130859.145508c8.85645 9.93652 18.1162 20.8398 25.8506 33.2529 18.7051 30.2471 30.3936 78.7842 75.707 78.7842 56.9277 0 92-35.2861 92-83.2002 0-.0283203 0 .0361328 0 .0078125 0-7.66602-.748047-15.1582-2.17578-22.4072h86.1768zM428.8 192c18.9756 0 35.2002 16.2246 35.2002 35.2002 0 18.7002-16.7754 35.2002-35.2002 35.2002h-158.399c0 17.3242 26.3994 35.1992 26.3994 70.3994 0 26.4004-20.625 35.2002-44 35.2002-8.79395 0-20.4443-32.7119-34.9258-56.0996-9.07422-14.5752-19.5244-27.2256-30.7988-39.875-16.1094-18.374-33.8359-36.6328-59.0752-39.5967v-176.753c42.79-3.7627 74.5088-39.6758 120-39.6758h21.2988c40.5244 0 57.124 22.1973 50.6006 61.3252 14.6113 8.00098 24.1514 33.9785 12.9248 53.625 19.3652 18.2246 17.7871 46.3809 4.9502 61.0498h91.0254zM88 64c0 13.2549-10.7451 24-24 24s-24-10.7451-24-24 10.7451-24 24-24 24 10.7451 24 24z" glyph-name="hand-point-right" unicode="&#xf0a4;"/><glyph d="M0 227.2c0 45.0986 38.1006 83.2002 83.2002 83.2002h86.1758c-1.3623 6.91016-2.17578 14.374-2.17578 22.3994 0 47.9141 35.0723 83.2002 92 83.2002 45.3135 0 57.002-48.5371 75.7061-78.7852 7.73438-12.4121 16.9951-23.3154 25.8506-33.2529l.130859-.145508.128906-.148438c15.3213-17.4746 23.2197-23.668 30.1836-23.668h2.67871c5.74707 4.95215 13.5361 8 22.1201 8h64c17.6729 0 32-12.8936 32-28.7998v-230.4c0-15.9062-14.3271-28.7998-32-28.7998h-64c-8.58398 0-16.373 3.04785-22.1201 8h-2.67871c-28.6885 0-67.1367-40-127.2-40h-21.2988c-62.542 0-98.8008 38.6582-99.9404 91.1445-12.4814 17.8135-18.4922 40.7852-15.9844 62.791-3.49414 6.85938-6.21582 14.3584-7.92969 22.0645h-35.6465c-45.4355 0-83.2002 37.584-83.2002 83.2002zM48 227.2c0-18.9756 16.2246-35.2002 35.2002-35.2002h91.0244c-12.8369-14.6689-14.415-42.8252 4.9502-61.0498-11.2256-19.6465-1.68652-45.624 12.9248-53.625-6.52246-39.1279 10.0771-61.3252 50.6016-61.3252h21.2988c45.4912 0 77.21 35.9131 120 39.6768v176.752c-25.2393 2.96289-42.9658 21.2227-59.0752 39.5967-11.2744 12.6494-21.7246 25.2998-30.7988 39.875-14.4814 23.3877-26.1318 56.0996-34.9258 56.0996-23.375 0-44-8.7998-44-35.2002 0-35.2002 26.3994-53.0752 26.3994-70.3994h-158.399c-18.4248 0-35.2002-16.5-35.2002-35.2002zM448 88c-13.2549 0-24-10.7451-24-24s10.7451-24 24-24 24 10.7451 24 24-10.7451 24-24 24z" glyph-name="hand-point-left" unicode="&#xf0a5;"/><glyph d="M105.6 364.8c0 45.0996 38.1016 83.2002 83.2002 83.2002 45.6162 0 83.2002-37.7646 83.2002-83.2002v-35.6465c7.70605-1.71387 15.2051-4.43555 22.0645-7.92969 22.0059 2.50684 44.9775-3.50293 62.791-15.9844 52.4863-1.14062 91.1445-37.3984 91.1445-99.9404v-21.2988c0-60.0635-40-98.5117-40-127.2v-2.67871c4.95215-5.74707 8-13.5361 8-22.1201v-64c0-17.6729-12.8936-32-28.7998-32h-230.4c-15.9062 0-28.7998 14.3271-28.7998 32v64c0 8.58398 3.04785 16.373 8 22.1201v2.67871c0 6.96387-6.19336 14.8623-23.6689 30.1816l-.148438.128906-.145508.130859c-9.93652 8.85645-20.8398 18.1162-33.2529 25.8506-30.2471 18.7051-78.7842 30.3936-78.7842 75.707 0 56.9277 35.2861 92 83.2002 92 .0283203 0-.0361328 0-.0078125 0 7.66602 0 15.1582-.748047 22.4072-2.17578v86.1768zM224 364.8c0 18.9756-16.2246 35.2002-35.2002 35.2002-18.7002 0-35.2002-16.7754-35.2002-35.2002v-158.399c-17.3242 0-35.1992 26.3994-70.3994 26.3994-26.4004 0-35.2002-20.625-35.2002-44 0-8.79395 32.7119-20.4443 56.0996-34.9258 14.5752-9.07422 27.2256-19.5244 39.875-30.7988 18.374-16.1094 36.6328-33.8359 39.5967-59.0752h176.753c3.7627 42.79 39.6758 74.5088 39.6758 120v21.2988c0 40.5244-22.1973 57.124-61.3252 50.6006-8.00098 14.6113-33.9785 24.1514-53.625 12.9248-18.2246 19.3652-46.3809 17.7871-61.0498 4.9502v91.0254zM352 24c-13.2549 0-24-10.7451-24-24s10.7451-24 24-24 24 10.7451 24 24-10.7451 24-24 24z" glyph-name="hand-point-up" horiz-adv-x="448" unicode="&#xf0a6;"/><glyph d="M188.8-64c-45.0986 0-83.2002 38.1006-83.2002 83.2002v86.1758c-6.91016-1.3623-14.374-2.17578-22.3994-2.17578-47.9141 0-83.2002 35.0723-83.2002 92 0 45.3135 48.5371 57.002 78.7852 75.707 12.4121 7.73438 23.3154 16.9951 33.2529 25.8506l.145508.130859.148438.128906c17.4746 15.3213 23.668 23.2197 23.668 30.1836v2.67871c-4.95215 5.74707-8 13.5361-8 22.1201v64c0 17.6729 12.8936 32 28.7998 32h230.4c15.9062 0 28.7998-14.3271 28.7998-32v-64.001c0-8.58398-3.04785-16.373-8-22.1201v-2.67871c0-28.6885 40-67.1367 40-127.2v-21.2988c0-62.542-38.6582-98.8008-91.1445-99.9404-17.8135-12.4814-40.7852-18.4922-62.791-15.9844-6.85938-3.49414-14.3584-6.21582-22.0645-7.92969v-35.6465c0-45.4355-37.584-83.2002-83.2002-83.2002zM188.8-16c18.9756 0 35.2002 16.2246 35.2002 35.2002v91.0244c14.6689-12.8369 42.8252-14.415 61.0498 4.9502 19.6465-11.2256 45.624-1.68652 53.625 12.9248 39.1279-6.52246 61.3252 10.0771 61.3252 50.6016v21.2988c0 45.4912-35.9131 77.21-39.6768 120h-176.752c-2.96289-25.2393-21.2227-42.9658-39.5967-59.0752-12.6494-11.2744-25.2998-21.7246-39.875-30.7988-23.3877-14.4814-56.0996-26.1318-56.0996-34.9258 0-23.375 8.7998-44 35.2002-44 35.2002 0 53.0752 26.3994 70.3994 26.3994v-158.399c0-18.4248 16.5-35.2002 35.2002-35.2002zM328 384c0-13.2549 10.7451-24 24-24s24 10.7451 24 24-10.7451 24-24 24-24-10.7451-24-24z" glyph-name="hand-point-down" horiz-adv-x="448" unicode="&#xf0a7;"/><glyph d="M433.941 382.059c8.68848-8.68848 14.0586-20.6943 14.0586-33.9404v-268.118c0-26.5098-21.4902-48-48-48h-80v-48c0-26.5098-21.4902-48-48-48h-224c-26.5098 0-48 21.4902-48 48v320c0 26.5098 21.4902 48 48 48h80v48c0 26.5098 21.4902 48 48 48h172.118c13.2461 0 25.252-5.37012 33.9404-14.0586zM266-16c3.31152 0 6 2.68848 6 6v42h-96c-26.5098 0-48 21.4902-48 48v224h-74c-3.31152 0-6-2.68848-6-6v-308c0-3.31152 2.68848-6 6-6h212zM394 80c3.31152 0 6 2.68848 6 6v202h-88c-13.2549 0-24 10.7451-24 24v88h-106c-3.31152 0-6-2.68848-6-6v-308c0-3.31152 2.68848-6 6-6h212zM400 336v9.63184c0 1.65527-.670898 3.15723-1.75684 4.24316l-48.3682 48.3682c-1.12598 1.125-2.65234 1.75684-4.24316 1.75684h-9.63184v-64h64z" glyph-name="copy" horiz-adv-x="448" unicode="&#xf0c5;"/><glyph d="M433.941 318.059c8.68848-8.68848 14.0586-20.6943 14.0586-33.9404v-268.118c0-26.5098-21.4902-48-48-48h-352c-26.5098 0-48 21.4902-48 48v352c0 26.5098 21.4902 48 48 48h268.118c13.2461 0 25.252-5.37012 33.9404-14.0586zM272 368h-128v-80h128v80zM394 16c3.31152 0 6 2.68848 6 6v259.632c0 1.65527-.670898 3.15723-1.75684 4.24316l-78.2432 78.2432v-100.118c0-13.2549-10.7451-24-24-24h-176c-13.2549 0-24 10.7451-24 24v104h-42c-3.31152 0-6-2.68848-6-6v-340c0-3.31152 2.68848-6 6-6h340zM224 216c48.5234 0 88-39.4766 88-88s-39.4766-88-88-88-88 39.4766-88 88 39.4766 88 88 88zM224 88c22.0557 0 40 17.9443 40 40s-17.9443 40-40 40-40-17.9443-40-40 17.9443-40 40-40z" glyph-name="save" horiz-adv-x="448" unicode="&#xf0c7;"/><glyph d="M400 416c26.5 0 48-21.5 48-48v-352c0-26.5-21.5-48-48-48h-352c-26.5 0-48 21.5-48 48v352c0 26.5 21.5 48 48 48h352zM394 16c3.2998 0 6 2.7002 6 6v340c0 3.2998-2.7002 6-6 6h-340c-3.2998 0-6-2.7002-6-6v-340c0-3.2998 2.7002-6 6-6h340z" glyph-name="square" horiz-adv-x="448" unicode="&#xf0c8;"/><glyph d="M464 384c26.5098 0 48-21.4902 48-48v-288c0-26.5098-21.4902-48-48-48h-416c-26.5098 0-48 21.4902-48 48v288c0 26.5098 21.4902 48 48 48h416zM464 336h-416v-40.8047c22.4248-18.2627 58.1797-46.6602 134.587-106.49 16.834-13.2422 50.2051-45.0762 73.4131-44.7012 23.2119-.371094 56.5723 31.4541 73.4131 44.7012 76.4189 59.8389 112.165 88.2305 134.587 106.49v40.8047zM48 48h416v185.601c-22.915-18.252-55.4189-43.8691-104.947-82.6523-22.5439-17.748-60.3359-55.1787-103.053-54.9473-42.9277-.231445-81.2051 37.75-103.062 54.9551-49.5293 38.7842-82.0244 64.3945-104.938 82.6455v-185.602z" glyph-name="envelope" unicode="&#xf0e0;"/><glyph d="M176 368c8.83984 0 16-7.16016 16-16s-7.16016-16-16-16c-35.2803 0-64-28.7002-64-64 0-8.83984-7.16016-16-16-16s-16 7.16016-16 16c0 52.9404 43.0596 96 96 96zM96.0596-11.1699l-.0400391 43.1797h159.961l-.0507812-43.1797c-.00976562-3.13965-.939453-6.21973-2.67969-8.83984l-24.5098-36.8398c-2.95996-4.45996-7.95996-7.14062-13.3203-7.14062h-78.8496c-5.35059 0-10.3506 2.68066-13.3203 7.14062l-24.5098 36.8398c-1.75 2.62012-2.68066 5.68945-2.68066 8.83984zM176 448c97.2002 0 176-78.7998 176-176 0-44.3701-16.4502-84.8496-43.5498-115.79-16.6406-18.9795-42.7402-58.79-52.4199-92.1602v-.0498047h-48v.0996094c.00488281 4.98145.790039 9.78809 2.21973 14.3008 5.67969 17.9893 22.9902 64.8496 62.0996 109.46 20.4102 23.29 31.6504 53.1699 31.6504 84.1396 0 70.5801-57.4199 128-128 128-68.2803 0-128.15-54.3604-127.95-128 .0898438-30.9902 11.0703-60.71 31.6104-84.1396 39.3496-44.9004 56.5801-91.8604 62.1699-109.67 1.42969-4.56055 2.13965-9.30078 2.15039-14.0703v-.120117h-48v.0595703c-9.68066 33.3604-35.7803 73.1709-52.4209 92.1602-27.1094 30.9307-43.5596 71.4102-43.5596 115.78 0 93.0303 73.7197 176 176 176z" glyph-name="lightbulb" horiz-adv-x="352" unicode="&#xf0eb;"/><glyph d="M439.39 85.71c6-6.44043 8.66016-14.1602 8.61035-21.71-.0996094-16.4004-12.9805-32-32.0996-32h-383.801c-19.1191 0-31.9893 15.5996-32.0996 32-.0498047 7.5498 2.61035 15.2598 8.61035 21.71 19.3193 20.7598 55.4697 51.9902 55.4697 154.29 0 77.7002 54.4795 139.9 127.939 155.16v20.8398c0 17.6699 14.3203 32 31.9805 32s31.9805-14.3301 31.9805-32v-20.8398c73.46-15.2598 127.939-77.46 127.939-155.16 0-102.3 36.1504-133.53 55.4697-154.29zM67.5303 80h312.939c-21.2197 27.96-44.4199 74.3203-44.5293 159.42 0 .200195.0595703.379883.0595703.580078 0 61.8604-50.1396 112-112 112s-112-50.1396-112-112c0-.200195.0595703-.379883.0595703-.580078-.109375-85.0898-23.3096-131.45-44.5293-159.42zM224-64c-35.3203 0-63.9697 28.6504-63.9697 64h127.939c0-35.3496-28.6494-64-63.9697-64z" glyph-name="bell" horiz-adv-x="448" unicode="&#xf0f3;"/><glyph d="M128 204v40c0 6.62695 5.37305 12 12 12h40c6.62695 0 12-5.37305 12-12v-40c0-6.62695-5.37305-12-12-12h-40c-6.62695 0-12 5.37305-12 12zM268 192c-6.62695 0-12 5.37305-12 12v40c0 6.62695 5.37305 12 12 12h40c6.62695 0 12-5.37305 12-12v-40c0-6.62695-5.37305-12-12-12h-40zM192 108c0-6.62695-5.37305-12-12-12h-40c-6.62695 0-12 5.37305-12 12v40c0 6.62695 5.37305 12 12 12h40c6.62695 0 12-5.37305 12-12v-40zM268 96c-6.62695 0-12 5.37305-12 12v40c0 6.62695 5.37305 12 12 12h40c6.62695 0 12-5.37305 12-12v-40c0-6.62695-5.37305-12-12-12h-40zM448-28v-36h-448v36c0 6.62695 5.37305 12 12 12h19.5v378.965c0 11.6172 10.7451 21.0352 24 21.0352h88.5v40c0 13.2549 10.7451 24 24 24h112c13.2549 0 24-10.7451 24-24v-40h88.5c13.2549 0 24-9.41797 24-21.0352v-378.965h19.5c6.62695 0 12-5.37305 12-12zM79.5-15h112.5v67c0 6.62695 5.37305 12 12 12h40c6.62695 0 12-5.37305 12-12v-67h112.5v351h-64.5v-24c0-13.2549-10.7451-24-24-24h-112c-13.2549 0-24 10.7451-24 24v24h-64.5v-351zM266 384h-26v26c0 3.31152-2.68848 6-6 6h-20c-3.31152 0-6-2.68848-6-6v-26h-26c-3.31152 0-6-2.68848-6-6v-20c0-3.31152 2.68848-6 6-6h26v-26c0-3.31152 2.68848-6 6-6h20c3.31152 0 6 2.68848 6 6v26h26c3.31152 0 6 2.68848 6 6v20c0 3.31152-2.68848 6-6 6z" glyph-name="hospital" horiz-adv-x="448" unicode="&#xf0f8;"/><glyph d="M352 208v-32c0-6.59961-5.40039-12-12-12h-88v-88c0-6.59961-5.40039-12-12-12h-32c-6.59961 0-12 5.40039-12 12v88h-88c-6.59961 0-12 5.40039-12 12v32c0 6.59961 5.40039 12 12 12h88v88c0 6.59961 5.40039 12 12 12h32c6.59961 0 12-5.40039 12-12v-88h88c6.59961 0 12-5.40039 12-12zM448 368v-352c0-26.5-21.5-48-48-48h-352c-26.5 0-48 21.5-48 48v352c0 26.5 21.5 48 48 48h352c26.5 0 48-21.5 48-48zM400 22v340c0 3.2998-2.7002 6-6 6h-340c-3.2998 0-6-2.7002-6-6v-340c0-3.2998 2.7002-6 6-6h340c3.2998 0 6 2.7002 6 6z" glyph-name="plus-square" horiz-adv-x="448" unicode="&#xf0fe;"/><glyph d="M256 440c137 0 248-111 248-248s-111-248-248-248-248 111-248 248 111 248 248 248zM256-8c110.5 0 200 89.5 200 200s-89.5 200-200 200-200-89.5-200-200 89.5-200 200-200z" glyph-name="circle" unicode="&#xf111;"/><glyph d="M248 440c137 0 248-111 248-248s-111-248-248-248-248 111-248 248 111 248 248 248zM248-8c110.3 0 200 89.7002 200 200s-89.7002 200-200 200-200-89.7002-200-200 89.7002-200 200-200zM168 208c-17.7002 0-32 14.2998-32 32s14.2998 32 32 32 32-14.2998 32-32-14.2998-32-32-32zM328 208c-17.7002 0-32 14.2998-32 32s14.2998 32 32 32 32-14.2998 32-32-14.2998-32-32-32zM332 135.4c8.5 10.1992 23.7002 11.5 33.7998 3.09961 10.2002-8.5 11.6006-23.5996 3.10059-33.7998-30-36-74.1006-56.6006-120.9-56.6006s-90.9004 20.6006-120.9 56.6006c-8.39941 10.2002-7.09961 25.2998 3.10059 33.7998 10.0996 8.40039 25.2998 7.09961 33.7998-3.09961 20.7998-25.1006 51.5-39.4004 84-39.4004s63.2002 14.4004 84 39.4004z" glyph-name="smile" horiz-adv-x="496" unicode="&#xf118;"/><glyph d="M248 440c137 0 248-111 248-248s-111-248-248-248-248 111-248 248 111 248 248 248zM248-8c110.3 0 200 89.7002 200 200s-89.7002 200-200 200-200-89.7002-200-200 89.7002-200 200-200zM168 208c-17.7002 0-32 14.2998-32 32s14.2998 32 32 32 32-14.2998 32-32-14.2998-32-32-32zM328 272c17.7002 0 32-14.2998 32-32s-14.2998-32-32-32-32 14.2998-32 32 14.2998 32 32 32zM248 144c40.2002 0 78-17.7002 103.8-48.5996 8.40039-10.2002 7.10059-25.3008-3.09961-33.8008-10.7002-8.7998-25.7002-6.59961-33.7998 3.10059-16.6006 20-41 31.3994-66.9004 31.3994s-50.2998-11.5-66.9004-31.3994c-8.5-10.2002-23.5996-11.5-33.7998-3.10059-10.2002 8.5-11.5996 23.6006-3.09961 33.8008 25.7998 30.8994 63.5996 48.5996 103.8 48.5996z" glyph-name="frown" horiz-adv-x="496" unicode="&#xf119;"/><glyph d="M248 440c137 0 248-111 248-248s-111-248-248-248-248 111-248 248 111 248 248 248zM248-8c110.3 0 200 89.7002 200 200s-89.7002 200-200 200-200-89.7002-200-200 89.7002-200 200-200zM168 208c-17.7002 0-32 14.2998-32 32s14.2998 32 32 32 32-14.2998 32-32-14.2998-32-32-32zM328 272c17.7002 0 32-14.2998 32-32s-14.2998-32-32-32-32 14.2998-32 32 14.2998 32 32 32zM336 128c13.2002 0 24-10.7998 24-24s-10.7998-24-24-24h-176c-13.2002 0-24 10.7998-24 24s10.7998 24 24 24h176z" glyph-name="meh" horiz-adv-x="496" unicode="&#xf11a;"/><glyph d="M528 384c26.5098 0 48-21.4902 48-48v-288c0-26.5098-21.4902-48-48-48h-480c-26.5098 0-48 21.4902-48 48v288c0 26.5098 21.4902 48 48 48h480zM536 48v288c0 4.41113-3.58887 8-8 8h-480c-4.41113 0-8-3.58887-8-8v-288c0-4.41113 3.58887-8 8-8h480c4.41113 0 8 3.58887 8 8zM170 178c0-6.62695-5.37305-12-12-12h-28c-6.62695 0-12 5.37305-12 12v28c0 6.62695 5.37305 12 12 12h28c6.62695 0 12-5.37305 12-12v-28zM266 178c0-6.62695-5.37305-12-12-12h-28c-6.62695 0-12 5.37305-12 12v28c0 6.62695 5.37305 12 12 12h28c6.62695 0 12-5.37305 12-12v-28zM362 178c0-6.62695-5.37305-12-12-12h-28c-6.62695 0-12 5.37305-12 12v28c0 6.62695 5.37305 12 12 12h28c6.62695 0 12-5.37305 12-12v-28zM458 178c0-6.62695-5.37305-12-12-12h-28c-6.62695 0-12 5.37305-12 12v28c0 6.62695 5.37305 12 12 12h28c6.62695 0 12-5.37305 12-12v-28zM122 96c0-6.62695-5.37305-12-12-12h-28c-6.62695 0-12 5.37305-12 12v28c0 6.62695 5.37305 12 12 12h28c6.62695 0 12-5.37305 12-12v-28zM506 96c0-6.62695-5.37305-12-12-12h-28c-6.62695 0-12 5.37305-12 12v28c0 6.62695 5.37305 12 12 12h28c6.62695 0 12-5.37305 12-12v-28zM122 260c0-6.62695-5.37305-12-12-12h-28c-6.62695 0-12 5.37305-12 12v28c0 6.62695 5.37305 12 12 12h28c6.62695 0 12-5.37305 12-12v-28zM218 260c0-6.62695-5.37305-12-12-12h-28c-6.62695 0-12 5.37305-12 12v28c0 6.62695 5.37305 12 12 12h28c6.62695 0 12-5.37305 12-12v-28zM314 260c0-6.62695-5.37305-12-12-12h-28c-6.62695 0-12 5.37305-12 12v28c0 6.62695 5.37305 12 12 12h28c6.62695 0 12-5.37305 12-12v-28zM410 260c0-6.62695-5.37305-12-12-12h-28c-6.62695 0-12 5.37305-12 12v28c0 6.62695 5.37305 12 12 12h28c6.62695 0 12-5.37305 12-12v-28zM506 260c0-6.62695-5.37305-12-12-12h-28c-6.62695 0-12 5.37305-12 12v28c0 6.62695 5.37305 12 12 12h28c6.62695 0 12-5.37305 12-12v-28zM408 102c0-6.62695-5.37305-12-12-12h-216c-6.62695 0-12 5.37305-12 12v16c0 6.62695 5.37305 12 12 12h216c6.62695 0 12-5.37305 12-12v-16z" glyph-name="keyboard" horiz-adv-x="576" unicode="&#xf11c;"/><glyph d="M400 384c26.5 0 48-21.5 48-48v-352c0-26.5-21.5-48-48-48h-352c-26.5 0-48 21.5-48 48v352c0 26.5 21.5 48 48 48h48v52c0 6.59961 5.40039 12 12 12h40c6.59961 0 12-5.40039 12-12v-52h128v52c0 6.59961 5.40039 12 12 12h40c6.59961 0 12-5.40039 12-12v-52h48zM394-16c3.2998 0 6 2.7002 6 6v298h-352v-298c0-3.2998 2.7002-6 6-6h340z" glyph-name="calendar" horiz-adv-x="448" unicode="&#xf133;"/><glyph d="M371.7 210c16.3994-9.2002 16.3994-32.9004 0-42l-176-101c-15.9004-8.7998-35.7002 2.59961-35.7002 21v208c0 18.5 19.9004 29.7998 35.7002 21zM504 192c0-137-111-248-248-248s-248 111-248 248 111 248 248 248 248-111 248-248zM56 192c0-110.5 89.5-200 200-200s200 89.5 200 200-89.5 200-200 200-200-89.5-200-200z" glyph-name="play-circle" unicode="&#xf144;"/><glyph d="M108 164c-6.59961 0-12 5.40039-12 12v32c0 6.59961 5.40039 12 12 12h232c6.59961 0 12-5.40039 12-12v-32c0-6.59961-5.40039-12-12-12h-232zM448 368v-352c0-26.5-21.5-48-48-48h-352c-26.5 0-48 21.5-48 48v352c0 26.5 21.5 48 48 48h352c26.5 0 48-21.5 48-48zM400 22v340c0 3.2998-2.7002 6-6 6h-340c-3.2998 0-6-2.7002-6-6v-340c0-3.2998 2.7002-6 6-6h340c3.2998 0 6 2.7002 6 6z" glyph-name="minus-square" horiz-adv-x="448" unicode="&#xf146;"/><glyph d="M400 416c26.5098 0 48-21.4902 48-48v-352c0-26.5098-21.4902-48-48-48h-352c-26.5098 0-48 21.4902-48 48v352c0 26.5098 21.4902 48 48 48h352zM400 16v352h-352v-352h352zM364.136 257.724l-172.589-171.204c-4.70508-4.66699-12.3027-4.63672-16.9697.0683594l-90.7812 91.5156c-4.66699 4.70508-4.63672 12.3037.0693359 16.9717l22.7188 22.5361c4.70508 4.66699 12.3027 4.63672 16.9697-.0693359l59.792-60.2773 141.353 140.217c4.70508 4.66699 12.3027 4.63672 16.9697-.0683594l22.5361-22.7178c4.66699-4.70605 4.63672-12.3047-.0683594-16.9717z" glyph-name="check-square" horiz-adv-x="448" unicode="&#xf14a;"/><glyph d="M561.938 289.94c18.75-18.7402 18.75-49.1406 0-67.8809l-143.998-144c-29.9727-29.9727-81.9404-9.05273-81.9404 33.9404v53.7998c-101.266-7.83691-99.625-31.6406-84.1104-78.7598 14.2285-43.0889-33.4736-79.248-71.0195-55.7402-51.6924 32.3057-84.8701 83.0635-84.8701 144.76 0 39.3408 12.2197 72.7402 36.3301 99.3008 19.8398 21.8398 47.7402 38.4697 82.9102 49.4199 36.7295 11.4395 78.3096 16.1094 120.76 17.9893v57.1982c0 42.9355 51.9258 63.9541 81.9404 33.9404zM384 112l144 144-144 144v-104.09c-110.86-.90332-240-10.5166-240-119.851 0-52.1396 32.79-85.6094 62.3096-104.06-39.8174 120.65 48.999 141.918 177.69 143.84v-103.84zM408.74 27.5068c7.4375 2.125 14.5508 5.30566 20.9736 9.30273 7.97656 4.95215 18.2861-.825195 18.2861-10.2139v-42.5957c0-26.5098-21.4902-48-48-48h-352c-26.5098 0-48 21.4902-48 48v352c0 26.5098 21.4902 48 48 48h132c6.62695 0 12-5.37305 12-12v-4.48633c0-4.91699-2.9873-9.36914-7.56934-11.1514-13.7021-5.33105-26.3955-11.5371-38.0498-18.585-1.82715-1.11523-3.98633-1.76953-6.28027-1.77734h-86.1006c-3.31152 0-6-2.68848-6-6v-340c0-3.31152 2.68848-6 6-6h340c3.31152 0 6 2.68848 6 6v25.9658c0 5.37012 3.5791 10.0596 8.74023 11.541z" glyph-name="share-square" horiz-adv-x="576" unicode="&#xf14d;"/><glyph d="M347.94 318.14c16.6592 7.61035 33.8096-9.54004 26.1992-26.1992l-65.9697-144.341c-3.19238-6.9834-8.78613-12.5771-15.7695-15.7695l-144.341-65.9697c-16.6592-7.61035-33.8096 9.5498-26.1992 26.1992l65.9697 144.341c3.19238 6.9834 8.78613 12.5771 15.7695 15.7695zM270.58 169.42c12.4697 12.4697 12.4697 32.6904 0 45.1602s-32.6904 12.4697-45.1602 0-12.4697-32.6904 0-45.1602 32.6904-12.4697 45.1602 0zM248 440c136.97 0 248-111.03 248-248s-111.03-248-248-248-248 111.03-248 248 111.03 248 248 248zM248-8c110.28 0 200 89.7197 200 200s-89.7197 200-200 200-200-89.7197-200-200 89.7197-200 200-200z" glyph-name="compass" horiz-adv-x="496" unicode="&#xf14e;"/><glyph d="M125.1 240h197.801c10.6992 0 16.0996-13 8.5-20.5l-98.9004-98.2998c-4.7002-4.7002-12.2002-4.7002-16.9004 0l-98.8994 98.2998c-7.7002 7.5-2.2998 20.5 8.39941 20.5zM448 368v-352c0-26.5-21.5-48-48-48h-352c-26.5 0-48 21.5-48 48v352c0 26.5 21.5 48 48 48h352c26.5 0 48-21.5 48-48zM400 22v340c0 3.2998-2.7002 6-6 6h-340c-3.2998 0-6-2.7002-6-6v-340c0-3.2998 2.7002-6 6-6h340c3.2998 0 6 2.7002 6 6z" glyph-name="caret-square-down" horiz-adv-x="448" unicode="&#xf150;"/><glyph d="M322.9 144h-197.801c-10.6992 0-16.0996 13-8.5 20.5l98.9004 98.2998c4.7002 4.7002 12.2002 4.7002 16.9004 0l98.8994-98.2998c7.7002-7.5 2.2998-20.5-8.39941-20.5zM448 368v-352c0-26.5-21.5-48-48-48h-352c-26.5 0-48 21.5-48 48v352c0 26.5 21.5 48 48 48h352c26.5 0 48-21.5 48-48zM400 22v340c0 3.2998-2.7002 6-6 6h-340c-3.2998 0-6-2.7002-6-6v-340c0-3.2998 2.7002-6 6-6h340c3.2998 0 6 2.7002 6 6z" glyph-name="caret-square-up" horiz-adv-x="448" unicode="&#xf151;"/><glyph d="M176 93.0996v197.801c0 10.6992 13 16.0996 20.5 8.5l98.2998-98.9004c4.7002-4.7002 4.7002-12.2002 0-16.9004l-98.2998-98.8994c-7.5-7.7002-20.5-2.2998-20.5 8.39941zM448 368v-352c0-26.5-21.5-48-48-48h-352c-26.5 0-48 21.5-48 48v352c0 26.5 21.5 48 48 48h352c26.5 0 48-21.5 48-48zM400 22v340c0 3.2998-2.7002 6-6 6h-340c-3.2998 0-6-2.7002-6-6v-340c0-3.2998 2.7002-6 6-6h340c3.2998 0 6 2.7002 6 6z" glyph-name="caret-square-right" horiz-adv-x="448" unicode="&#xf152;"/><glyph d="M369.9 350.1c9-9 14.0996-21.2998 14.0996-34v-332.1c0-26.5-21.5-48-48-48h-288c-26.5 0-48 21.5-48 48v416c0 26.5 21.5 48 48 48.0996h204.1c12.7002 0 24.9004-5.09961 33.9004-14.0996zM332.1 320l-76.0996 76.0996v-76.0996h76.0996zM48-16h288v288h-104c-13.2998 0-24 10.7002-24 24v104h-160v-416z" glyph-name="file" horiz-adv-x="384" unicode="&#xf15b;"/><glyph d="M288 200v-28c0-6.59961-5.40039-12-12-12h-168c-6.59961 0-12 5.40039-12 12v28c0 6.59961 5.40039 12 12 12h168c6.59961 0 12-5.40039 12-12zM276 128c6.59961 0 12-5.40039 12-12v-28c0-6.59961-5.40039-12-12-12h-168c-6.59961 0-12 5.40039-12 12v28c0 6.59961 5.40039 12 12 12h168zM384 316.1v-332.1c0-26.5-21.5-48-48-48h-288c-26.5 0-48 21.5-48 48v416c0 26.5 21.5 48 48 48h204.1c12.7002 0 24.9004-5.09961 33.9004-14.0996l83.9004-83.9004c9-8.90039 14.0996-21.2002 14.0996-33.9004zM256 396.1v-76.0996h76.0996zM336-16v288h-104c-13.2998 0-24 10.7002-24 24v104h-160v-416h288z" glyph-name="file-alt" horiz-adv-x="384" unicode="&#xf15c;"/><glyph d="M466.27 161.31c4.6748-22.6465.864258-44.5371-8.98926-62.9893 2.95898-23.8682-4.02148-48.5654-17.3398-66.9902-.954102-55.9072-35.8232-95.3301-112.94-95.3301-7 0-15 .00976562-22.2197.00976562-102.742 0-133.293 38.9395-177.803 39.9404-3.56934-13.7764-16.085-23.9502-30.9775-23.9502h-64c-17.6729 0-32 14.3271-32 32v240c0 17.6729 14.3271 32 32 32h98.7598c19.1455 16.9531 46.0137 60.6533 68.7598 83.4004 13.667 13.667 10.1533 108.6 71.7607 108.6 57.5801 0 95.2695-31.9355 95.2695-104.73 0-18.4092-3.92969-33.7295-8.84961-46.5391h36.4795c48.6025 0 85.8203-41.5654 85.8203-85.5801 0-19.1504-4.95996-34.9902-13.7305-49.8408zM404.52 107.48c21.5811 20.3838 18.6992 51.0645 5.21094 65.6191 9.44922 0 22.3594 18.9102 22.2695 37.8105-.0898438 18.9102-16.71 37.8203-37.8203 37.8203h-103.989c0 37.8193 28.3594 55.3691 28.3594 94.5391 0 23.75 0 56.7305-47.2695 56.7305-18.9102-18.9102-9.45996-66.1797-37.8203-94.54-26.5596-26.5703-66.1797-97.46-94.54-97.46h-10.9199v-186.17c53.6113 0 100.001-37.8203 171.64-37.8203h37.8203c35.5117 0 60.8203 17.1201 53.1201 65.9004 15.2002 8.16016 26.5 36.4395 13.9395 57.5703zM88 16c0 13.2549-10.7451 24-24 24s-24-10.7451-24-24 10.7451-24 24-24 24 10.7451 24 24z" glyph-name="thumbs-up" unicode="&#xf164;"/><glyph d="M466.27 222.69c8.77051-14.8506 13.7305-30.6904 13.7305-49.8408 0-44.0146-37.2178-85.5801-85.8203-85.5801h-36.4795c4.91992-12.8096 8.84961-28.1299 8.84961-46.5391 0-72.7949-37.6895-104.73-95.2695-104.73-61.6074 0-58.0938 94.9326-71.7607 108.6-22.7461 22.7471-49.6133 66.4473-68.7598 83.4004h-7.05176c-5.5332-9.56152-15.8662-16-27.708-16h-64c-17.6729 0-32 14.3271-32 32v240c0 17.6729 14.3271 32 32 32h64c8.11328 0 15.5146-3.02539 21.1553-8h10.8447c40.9971 0 73.1953 39.9902 176.78 39.9902 7.21973 0 15.2197.00976562 22.2197.00976562 77.1172 0 111.986-39.4229 112.94-95.3301 13.3184-18.4248 20.2979-43.1221 17.3398-66.9902 9.85352-18.4521 13.6641-40.3428 8.98926-62.9893zM64 152c13.2549 0 24 10.7451 24 24s-10.7451 24-24 24-24-10.7451-24-24 10.7451-24 24-24zM394.18 135.27c21.1104 0 37.7305 18.9102 37.8203 37.8203.0898438 18.9004-12.8203 37.8105-22.2695 37.8105 13.4883 14.5547 16.3701 45.2354-5.21094 65.6191 12.5605 21.1309 1.26074 49.4102-13.9395 57.5703 7.7002 48.7803-17.6084 65.9004-53.1201 65.9004h-37.8203c-71.6387 0-118.028-37.8203-171.64-37.8203v-186.17h10.9199c28.3604 0 67.9805-70.8896 94.54-97.46 28.3604-28.3604 18.9102-75.6299 37.8203-94.54 47.2695 0 47.2695 32.9805 47.2695 56.7305 0 39.1699-28.3594 56.7197-28.3594 94.5391h103.989z" glyph-name="thumbs-down" unicode="&#xf165;"/><glyph d="M494.2 226.1c11.2002-7.59961 17.7998-20.0996 17.8994-33.6992 0-13.4004-6.69922-26-17.7998-33.5l-59.7998-40.5 13.7002-71c2.5-13.2002-1.60059-26.8008-11.1006-36.3008s-22.8994-13.7998-36.2998-11.0996l-70.8994 13.7002-40.4004-59.9004c-7.5-11.0996-20.0996-17.7998-33.5-17.7998s-26 6.7002-33.5 17.9004l-40.4004 59.8994-70.7998-13.7002c-13.3994-2.59961-26.7998 1.60059-36.2998 11.1006s-13.7002 23.0996-11.0996 36.2998l13.6992 71-59.7998 40.5c-11.0996 7.5-17.7998 20-17.7998 33.5s6.59961 26 17.7998 33.5996l59.7998 40.5-13.6992 71c-2.60059 13.2002 1.59961 26.7002 11.0996 36.3008 9.5 9.59961 23 13.6992 36.2998 11.1992l70.7998-13.6992 40.4004 59.8994c15.0996 22.2998 51.9004 22.2998 67 0l40.4004-59.8994 70.8994 13.6992c13 2.60059 26.6006-1.59961 36.2002-11.0996 9.5-9.59961 13.7002-23.2002 11.0996-36.4004l-13.6992-71zM381.3 140.5l76.7998 52.0996-76.7998 52 17.6006 91.1006-91-17.6006-51.9004 76.9004-51.7998-76.7998-91 17.5996 17.5996-91.2002-76.7998-52 76.7998-52-17.5996-91.1992 90.8994 17.5996 51.9004-77 51.9004 76.9004 91-17.6006zM256 296c57.2998 0 104-46.7002 104-104s-46.7002-104-104-104-104 46.7002-104 104 46.7002 104 104 104zM256 136c30.9004 0 56 25.0996 56 56s-25.0996 56-56 56-56-25.0996-56-56 25.0996-56 56-56z" glyph-name="sun" unicode="&#xf185;"/><glyph d="M279.135-64c-141.424 0-256 114.64-256 256 0 141.425 114.641 256 256 256 16.0342-.00292969 31.5078-1.46875 46.7354-4.27734 44.0205-8.13086 53.7666-66.8691 15.0215-88.9189-41.374-23.5439-67.4336-67.4121-67.4336-115.836 0-83.5234 75.9238-146.475 158.272-130.792 43.6904 8.32129 74.5186-42.5693 46.248-77.4004-47.8613-58.9717-120.088-94.7754-198.844-94.7754zM279.135 400c-114.875 0-208-93.125-208-208s93.125-208 208-208c65.2314 0 123.439 30.0361 161.575 77.0244-111.611-21.2568-215.252 64.0957-215.252 177.943 0 67.5127 36.9326 126.392 91.6934 157.555-12.3271 2.27637-25.0312 3.47754-38.0166 3.47754z" glyph-name="moon" unicode="&#xf186;"/><glyph d="M272 290.9v-197.801c0-10.6992-13-16.0996-20.5-8.5l-98.2998 98.9004c-4.7002 4.7002-4.7002 12.2002 0 16.9004l98.2998 98.8994c7.5 7.7002 20.5 2.2998 20.5-8.39941zM448 368v-352c0-26.5-21.5-48-48-48h-352c-26.5 0-48 21.5-48 48v352c0 26.5 21.5 48 48 48h352c26.5 0 48-21.5 48-48zM400 22v340c0 3.2998-2.7002 6-6 6h-340c-3.2998 0-6-2.7002-6-6v-340c0-3.2998 2.7002-6 6-6h340c3.2998 0 6 2.7002 6 6z" glyph-name="caret-square-left" horiz-adv-x="448" unicode="&#xf191;"/><glyph d="M256 392c-110.549 0-200-89.4678-200-200 0-110.549 89.4678-200 200-200 110.549 0 200 89.4678 200 200 0 110.549-89.4678 200-200 200zM256 440c136.967 0 248-111.033 248-248s-111.033-248-248-248-248 111.033-248 248 111.033 248 248 248zM256 272c44.1826 0 80-35.8174 80-80s-35.8174-80-80-80-80 35.8174-80 80 35.8174 80 80 80z" glyph-name="dot-circle" unicode="&#xf192;"/><glyph d="M128 300v40c0 6.59961 5.40039 12 12 12h40c6.59961 0 12-5.40039 12-12v-40c0-6.59961-5.40039-12-12-12h-40c-6.59961 0-12 5.40039-12 12zM268 288c-6.59961 0-12 5.40039-12 12v40c0 6.59961 5.40039 12 12 12h40c6.59961 0 12-5.40039 12-12v-40c0-6.59961-5.40039-12-12-12h-40zM140 192c-6.59961 0-12 5.40039-12 12v40c0 6.59961 5.40039 12 12 12h40c6.59961 0 12-5.40039 12-12v-40c0-6.59961-5.40039-12-12-12h-40zM268 192c-6.59961 0-12 5.40039-12 12v40c0 6.59961 5.40039 12 12 12h40c6.59961 0 12-5.40039 12-12v-40c0-6.59961-5.40039-12-12-12h-40zM192 108c0-6.59961-5.40039-12-12-12h-40c-6.59961 0-12 5.40039-12 12v40c0 6.59961 5.40039 12 12 12h40c6.59961 0 12-5.40039 12-12v-40zM268 96c-6.59961 0-12 5.40039-12 12v40c0 6.59961 5.40039 12 12 12h40c6.59961 0 12-5.40039 12-12v-40c0-6.59961-5.40039-12-12-12h-40zM448-28v-36h-448v36c0 6.59961 5.40039 12 12 12h19.5v440c0 13.2998 10.7002 24 24 24h337c13.2998 0 24-10.7002 24-24v-440h19.5c6.59961 0 12-5.40039 12-12zM79.5-15h112.5v67c0 6.59961 5.40039 12 12 12h40c6.59961 0 12-5.40039 12-12v-67h112.5v414l-288.5 1z" glyph-name="building" horiz-adv-x="448" unicode="&#xf1ad;"/><glyph d="M369.9 350.1c9-9 14.0996-21.2998 14.0996-34v-332.1c0-26.5-21.5-48-48-48h-288c-26.5 0-48 21.5-48 48v416c0 26.5 21.5 48 48 48.0996h204.1c12.7002 0 24.9004-5.09961 33.9004-14.0996zM332.1 320l-76.0996 76.0996v-76.0996h76.0996zM48-16h288v288h-104c-13.2998 0-24 10.7002-24 24v104h-160v-416zM298.2 127.7c10.5-10.5 8-38.7002-17.5-38.7002-14.7998 0-36.9004 6.7998-55.7998 17-21.6006-3.59961-46-12.7002-68.4004-20.0996-50.0996-86.4004-79.4004-47-76.0996-31.2002 4 20 31 35.8994 51 46.2002 10.5 18.3994 25.3994 50.5 35.3994 74.3994-7.39941 28.6006-11.3994 51-7 67.1006 4.7998 17.6992 38.4004 20.2998 42.6006-5.90039 4.69922-15.4004-1.5-39.9004-5.40039-56 8.09961-21.2998 19.5996-35.7998 36.7998-46.2998 17.4004 2.2002 52.2002 5.5 64.4004-6.5zM100.1 49.9004c0-.700195 11.4004 4.69922 30.4004 35-5.90039-5.5-25.2998-21.3008-30.4004-35zM181.7 240.5c-2.5 0-2.60059-26.9004 1.7998-40.7998 4.90039 8.7002 5.59961 40.7998-1.7998 40.7998zM157.3 103.9c15.9004 6.09961 34 14.8994 54.7998 19.1992-11.1992 8.30078-21.7998 20.4004-30.0996 35.5-6.7002-17.6992-15-37.7998-24.7002-54.6992zM288.9 108.9c3.59961 2.39941-2.2002 10.3994-37.3008 7.7998 32.3008-13.7998 37.3008-7.7998 37.3008-7.7998z" glyph-name="file-pdf" horiz-adv-x="384" unicode="&#xf1c1;"/><glyph d="M369.9 350.1c9-9 14.0996-21.2998 14.0996-34v-332.1c0-26.5-21.5-48-48-48h-288c-26.5 0-48 21.5-48 48v416c0 26.5 21.5 48 48 48.0996h204.1c12.7002 0 24.9004-5.09961 33.9004-14.0996zM332.1 320l-76.0996 76.0996v-76.0996h76.0996zM48-16h288v288h-104c-13.2998 0-24 10.7002-24 24v104h-160v-416zM268.1 192v.200195h15.8008c7.7998 0 13.5-7.2998 11.5996-14.9004-4.2998-17-13.7002-54.0996-34.5-136-1.2998-5.39941-6.09961-9.09961-11.5996-9.09961h-24.7002c-5.5 0-10.2998 3.7998-11.6006 9.09961-5.2998 20.9004-17.7998 71-17.8994 71.4004l-2.90039 17.2998c-.5-5.2998-1.5-11.0996-3-17.2998l-17.8994-71.4004c-1.30078-5.39941-6.10059-9.09961-11.6006-9.09961h-25.2002c-5.59961 0-10.3994 3.7002-11.6992 9.09961-6.5 26.5-25.2002 103.4-33.2002 136-1.7998 7.5 3.89941 14.7998 11.7002 14.7998h16.7998c5.7998 0 10.7002-4.09961 11.7998-9.69922 5-25.7002 18.4004-93.8008 19.0996-99 .300781-1.7002.400391-3.10059.5-4.2002.800781 7.5.400391 4.7002 24.8008 103.7 1.39941 5.2998 6.19922 9.09961 11.6992 9.09961h13.3008c5.59961 0 10.3994-3.7998 11.6992-9.2002 23.9004-99.7002 22.8008-94.3994 23.6006-99.5.299805-1.7002.5-3.09961.700195-4.2998.599609 8.09961.399414 5.7998 21 103.5 1.09961 5.5 6 9.5 11.6992 9.5z" glyph-name="file-word" horiz-adv-x="384" unicode="&#xf1c2;"/><glyph d="M369.9 350.1c9-9 14.0996-21.2998 14.0996-34v-332.1c0-26.5-21.5-48-48-48h-288c-26.5 0-48 21.5-48 48v416c0 26.5 21.5 48 48 48.0996h204.1c12.7002 0 24.9004-5.09961 33.9004-14.0996zM332.1 320l-76.0996 76.0996v-76.0996h76.0996zM48-16h288v288h-104c-13.2998 0-24 10.7002-24 24v104h-160v-416zM260 224c9.2002 0 15-10 10.2998-18-16-27.5-45.5996-76.9004-46.2998-78l46.4004-78c4.59961-8-1.10059-18-10.4004-18h-28.7998c-4.40039 0-8.5 2.40039-10.6006 6.2998-22.6992 41.7998-13.6992 27.5-28.5996 57.7002-5.59961-12.7002-6.90039-17.7002-28.5996-57.7002-2.10059-3.89941-6.10059-6.2998-10.5-6.2998h-28.9004c-9.2998 0-15.0996 10-10.4004 18l46.3008 78-46.3008 78c-4.59961 8 1.10059 18 10.4004 18h28.9004c4.39941 0 8.5-2.40039 10.5996-6.2998 21.7002-40.4004 14.7002-28.6006 28.5996-57.7002 6.40039 15.2998 10.6006 24.5996 28.6006 57.7002 2.09961 3.89941 6.09961 6.2998 10.5 6.2998h28.7998z" glyph-name="file-excel" horiz-adv-x="384" unicode="&#xf1c3;"/><glyph d="M369.9 350.1c9-9 14.0996-21.2998 14.0996-34v-332.1c0-26.5-21.5-48-48-48h-288c-26.5 0-48 21.5-48 48v416c0 26.5 21.5 48 48 48.0996h204.1c12.7002 0 24.9004-5.09961 33.9004-14.0996zM332.1 320l-76.0996 76.0996v-76.0996h76.0996zM48-16h288v288h-104c-13.2998 0-24 10.7002-24 24v104h-160v-416zM120 44v168c0 6.59961 5.40039 12 12 12h69.2002c36.7002 0 62.7998-27 62.7998-66.2998 0-74.2998-68.7002-66.5-95.5-66.5v-47.2002c0-6.59961-5.40039-12-12-12h-24.5c-6.59961 0-12 5.40039-12 12zM168.5 131.4h23c7.90039 0 13.9004 2.39941 18.0996 7.19922 8.5 9.80078 8.40039 28.5.100586 37.8008-4.10059 4.59961-9.90039 7-17.4004 7h-23.8994v-52h.0996094z" glyph-name="file-powerpoint" horiz-adv-x="384" unicode="&#xf1c4;"/><glyph d="M369.9 350.1c9-9 14.0996-21.2998 14.0996-34v-332.1c0-26.5-21.5-48-48-48h-288c-26.5 0-48 21.5-48 48v416c0 26.5 21.5 48 48 48.0996h204.1c12.7002 0 24.9004-5.09961 33.9004-14.0996zM332.1 320l-76.0996 76.0996v-76.0996h76.0996zM48-16h288v288h-104c-13.2998 0-24 10.7002-24 24v104h-160v-416zM80 32v64l39.5 39.5c4.7002 4.7002 12.2998 4.7002 17 0l39.5-39.5 87.5 87.5c4.7002 4.7002 12.2998 4.7002 17 0l23.5-23.5v-128h-224zM128 272c26.5 0 48-21.5 48-48s-21.5-48-48-48-48 21.5-48 48 21.5 48 48 48z" glyph-name="file-image" horiz-adv-x="384" unicode="&#xf1c5;"/><glyph d="M128.3 288h32v-32h-32v32zM192.3 384v-32h-32v32h32zM128.3 352h32v-32h-32v32zM192.3 320v-32h-32v32h32zM369.9 350.1c9-9 14.0996-21.2998 14.0996-34v-332.1c0-26.5-21.5-48-48-48h-288c-26.5 0-48 21.5-48 48v416c0 26.5 21.5 48 48 48.0996h204.1c12.7002 0 24.9004-5.09961 33.9004-14.0996zM256 396.1v-76.0996h76.0996zM336-16v288h-104c-13.2998 0-24 10.7002-24 24v104h-48.2998v-16h-32v16h-79.7002v-416h288zM194.2 182.3l17.2998-87.7002c6.40039-32.3994-18.4004-62.5996-51.5-62.5996-33.2002 0-58 30.4004-51.4004 62.9004l19.7002 97.0996v32h32v-32h22.1006c5.7998 0 10.6992-4.09961 11.7998-9.7002zM160.3 57.9004c17.9004 0 32.4004 12.0996 32.4004 27 0 14.8994-14.5 27-32.4004 27-17.8994 0-32.3994-12.1006-32.3994-27 0-14.9004 14.5-27 32.3994-27zM192.3 256v-32h-32v32h32z" glyph-name="file-archive" horiz-adv-x="384" unicode="&#xf1c6;"/><glyph d="M369.941 350.059c8.68848-8.68848 14.0586-20.6943 14.0586-33.9404v-332.118c0-26.5098-21.4902-48-48-48h-288c-26.5098 0-48 21.4902-48 48v416c0 26.5098 21.4902 48 48 48h204.118c13.2461 0 25.252-5.37012 33.9404-14.0586zM332.118 320l-76.1182 76.1182v-76.1182h76.1182zM48-16h288v288h-104c-13.2549 0-24 10.7451-24 24v104h-160v-416zM192 60.0244c0-10.6914-12.9258-16.0459-20.4854-8.48535l-35.5146 35.9746h-28c-6.62695 0-12 5.37305-12 12v56c0 6.62695 5.37305 12 12 12h28l35.5146 36.9473c7.56055 7.56055 20.4854 2.20605 20.4854-8.48535v-135.951zM233.201 107.154c9.05078 9.29688 9.05957 24.1328.00097656 33.4385-22.1494 22.752 12.2344 56.2461 34.3945 33.4814 27.1982-27.9404 27.2119-72.4443.00097656-100.401-21.793-22.3857-56.9463 10.3154-34.3965 33.4814z" glyph-name="file-audio" horiz-adv-x="384" unicode="&#xf1c7;"/><glyph d="M369.941 350.059c8.68848-8.68848 14.0586-20.6943 14.0586-33.9404v-332.118c0-26.5098-21.4902-48-48-48h-288c-26.5098 0-48 21.4902-48 48v416c0 26.5098 21.4902 48 48 48h204.118c13.2461 0 25.252-5.37012 33.9404-14.0586zM332.118 320l-76.1182 76.1182v-76.1182h76.1182zM48-16h288v288h-104c-13.2549 0-24 10.7451-24 24v104h-160v-416zM276.687 195.303c10.0049 10.0049 27.3135 2.99707 27.3135-11.3135v-111.976c0-14.2939-17.2959-21.332-27.3135-11.3135l-52.6865 52.6738v-37.374c0-11.0459-8.9541-20-20-20h-104c-11.0459 0-20 8.9541-20 20v104c0 11.0459 8.9541 20 20 20h104c11.0459 0 20-8.9541 20-20v-37.374z" glyph-name="file-video" horiz-adv-x="384" unicode="&#xf1c8;"/><glyph d="M149.9 98.9004c3.5-3.30078 3.69922-8.90039.399414-12.4004l-17.3994-18.5996c-1.60059-1.80078-4-2.80078-6.40039-2.80078-2.2002 0-4.40039.900391-6 2.40039l-57.7002 54.0996c-3.7002 3.40039-3.7002 9.30078 0 12.8008l57.7002 54.0996c3.40039 3.2998 9 3.2002 12.4004-.400391l17.3994-18.5996.200195-.200195c3.2002-3.59961 2.7998-9.2002-.799805-12.3994l-32.7998-28.9004 32.7998-28.9004zM369.9 350.1c9-9 14.0996-21.2998 14.0996-34v-332.1c0-26.5-21.5-48-48-48h-288c-26.5 0-48 21.5-48 48v416c0 26.5 21.5 48 48 48.0996h204.1c12.7002 0 24.9004-5.09961 33.9004-14.0996zM256 396.1v-76.0996h76.0996zM336-16v288h-104c-13.2998 0-24 10.7002-24 24v104h-160v-416h288zM209.6 234l24.4004-7c4.7002-1.2998 7.40039-6.2002 6-10.9004l-54.7002-188.199c-1.2998-4.60059-6.2002-7.40039-10.8994-6l-24.4004 7.09961c-4.7002 1.2998-7.40039 6.2002-6 10.9004l54.7002 188.1c1.39941 4.7002 6.2002 7.40039 10.8994 6zM234.1 157.1c-3.5 3.30078-3.69922 8.90039-.399414 12.4004l17.3994 18.5996c3.30078 3.60059 8.90039 3.7002 12.4004.400391l57.7002-54.0996c3.7002-3.40039 3.7002-9.30078 0-12.8008l-57.7002-54.0996c-3.5-3.2998-9.09961-3.09961-12.4004.400391l-17.3994 18.5996-.200195.200195c-3.2002 3.59961-2.7998 9.2002.799805 12.3994l32.7998 28.9004-32.7998 28.9004z" glyph-name="file-code" horiz-adv-x="384" unicode="&#xf1c9;"/><glyph d="M256-56c-136.967 0-248 111.033-248 248s111.033 248 248 248 248-111.033 248-248-111.033-248-248-248zM152.602 20.7197c63.2178-38.3184 143.579-38.3184 206.797 0l-53.4111 53.4111c-31.8467-13.5215-68.168-13.5059-99.9746 0zM336 192c0 44.1123-35.8877 80-80 80s-80-35.8877-80-80 35.8877-80 80-80 80 35.8877 80 80zM427.28 88.6016c38.3184 63.2178 38.3184 143.579 0 206.797l-53.4111-53.4111c13.5215-31.8467 13.5049-68.168 0-99.9746zM359.397 363.28c-63.2168 38.3184-143.578 38.3184-206.796 0l53.4111-53.4111c31.8457 13.5215 68.167 13.5049 99.9736 0zM84.7197 295.398c-38.3184-63.2178-38.3184-143.579 0-206.797l53.4111 53.4111c-13.5215 31.8467-13.5059 68.168 0 99.9746z" glyph-name="life-ring" unicode="&#xf1cd;"/><glyph d="M440 441.5c34.5996 19.9004 77.5996-8.7998 71.5-48.9004l-59.4004-387.199c-2.2998-14.5-11.0996-27.3008-23.8994-34.5-7.2998-4.10059-15.4004-6.2002-23.6006-6.2002-6.19922 0-12.3994 1.2002-18.2998 3.59961l-111.899 46.2002-43.8008-59.0996c-27.3994-36.9004-86.5996-17.8008-86.5996 28.5996v84.4004l-114.3 47.2998c-36.7998 15.0996-40.1006 66-5.7002 85.8994zM192-16l36.5996 49.5-36.5996 15.0996v-64.5996zM404.6 12.7002l59.4004 387.3-416-240 107.8-44.5996 211.5 184.3c14.2002 12.2998 34.4004-5.7002 23.7002-21.2002l-140.2-202.3z" glyph-name="paper-plane" unicode="&#xf1d8;"/><glyph d="M483.8 268.6c42.2998-130.199-29-270.1-159.2-312.399-25.5-8.2998-51.2998-12.2002-76.6992-12.2002-104.5 0-201.7 66.5996-235.7 171.4-42.2998 130.199 29 270.1 159.2 312.399 25.5 8.2998 51.2998 12.2002 76.6992 12.2002 104.5 0 201.7-66.5996 235.7-171.4zM409.3 74.9004c6.10059 8.39941 12.1006 16.8994 16.7998 26.1992 14.3008 28.1006 21.5 58.5 21.7002 89.2002l-38.8994 36.4004-71.1006-22.1006-24.3994-75.1992 43.6992-60.9004zM409.3 310.3c-24.5 33.4004-58.7002 58.4004-97.8994 71.4004l-47.4004-26.2002v-73.7998l64.2002-46.5 70.7002 22zM184.9 381.6c-39.9004-13.2998-73.5-38.5-97.8008-71.8994l10.1006-52.5 70.5996-22 64.2002 46.5v73.7998zM139 68.5l43.5 61.7002-24.2998 74.2998-71.1006 22.2002-39-36.4004c.5-55.7002 23.4004-95.2002 37.8008-115.3zM187.2 1.5c64.0996-20.4004 115.5-1.7998 121.7 0l22.3994 48.0996-44.2998 61.7002h-78.5996l-43.6006-61.7002z" glyph-name="futbol" horiz-adv-x="496" unicode="&#xf1e3;"/><glyph d="M552 384c13.2549 0 24-10.7451 24-24v-336c0-13.2549-10.7451-24-24-24h-496c-30.9277 0-56 25.0723-56 56v272c0 13.2549 10.7451 24 24 24h42.752c6.60547 18.623 24.3896 32 45.248 32h440zM48 56c0-4.41113 3.58887-8 8-8s8 3.58887 8 8v248h-16v-248zM528 48v288h-416v-280c0-2.7168-.204102-5.38574-.578125-8h416.578zM172 168c-6.62695 0-12 5.37305-12 12v96c0 6.62695 5.37305 12 12 12h136c6.62695 0 12-5.37305 12-12v-96c0-6.62695-5.37305-12-12-12h-136zM200 248v-40h80v40h-80zM160 108v24c0 6.62695 5.37305 12 12 12h136c6.62695 0 12-5.37305 12-12v-24c0-6.62695-5.37305-12-12-12h-136c-6.62695 0-12 5.37305-12 12zM352 108v24c0 6.62695 5.37305 12 12 12h104c6.62695 0 12-5.37305 12-12v-24c0-6.62695-5.37305-12-12-12h-104c-6.62695 0-12 5.37305-12 12zM352 252v24c0 6.62695 5.37305 12 12 12h104c6.62695 0 12-5.37305 12-12v-24c0-6.62695-5.37305-12-12-12h-104c-6.62695 0-12 5.37305-12 12zM352 180v24c0 6.62695 5.37305 12 12 12h104c6.62695 0 12-5.37305 12-12v-24c0-6.62695-5.37305-12-12-12h-104c-6.62695 0-12 5.37305-12 12z" glyph-name="newspaper" horiz-adv-x="576" unicode="&#xf1ea;"/><glyph d="M633.99-23.0195c6.91016-5.52051 8.01953-15.5908 2.5-22.4902l-10-12.4902c-5.53027-6.88965-15.5898-8.00977-22.4902-2.49023l-598 467.51c-6.90039 5.52051-8.01953 15.5908-2.49023 22.4902l10 12.4902c5.52051 6.90039 15.5898 8.00977 22.4902 2.49023zM163.53 80h182.84l61.3994-48h-279.659c-19.1201 0-31.9902 15.5996-32.1006 32-.0498047 7.5498 2.61035 15.2598 8.61035 21.71 18.3701 19.7402 51.5703 49.6904 54.8398 140.42l45.4697-35.5498c-6.91992-54.7803-24.6895-88.5498-41.3994-110.58zM320 352c-23.3496 0-45-7.17969-62.9404-19.4004l-38.1699 29.8408c19.6807 15.7793 43.1104 27.3096 69.1299 32.7197v20.8398c0 17.6699 14.3203 32 31.9805 32s31.9805-14.3301 31.9805-32v-20.8398c73.46-15.2598 127.939-77.46 127.939-155.16 0-41.3604 6.03027-70.7197 14.3398-92.8496l-59.5293 46.54c-1.63086 13.96-2.77051 28.8896-2.79004 45.7295 0 .200195.0595703.379883.0595703.580078 0 61.8604-50.1396 112-112 112zM320-64c-35.3203 0-63.9697 28.6504-63.9697 64h127.939c0-35.3496-28.6494-64-63.9697-64z" glyph-name="bell-slash" horiz-adv-x="640" unicode="&#xf1f6;"/><glyph d="M256 440c136.967 0 248-111.033 248-248s-111.033-248-248-248-248 111.033-248 248 111.033 248 248 248zM256-8c110.549 0 200 89.4678 200 200 0 110.549-89.4678 200-200 200-110.549 0-200-89.4688-200-200 0-110.549 89.4678-200 200-200zM363.351 93.0645c-9.61328-9.71289-45.5293-41.3965-104.064-41.3965-82.4297 0-140.484 61.4248-140.484 141.567 0 79.1514 60.2754 139.4 139.763 139.4 55.5303 0 88.7373-26.6201 97.5928-34.7783 2.37793-2.1875 3.86914-5.3252 3.86914-8.80762 0-2.39746-.717773-4.64258-1.93359-6.51465l-18.1543-28.1133c-3.8418-5.9502-11.9668-7.28223-17.499-2.9209-8.5957 6.77637-31.8145 22.5381-61.708 22.5381-48.3037 0-77.916-35.3301-77.916-80.082 0-41.5889 26.8877-83.6924 78.2764-83.6924 32.6572 0 56.8428 19.0391 65.7266 27.2256 5.26953 4.85645 13.5957 4.03906 17.8193-1.73828l19.8652-27.1699c1.45996-1.98145 2.32422-4.42969 2.32422-7.07715 0-3.28809-1.32422-6.2793-3.47656-8.44043z" glyph-name="copyright" unicode="&#xf1f9;"/><glyph d="M464 384c26.5 0 48-21.5 48-48v-288c0-26.5-21.5-48-48-48h-416c-26.5 0-48 21.5-48 48v288c0 26.5 21.5 48 48 48h416zM458 48c3.2998 0 6 2.7002 6 6v276c0 3.2998-2.7002 6-6 6h-404c-3.2998 0-6-2.7002-6-6v-276c0-3.2998 2.7002-6 6-6h404zM246.9 133.7c1.69922-2.40039 1.5-5.60059-.5-7.7002-53.6006-56.7998-172.801-32.0996-172.801 67.9004 0 97.2998 121.7 119.5 172.5 70.0996 2.10059-2 2.5-3.2002 1-5.7002l-17.5-30.5c-1.89941-3.09961-6.19922-4-9.09961-1.7002-40.7998 32-94.5996 14.9004-94.5996-31.1992 0-48 51-70.5 92.1992-32.6006 2.80078 2.5 7.10059 2.10059 9.2002-.899414zM437.3 133.7c1.7002-2.40039 1.5-5.60059-.5-7.7002-53.5996-56.9004-172.8-32.0996-172.8 67.9004 0 97.2998 121.7 119.5 172.5 70.0996 2.09961-2 2.5-3.2002 1-5.7002l-17.5-30.5c-1.90039-3.09961-6.2002-4-9.09961-1.7002-40.8008 32-94.6006 14.9004-94.6006-31.1992 0-48 51-70.5 92.2002-32.6006 2.7998 2.5 7.09961 2.10059 9.2002-.899414z" glyph-name="closed-captioning" unicode="&#xf20a;"/><glyph d="M500 320h-12v-256h12c6.62695 0 12-5.37305 12-12v-72c0-6.62695-5.37305-12-12-12h-72c-6.62695 0-12 5.37305-12 12v12h-320v-12c0-6.62695-5.37305-12-12-12h-72c-6.62695 0-12 5.37305-12 12v72c0 6.62695 5.37305 12 12 12h12v256h-12c-6.62695 0-12 5.37305-12 12v72c0 6.62695 5.37305 12 12 12h72c6.62695 0 12-5.37305 12-12v-12h320v12c0 6.62695 5.37305 12 12 12h72c6.62695 0 12-5.37305 12-12v-72c0-6.62695-5.37305-12-12-12zM448 384v-32h32v32h-32zM32 384v-32h32v32h-32zM64 0v32h-32v-32h32zM480 0v32h-32v-32h32zM440 64v256h-12c-6.62695 0-12 5.37305-12 12v12h-320v-12c0-6.62695-5.37305-12-12-12h-12v-256h12c6.62695 0 12-5.37305 12-12v-12h320v12c0 6.62695 5.37305 12 12 12h12zM404 256c6.62695 0 12-5.37207 12-12v-168c0-6.62793-5.37305-12-12-12h-200c-6.62695 0-12 5.37207-12 12v52h-84c-6.62695 0-12 5.37207-12 12v168c0 6.62793 5.37305 12 12 12h200c6.62695 0 12-5.37207 12-12v-52h84zM136 280v-112h144v112h-144zM376 104v112h-56v-76c0-6.62793-5.37305-12-12-12h-76v-24h144z" glyph-name="object-group" unicode="&#xf247;"/><glyph d="M564 224h-12v-160h12c6.62695 0 12-5.37305 12-12v-72c0-6.62695-5.37305-12-12-12h-72c-6.62695 0-12 5.37305-12 12v12h-224v-12c0-6.62695-5.37305-12-12-12h-72c-6.62695 0-12 5.37305-12 12v72c0 6.62695 5.37305 12 12 12h12v24h-88v-12c0-6.62695-5.37305-12-12-12h-72c-6.62695 0-12 5.37305-12 12v72c0 6.62695 5.37305 12 12 12h12v160h-12c-6.62695 0-12 5.37305-12 12v72c0 6.62695 5.37305 12 12 12h72c6.62695 0 12-5.37305 12-12v-12h224v12c0 6.62695 5.37305 12 12 12h72c6.62695 0 12-5.37305 12-12v-72c0-6.62695-5.37305-12-12-12h-12v-24h88v12c0 6.62695 5.37305 12 12 12h72c6.62695 0 12-5.37305 12-12v-72c0-6.62695-5.37305-12-12-12zM352 384v-32h32v32h-32zM352 128v-32h32v32h-32zM64 96v32h-32v-32h32zM64 352v32h-32v-32h32zM96 136h224v12c0 6.62695 5.37305 12 12 12h12v160h-12c-6.62695 0-12 5.37305-12 12v12h-224v-12c0-6.62695-5.37305-12-12-12h-12v-160h12c6.62695 0 12-5.37305 12-12v-12zM224 0v32h-32v-32h32zM504 64v160h-12c-6.62695 0-12 5.37305-12 12v12h-88v-88h12c6.62695 0 12-5.37305 12-12v-72c0-6.62695-5.37305-12-12-12h-72c-6.62695 0-12 5.37305-12 12v12h-88v-24h12c6.62695 0 12-5.37305 12-12v-12h224v12c0 6.62695 5.37305 12 12 12h12zM544 0v32h-32v-32h32zM544 256v32h-32v-32h32z" glyph-name="object-ungroup" horiz-adv-x="576" unicode="&#xf248;"/><glyph d="M448 99.8936c0-13.2451-5.37012-25.252-14.0586-33.9404l-83.8828-83.8818c-8.68848-8.68848-20.6943-14.0596-33.9404-14.0596h-268.118c-26.5098 0-48 21.4902-48 48v351.988c0 26.5098 21.4902 48 48 48h352c26.5098 0 48-21.4902 48-48v-268.106zM320 19.8936l76.1182 76.1182h-76.1182v-76.1182zM400 368h-352v-351.988h224v104c0 13.2549 10.7451 24 24 24h104v223.988z" glyph-name="sticky-note" horiz-adv-x="448" unicode="&#xf249;"/><glyph d="M464 448c26.5098 0 48-21.4902 48-48v-320c0-26.5098-21.4902-48-48-48h-48v-48c0-26.5098-21.4902-48-48-48h-320c-26.5098 0-48 21.4902-48 48v320c0 26.5098 21.4902 48 48 48h48v48c0 26.5098 21.4902 48 48 48h320zM362-16c3.31152 0 6 2.68848 6 6v42h-224c-26.5098 0-48 21.4902-48 48v224h-42c-3.31152 0-6-2.68848-6-6v-308c0-3.31152 2.68848-6 6-6h308zM458 80c3.31152 0 6 2.68848 6 6v308c0 3.31152-2.68848 6-6 6h-308c-3.31152 0-6-2.68848-6-6v-308c0-3.31152 2.68848-6 6-6h308z" glyph-name="clone" unicode="&#xf24d;"/><glyph d="M368 400c0-80.0996-31.8984-165.619-97.1797-208 64.9912-42.1934 97.1797-127.436 97.1797-208h4c6.62695 0 12-5.37305 12-12v-24c0-6.62695-5.37305-12-12-12h-360c-6.62695 0-12 5.37305-12 12v24c0 6.62695 5.37305 12 12 12h4c0 80.0996 31.8994 165.619 97.1797 208-64.9912 42.1934-97.1797 127.436-97.1797 208h-4c-6.62695 0-12 5.37305-12 12v24c0 6.62695 5.37305 12 12 12h360c6.62695 0 12-5.37305 12-12v-24c0-6.62695-5.37305-12-12-12h-4zM64 400c0-101.621 57.3066-184 128-184s128 82.3799 128 184h-256zM320-16c0 101.62-57.3076 184-128 184s-128-82.3799-128-184h256z" glyph-name="hourglass" horiz-adv-x="384" unicode="&#xf254;"/><glyph d="M408.864 368.948c48.8213 20.751 103.136-15.0723 103.136-67.9111v-114.443c0-15.3955-3.08887-30.3906-9.18262-44.5674l-42.835-99.6562c-4.99707-11.625-3.98242-18.8574-3.98242-42.3701 0-17.6729-14.3271-32-32-32h-252c-17.6729 0-32 14.3271-32 32 0 27.3301 1.1416 29.2012-3.11035 32.9033l-97.71 85.0811c-24.8994 21.6797-39.1797 52.8926-39.1797 85.6338v56.9531c0 47.4277 44.8457 82.0215 91.0459 71.1807 1.96094 55.751 63.5107 87.8262 110.671 60.8057 29.1895 31.0713 78.8604 31.4473 108.334-.0214844 32.7051 18.6846 76.4121 10.3096 98.8135-23.5879zM464 186.594v114.445c0 34.29-52 33.8232-52 .676758 0-8.83594-7.16309-16-16-16h-7c-8.83691 0-16 7.16406-16 16v26.751c0 34.457-52 33.707-52 .676758v-27.4287c0-8.83594-7.16309-16-16-16h-7c-8.83691 0-16 7.16406-16 16v40.4658c0 34.3525-52 33.8115-52 .677734v-41.1436c0-8.83594-7.16406-16-16-16h-7c-8.83594 0-16 7.16406-16 16v26.751c0 34.4023-52 33.7744-52 .676758v-116.571c0-8.83105-7.17773-15.9961-16.0078-15.9961-4.0166 0-7.68848 1.48242-10.499 3.92969l-7 6.09473c-3.37012 2.93457-5.49316 7.25293-5.49316 12.0674v41.2275c0 34.2148-52 33.8857-52 .677734v-56.9531c0-18.8555 8.27441-36.874 22.7002-49.4365l97.71-85.0801c12.4502-10.8398 19.5898-26.4463 19.5898-42.8164v-10.2861h220v7.07617c0 13.21 2.65332 26.0791 7.88281 38.25l42.835 99.6553c3.37891 7.82715 5.28223 16.501 5.28223 25.5625v.0498047z" glyph-name="hand-rock" unicode="&#xf255;"/><glyph d="M372.57 335.359c39.9062 5.63281 75.4297-25.7393 75.4297-66.3594v-131.564c-.00292969-15.7393-1.80566-30.9482-5.19531-45.666l-30.1836-130.958c-3.34668-14.5234-16.2783-24.8125-31.1816-24.8125h-222.897c-10.7539 0-20.2588 5.28613-26.0615 13.4316l-119.97 168.415c-21.2441 29.8203-14.8047 71.3574 14.5498 93.1533 18.7754 13.9395 42.1309 16.2979 62.083 8.87109v126.13c0 44.0547 41.125 75.5439 82.4053 64.9834 23.8926 48.1963 92.3535 50.2471 117.982.74707 42.5186 11.1445 83.0391-21.9346 83.0391-65.5469v-10.8242zM399.997 137.437l-.00195312 131.563c0 24.9492-36.5703 25.5508-36.5703-.691406v-76.3086c0-8.83691-7.16309-16-16-16h-6.85645c-8.83691 0-16 7.16309-16 16v154.184c0 25.501-36.5703 26.3633-36.5703.691406v-154.875c0-8.83691-7.16309-16-16-16h-6.85645c-8.83691 0-16 7.16309-16 16v188.309c0 25.501-36.5703 26.3545-36.5703.691406v-189c0-8.83691-7.16309-16-16-16h-6.85645c-8.83691 0-16 7.16309-16 16v153.309c0 25.501-36.5713 26.3359-36.5713.691406v-206.494c0-15.5703-20.0352-21.9092-29.0303-9.2832l-27.1279 38.0791c-14.3711 20.1709-43.833-2.33496-29.3945-22.6045l115.196-161.697h201.92l27.3252 118.551c2.63086 11.417 3.96484 23.1553 3.96484 34.8857z" glyph-name="hand-paper" horiz-adv-x="448" unicode="&#xf256;"/><glyph d="M256-32c-44.9561 0-77.3428 43.2627-64.0244 85.8535-21.6484 13.71-34.0156 38.7617-30.3408 65.0068h-87.6348c-40.8037 0-74 32.8105-74 73.1406 0 40.3291 33.1963 73.1396 74 73.1396l94-9.14062-78.8496 18.6787c-38.3076 14.7422-57.04 57.4707-41.9424 95.1123 15.0303 37.4736 57.7549 55.7803 95.6416 41.2012l144.929-55.7568c24.9551 30.5566 57.8086 43.9932 92.2178 24.7324l97.999-54.8525c20.9746-11.7393 34.0049-33.8457 34.0049-57.6904v-205.702c0-30.7422-21.4404-57.5576-51.7979-64.5537l-118.999-27.4268c-4.97168-1.14648-10.0889-1.72949-15.2031-1.72949zM256 16.0127l70-.00097656c1.52441 0 2.99707.174805 4.42285.501953l119.001 27.4277c8.58203 1.97754 14.5762 9.29102 14.5762 17.7812v205.701c0 6.4873-3.62109 12.542-9.44922 15.8047l-98 54.8545c-8.13965 4.55566-18.668 2.61914-24.4873-4.50781l-21.7646-26.6475c-2.93457-3.59375-7.40332-5.87305-12.4004-5.87305-2.02246 0-3.95703.375977-5.73828 1.06152l-166.549 64.0908c-32.6543 12.5664-50.7744-34.5771-19.2227-46.7168l155.357-59.7852c6-2.30859 10.2539-8.12402 10.2539-14.9326v-11.6328c0-8.83691-7.16309-16-16-16h-182c-34.375 0-34.4297-50.2803 0-50.2803h182c8.83691 0 16-7.16309 16-16v-6.85645c0-8.83691-7.16309-16-16-16h-28c-25.1221 0-25.1592-36.5674 0-36.5674h28c8.83691 0 16-7.16211 16-16v-6.85547c0-8.83691-7.16309-16-16-16-25.1201 0-25.1602-36.5674 0-36.5674z" glyph-name="hand-scissors" unicode="&#xf257;"/><glyph d="M556.686 157.458c12.6357-19.4863 19.3145-42.0615 19.3145-65.2871v-124.171h-224v71.582l-99.751 38.7871c-2.7832 1.08203-5.70996 1.63086-8.69727 1.63086h-131.552c-30.8789 0-56 25.1211-56 56 0 48.5234 39.4766 88 88 88h113.709l18.333 48h-196.042c-44.1123 0-80 35.8877-80 80v8c0 30.8779 25.1211 56 56 56h293.917c24.5 0 47.084-12.2725 60.4111-32.8291zM528 16v76.1709c0 .0166016-.0439453.106445-.0439453.12207 0 14.3945-4.24219 27.8057-11.5439 39.0498l-146.358 225.715c-4.44336 6.85254-11.9707 10.9424-20.1367 10.9424h-293.917c-4.41113 0-8-3.58887-8-8v-8c0-17.6445 14.3555-32 32-32h213.471c25.2021 0 42.626-25.293 33.6299-48.8457l-24.5518-64.2812c-7.05371-18.4658-25.0732-30.873-44.8398-30.873h-113.709c-22.0557 0-40-17.9443-40-40 0-4.41113 3.58887-8 8-8h131.552c.0175781 0 .0712891-.0273438.0888672-.0273438 9.16992 0 17.9404-1.72461 26.0039-4.86621l99.752-38.7881c18.5898-7.22852 30.6035-24.7881 30.6035-44.7363v-23.582h128z" glyph-name="hand-lizard" horiz-adv-x="576" unicode="&#xf258;"/><glyph d="M501.03 331.824c6.92773-11.1826 10.9697-24.4053 10.9697-38.5146 0-5.92676-.706055-11.6885-2.03809-17.208l-57.623-241.963c-13.2236-56.1904-63.707-98.1387-123.908-98.1387h-.352539-107.455c-.0761719 0-.193359.00195312-.270508.00195312-40.9248 0-78.1475 15.9814-105.761 42.0391l-91.3652 85.9766c-14.3076 13.4434-23.2246 32.5547-23.2246 53.7168 0 19.5254 7.61035 37.2861 20.0254 50.4766 5.31836 5.66406 29.875 29.3926 68.1152 21.8477l-24.3594 82.1973c-1.97363 6.64844-2.97656 13.6836-2.97656 20.9688 0 38.6953 29.8926 70.4639 67.8262 73.4531-.246094 2.45117-.34082 4.85547-.34082 7.37207 0 34.4199 23.585 63.376 55.4619 71.5752 43.248 10.9785 80.5645-17.7012 89.6602-53.0723l13.6836-53.207 4.64648 22.6602c6.99023 33.5186 36.6826 58.8037 72.2373 58.916 8.73438 0 56.625-3.26953 70.7383-54.0801 15.0664.710938 46.9199-3.50977 66.3105-35.0176zM463.271 287.219c7.86914 32.9844-42.1211 45.2695-50.0859 11.9219l-24.8008-104.146c-4.38867-18.4141-31.7783-11.8926-28.0557 6.2168l28.5479 139.166c7.39844 36.0703-43.3076 45.0703-50.1182 11.9629l-31.791-154.971c-3.54883-17.3086-28.2832-18.0469-32.7109-.804688l-47.3262 184.035c-8.43359 32.8105-58.3691 20.2676-49.8652-12.8359l42.4414-165.039c4.81641-18.7207-23.3711-26.9121-28.9648-8.00781l-31.3438 105.779c-9.6875 32.6465-59.1191 18.2578-49.3867-14.625l36.0137-121.539c6.59375-22.2441 10.1777-45.7803 10.1777-70.1523 0-6.54297-8.05664-10.9355-13.4824-5.82617l-51.123 48.1074c-24.7852 23.4082-60.0527-14.1875-35.2793-37.4902l91.3691-85.9805c19.0469-17.9736 44.75-28.998 72.9795-28.998h.157227 107.455c.0732422 0 .138672.0429688.212891.0429688 37.5791 0 69.1016 26.1416 77.3564 61.2168z" glyph-name="hand-spock" unicode="&#xf259;"/><glyph d="M358.182 268.639c43.1934 16.6348 89.8184-15.7949 89.8184-62.6387v-84c-.00097656-5.24023-.600586-10.3037-1.72754-15.2041l-27.4297-118.999c-6.98242-30.2969-33.7549-51.7969-64.5566-51.7969h-178.286c-21.2588 0-41.3682 10.4102-53.791 27.8457l-109.699 154.001c-21.2432 29.8193-14.8047 71.3574 14.5498 93.1523 18.8115 13.9658 42.1748 16.2822 62.083 8.87207v161.129c0 36.9443 29.7363 67 66.2861 67s66.2861-30.0557 66.2861-67v-73.6338c20.4131 2.85742 41.4678-3.94238 56.5947-19.6289 27.1934 12.8467 60.3799 5.66992 79.8721-19.0986zM80.9854 168.303c-14.4004 20.2119-43.8008-2.38281-29.3945-22.6055l109.712-154c3.43457-4.81934 8.92871-7.69727 14.6973-7.69727h178.285c8.49219 0 15.8037 5.99414 17.7822 14.5762l27.4297 119.001c.333008 1.44629.501953 2.93457.501953 4.42285v84c0 25.1602-36.5713 25.1211-36.5713 0 0-8.83594-7.16309-16-16-16h-6.85645c-8.83691 0-16 7.16406-16 16v21c0 25.1602-36.5713 25.1201-36.5713 0v-21c0-8.83594-7.16309-16-16-16h-6.85938c-8.83691 0-16 7.16406-16 16v35c0 25.1602-36.5703 25.1201-36.5703 0v-35c0-8.83594-7.16309-16-16-16h-6.85742c-8.83691 0-16 7.16406-16 16v175c0 25.1602-36.5713 25.1201-36.5713 0v-241.493c0-15.5703-20.0352-21.9092-29.0303-9.2832zM176.143 48v96c0 8.83691 6.26855 16 14 16h6c7.73242 0 14-7.16309 14-16v-96c0-8.83691-6.26758-16-14-16h-6c-7.73242 0-14 7.16309-14 16zM251.571 48v96c0 8.83691 6.26758 16 14 16h6c7.73145 0 14-7.16309 14-16v-96c0-8.83691-6.26855-16-14-16h-6c-7.73242 0-14 7.16309-14 16zM327 48v96c0 8.83691 6.26758 16 14 16h6c7.73242 0 14-7.16309 14-16v-96c0-8.83691-6.26758-16-14-16h-6c-7.73242 0-14 7.16309-14 16z" glyph-name="hand-pointer" horiz-adv-x="448" unicode="&#xf25a;"/><glyph d="M362.146 256.024c42.5908 13.3184 85.8535-19.0684 85.8535-64.0244l-.0117188-70.001c-.00097656-5.24023-.600586-10.3027-1.72949-15.2031l-27.4268-118.999c-6.99707-30.3564-33.8105-51.7969-64.5547-51.7969h-205.702c-23.8447 0-45.9502 13.0303-57.6904 34.0059l-54.8525 97.999c-19.2607 34.4092-5.82422 67.2617 24.7324 92.2178l-55.7568 144.928c-14.5791 37.8867 3.72754 80.6113 41.2012 95.6416 37.6406 15.0977 80.3691-3.63477 95.1123-41.9424l18.6787-78.8496-9.14062 94c0 40.8037 32.8096 74 73.1396 74s73.1406-33.1963 73.1406-74v-87.6348c26.2451 3.6748 51.2959-8.69238 65.0068-30.3408zM399.987 122l-.00097656 70c0 25.1602-36.5674 25.1201-36.5674 0 0-8.83691-7.16309-16-16-16h-6.85547c-8.83789 0-16 7.16309-16 16v28c0 25.1592-36.5674 25.1221-36.5674 0v-28c0-8.83691-7.16309-16-16-16h-6.85645c-8.83691 0-16 7.16309-16 16v182c0 34.4297-50.2803 34.375-50.2803 0v-182c0-8.83691-7.16309-16-16-16h-11.6328c-6.80859 0-12.624 4.25391-14.9326 10.2539l-59.7842 155.357c-12.1396 31.5518-59.2842 13.4326-46.7168-19.2227l64.0898-166.549c.685547-1.78125 1.07812-3.71875 1.07812-5.74121 0-4.99707-2.2959-9.46289-5.88965-12.3975l-26.6475-21.7646c-7.12695-5.81934-9.06445-16.3467-4.50781-24.4873l54.8535-98c3.26367-5.82812 9.31934-9.44922 15.8057-9.44922h205.701c8.49121 0 15.8037 5.99414 17.7812 14.5762l27.4277 119.001c.333008 1.44629.501953 2.93457.501953 4.42285z" glyph-name="hand-peace" horiz-adv-x="448" unicode="&#xf25b;"/><glyph d="M256 440c136.967 0 248-111.033 248-248s-111.033-248-248-248-248 111.033-248 248 111.033 248 248 248zM256-8c110.549 0 200 89.4678 200 200 0 110.549-89.4678 200-200 200-110.549 0-200-89.4688-200-200 0-110.549 89.4678-200 200-200zM366.442 73.791c4.40332-7.99219-1.37012-17.791-10.5107-17.791h-42.8096c-.00488281 0-.00097656-.0126953-.00585938-.0126953-4.58594 0-8.57422 2.58301-10.5869 6.37305l-47.5156 89.3027h-31.958v-83.6631c0-6.61719-5.38281-12-12-12h-38.5674c-6.61719 0-12 5.38281-12 12v248.304c0 6.61719 5.38281 12 12 12h78.667c71.251 0 101.498-32.749 101.498-85.252 0-31.6123-15.2148-59.2969-39.4824-73.1758 3.02148-4.61719.225586.199219 53.2715-96.085zM256.933 208.094c20.9131 0 32.4307 11.5186 32.4316 32.4316 0 19.5752-6.5127 31.709-38.9297 31.709h-27.377v-64.1406h33.875z" glyph-name="registered" unicode="&#xf25d;"/><glyph d="M336 156v-24c0-6.59961-5.40039-12-12-12h-76v-76c0-6.59961-5.40039-12-12-12h-24c-6.59961 0-12 5.40039-12 12v76h-76c-6.59961 0-12 5.40039-12 12v24c0 6.59961 5.40039 12 12 12h76v76c0 6.59961 5.40039 12 12 12h24c6.59961 0 12-5.40039 12-12v-76h76c6.59961 0 12-5.40039 12-12zM448 336v-352c0-26.5-21.5-48-48-48h-352c-26.5 0-48 21.5-48 48v352c0 26.5 21.5 48 48 48h48v52c0 6.59961 5.40039 12 12 12h40c6.59961 0 12-5.40039 12-12v-52h128v52c0 6.59961 5.40039 12 12 12h40c6.59961 0 12-5.40039 12-12v-52h48c26.5 0 48-21.5 48-48zM400-10v298h-352v-298c0-3.2998 2.7002-6 6-6h340c3.2998 0 6 2.7002 6 6z" glyph-name="calendar-plus" horiz-adv-x="448" unicode="&#xf271;"/><glyph d="M124 120c-6.59961 0-12 5.40039-12 12v24c0 6.59961 5.40039 12 12 12h200c6.59961 0 12-5.40039 12-12v-24c0-6.59961-5.40039-12-12-12h-200zM448 336v-352c0-26.5-21.5-48-48-48h-352c-26.5 0-48 21.5-48 48v352c0 26.5 21.5 48 48 48h48v52c0 6.59961 5.40039 12 12 12h40c6.59961 0 12-5.40039 12-12v-52h128v52c0 6.59961 5.40039 12 12 12h40c6.59961 0 12-5.40039 12-12v-52h48c26.5 0 48-21.5 48-48zM400-10v298h-352v-298c0-3.2998 2.7002-6 6-6h340c3.2998 0 6 2.7002 6 6z" glyph-name="calendar-minus" horiz-adv-x="448" unicode="&#xf272;"/><glyph d="M311.7 73.2998l-17-17c-4.7002-4.7002-12.2998-4.7002-17 0l-53.7002 53.7998-53.7002-53.6992c-4.7002-4.7002-12.2998-4.7002-17 0l-17 17c-4.7002 4.69922-4.7002 12.2998 0 17l53.7002 53.6992-53.7002 53.7002c-4.7002 4.7002-4.7002 12.2998 0 17l17 17c4.7002 4.7002 12.2998 4.7002 17 0l53.7002-53.7002 53.7002 53.7002c4.7002 4.7002 12.2998 4.7002 17 0l17-17c4.7002-4.7002 4.7002-12.2998 0-17l-53.7998-53.7998 53.6992-53.7002c4.80078-4.7002 4.80078-12.2998.100586-17zM448 336v-352c0-26.5-21.5-48-48-48h-352c-26.5 0-48 21.5-48 48v352c0 26.5 21.5 48 48 48h48v52c0 6.59961 5.40039 12 12 12h40c6.59961 0 12-5.40039 12-12v-52h128v52c0 6.59961 5.40039 12 12 12h40c6.59961 0 12-5.40039 12-12v-52h48c26.5 0 48-21.5 48-48zM400-10v298h-352v-298c0-3.2998 2.7002-6 6-6h340c3.2998 0 6 2.7002 6 6z" glyph-name="calendar-times" horiz-adv-x="448" unicode="&#xf273;"/><glyph d="M400 384c26.5098 0 48-21.4902 48-48v-352c0-26.5098-21.4902-48-48-48h-352c-26.5098 0-48 21.4902-48 48v352c0 26.5098 21.4902 48 48 48h48v52c0 6.62695 5.37305 12 12 12h40c6.62695 0 12-5.37305 12-12v-52h128v52c0 6.62695 5.37305 12 12 12h40c6.62695 0 12-5.37305 12-12v-52h48zM394-16c3.31152 0 6 2.68848 6 6v298h-352v-298c0-3.31152 2.68848-6 6-6h340zM341.151 184.65l-142.31-141.169c-4.70508-4.66699-12.3027-4.6377-16.9707.0673828l-75.0908 75.6992c-4.66699 4.70508-4.6377 12.3027.0673828 16.9707l22.7197 22.5361c4.70508 4.66699 12.3027 4.63672 16.9697-.0693359l44.1035-44.4609 111.072 110.182c4.70508 4.66699 12.3027 4.63672 16.9707-.0683594l22.5361-22.7178c4.66699-4.70508 4.63672-12.3027-.0683594-16.9697z" glyph-name="calendar-check" horiz-adv-x="448" unicode="&#xf274;"/><glyph d="M560.02 416c8.4502 0 15.9805-6.83008 15.9805-16.0195v-346.32c0-13.4707-8.32422-24.9951-20.1201-29.71l-151.83-52.8105c-6.23242-2.02832-12.9023-3.12305-19.8076-3.12305-7.07324 0-13.8799 1.15039-20.2422 3.27344l-172 60.71-170.05-62.8398c-1.99023-.790039-4-1.16016-5.95996-1.16016-8.45996 0-15.9902 6.83008-15.9902 16.0195v346.32c.00292969 13.4697 8.32617 24.9932 20.1201 29.71l151.83 52.8105c6.43945 2.08984 13.1201 3.13965 19.8096 3.13965 7.06641-.00292969 13.8789-1.16602 20.2402-3.28027l172-60.7197h.00976562l170.05 62.8398c1.98047.790039 4 1.16016 5.95996 1.16016zM224 357.58v-285.97l128-45.1904v285.97zM48 29.9502l127.36 47.0801.639648.229492v286.2l-128-44.5303v-288.979zM528 65.0801v288.97l-127.36-47.0693-.639648-.240234v-286.19z" glyph-name="map" horiz-adv-x="576" unicode="&#xf279;"/><glyph d="M448 448c35.2998 0 64-28.7002 64-64v-288c0-35.2998-28.7002-64-64-64h-144l-124.9-93.5996c-2.19922-1.7002-4.69922-2.40039-7.09961-2.40039-6.2002 0-12 4.90039-12 12v84h-96c-35.2998 0-64 28.7002-64 64v288c0 35.2998 28.7002 64 64 64h384zM464 96v288c0 8.7998-7.2002 16-16 16h-384c-8.7998 0-16-7.2002-16-16v-288c0-8.7998 7.2002-16 16-16h144v-60l67.2002 50.4004 12.7998 9.59961h160c8.7998 0 16 7.2002 16 16z" glyph-name="comment-alt" unicode="&#xf27a;"/><glyph d="M256 440c137 0 248-111 248-248s-111-248-248-248-248 111-248 248 111 248 248 248zM256-8c110.5 0 200 89.5 200 200s-89.5 200-200 200-200-89.5-200-200 89.5-200 200-200zM352 272v-160c0-8.7998-7.2002-16-16-16h-48c-8.7998 0-16 7.2002-16 16v160c0 8.7998 7.2002 16 16 16h48c8.7998 0 16-7.2002 16-16zM240 272v-160c0-8.7998-7.2002-16-16-16h-48c-8.7998 0-16 7.2002-16 16v160c0 8.7998 7.2002 16 16 16h48c8.7998 0 16-7.2002 16-16z" glyph-name="pause-circle" unicode="&#xf28b;"/><glyph d="M504 192c0-137-111-248-248-248s-248 111-248 248 111 248 248 248 248-111 248-248zM56 192c0-110.5 89.5-200 200-200s200 89.5 200 200-89.5 200-200 200-200-89.5-200-200zM352 272v-160c0-8.7998-7.2002-16-16-16h-160c-8.7998 0-16 7.2002-16 16v160c0 8.7998 7.2002 16 16 16h160c8.7998 0 16-7.2002 16-16z" glyph-name="stop-circle" unicode="&#xf28d;"/><glyph d="M519.2 320.1h120.8v-255.699h-64c-17.5 0-31.7998 14.1992-31.9004 31.6992h-57.8994c-1.7998-8.19922-5.2998-16.0996-10.9004-23l-26.2002-32.2998c-15.7998-19.3994-41.8994-25.5-64-16.7998-13.5-16.5996-30.5996-24-48.7998-24-15.0996 0-28.5996 5.09961-41.0996 15.9004-31.7998-21.9004-74.7002-21.3008-105.601 3.7998l-84.5996 76.3994h-9.09961c-.100586-17.5-14.3008-31.6992-31.9004-31.6992h-64v255.699h118l47.5996 47.6006c10.5 10.3994 24.8008 16.2998 39.6006 16.2998h226.8c15.4326 0 29.4326-6.22168 39.5996-16.2998zM48 96.4004c8.7998 0 16 7.09961 16 16 0 8.7998-7.2002 16-16 16s-16-7.2002-16-16c0-8.80078 7.2002-16 16-16zM438 103.3c2.7002 3.40039 2.2002 8.5-1.2002 11.2998l-108.2 87.8008-8.19922-7.5c-40.3008-36.8008-86.7002-11.8008-101.5 4.39941-26.7002 29-25 74.4004 4.39941 101.3l38.7002 35.5h-56.7002c-2-.799805-3.7002-1.5-5.7002-2.2998l-61.6992-61.5996h-41.9004v-128.101h27.7002l97.2998-88c16.0996-13.0996 41.4004-10.5 55.2998 6.60059l15.6006 19.2002 36.7998-31.5c3-2.40039 12-4.90039 18 2.39941l30 36.5 23.8994-19.3994c3.5-2.80078 8.5-2.2002 11.3008 1.19922zM544 144.1v128h-44.7002l-61.7002 61.6006c-1.39941 1.5-3.39941 2.2998-5.5 2.2998l-83.6992-.200195c-10 0-19.6006-3.7002-27-10.5l-65.6006-60.0996c-9.7002-8.7998-10.5-24-1.2002-33.9004 8.90039-9.39941 25.1006-8.7002 34.6006 0l55.2002 50.6006c6.5 5.89941 16.5996 5.5 22.5996-1l10.9004-11.7002c6-6.5 5.5-16.6006-1-22.6006l-12.5-11.3994 102.699-83.4004c2.80078-2.2998 5.40039-4.89941 7.7002-7.7002h69.2002zM592 96.4004c8.7998 0 16 7.09961 16 16 0 8.7998-7.2002 16-16 16s-16-7.2002-16-16c0-8.80078 7.2002-16 16-16z" glyph-name="handshake" horiz-adv-x="640" unicode="&#xf2b5;"/><glyph d="M494.586 283.484c10.6523-8.80762 17.4141-22.1064 17.4141-36.9932v-262.491c0-26.5098-21.4902-48-48-48h-416c-26.5098 0-48 21.4902-48 48v262.515c0 14.9355 6.80469 28.2705 17.5146 37.0771 4.08008 3.35449 110.688 89.0996 135.15 108.549 22.6992 18.1426 60.1299 55.8594 103.335 55.8594 43.4365 0 81.2314-38.1914 103.335-55.8594 23.5283-18.707 130.554-104.773 135.251-108.656zM464-10v253.632c0 .00195312.00390625.00097656.00390625.00292969 0 1.88184-.869141 3.56152-2.22754 4.66016-15.8633 12.8232-108.793 87.5752-132.366 106.316-17.5527 14.0195-49.7168 45.3887-73.4102 45.3887-23.6016 0-55.2451-30.8799-73.4102-45.3887-23.5713-18.7393-116.494-93.4795-132.364-106.293-1.40918-1.13965-2.22559-2.85254-2.22559-4.66504v-253.653c0-3.31152 2.68848-6 6-6h404c3.31152 0 6 2.68848 6 6zM432.009 177.704c4.24902-5.15918 3.46484-12.7949-1.74512-16.9814-28.9746-23.2822-59.2734-47.5967-70.9287-56.8623-22.6992-18.1436-60.1299-55.8604-103.335-55.8604-43.4521 0-81.2871 38.2373-103.335 55.8604-11.2793 8.9668-41.7441 33.4131-70.9268 56.8643-5.20996 4.1875-5.99316 11.8223-1.74512 16.9814l15.2578 18.5283c4.17773 5.07227 11.6572 5.84277 16.7793 1.72559 28.6182-23.001 58.5654-47.0352 70.5596-56.5713 17.5527-14.0195 49.7168-45.3887 73.4102-45.3887 23.6016 0 55.2461 30.8799 73.4102 45.3887 11.9941 9.53516 41.9434 33.5703 70.5625 56.5684 5.12207 4.11621 12.6016 3.3457 16.7783-1.72656z" glyph-name="envelope-open" unicode="&#xf2b6;"/><glyph d="M436 288h-20v-64h20c6.59961 0 12-5.40039 12-12v-40c0-6.59961-5.40039-12-12-12h-20v-64h20c6.59961 0 12-5.40039 12-12v-40c0-6.59961-5.40039-12-12-12h-20v-48c0-26.5-21.5-48-48-48h-320c-26.5 0-48 21.5-48 48v416c0 26.5 21.5 48 48 48h320c26.5 0 48-21.5 48-48v-48h20c6.59961 0 12-5.40039 12-12v-40c0-6.59961-5.40039-12-12-12zM368-16v416h-320v-416h320zM208 192c-35.2998 0-64 28.7002-64 64s28.7002 64 64 64 64-28.7002 64-64-28.7002-64-64-64zM118.4 64c-12.4004 0-22.4004 8.59961-22.4004 19.2002v19.2002c0 31.7998 30.0996 57.5996 67.2002 57.5996 11.3994 0 17.8994-8 44.7998-8 26.0996 0 34 8 44.7998 8 37.1006 0 67.2002-25.7998 67.2002-57.5996v-19.2002c0-10.6006-10-19.2002-22.4004-19.2002h-179.199z" glyph-name="address-book" horiz-adv-x="448" unicode="&#xf2b9;"/><glyph d="M528 416c26.5 0 48-21.5 48-48v-352c0-26.5-21.5-48-48-48h-480c-26.5 0-48 21.5-48 48v352c0 26.5 21.5 48 48 48h480zM528 16v352h-480v-352h480zM208 192c-35.2998 0-64 28.7002-64 64s28.7002 64 64 64 64-28.7002 64-64-28.7002-64-64-64zM118.4 64c-12.4004 0-22.4004 8.59961-22.4004 19.2002v19.2002c0 31.7998 30.0996 57.5996 67.2002 57.5996 11.3994 0 17.8994-8 44.7998-8 26.0996 0 34 8 44.7998 8 37.1006 0 67.2002-25.7998 67.2002-57.5996v-19.2002c0-10.6006-10-19.2002-22.4004-19.2002h-179.199zM360 128c-4.40039 0-8 3.59961-8 8v16c0 4.40039 3.59961 8 8 8h112c4.40039 0 8-3.59961 8-8v-16c0-4.40039-3.59961-8-8-8h-112zM360 192c-4.40039 0-8 3.59961-8 8v16c0 4.40039 3.59961 8 8 8h112c4.40039 0 8-3.59961 8-8v-16c0-4.40039-3.59961-8-8-8h-112zM360 256c-4.40039 0-8 3.59961-8 8v16c0 4.40039 3.59961 8 8 8h112c4.40039 0 8-3.59961 8-8v-16c0-4.40039-3.59961-8-8-8h-112z" glyph-name="address-card" horiz-adv-x="576" unicode="&#xf2bb;"/><glyph d="M248 344c53 0 96-43 96-96s-43-96-96-96-96 43-96 96 43 96 96 96zM248 200c26.5 0 48 21.5 48 48s-21.5 48-48 48-48-21.5-48-48 21.5-48 48-48zM248 440c137 0 248-111 248-248s-111-248-248-248-248 111-248 248 111 248 248 248zM248-8c49.7002 0 95.0996 18.2998 130.1 48.4004-14.8994 23-40.3994 38.5-69.5996 39.5-20.7998-6.5-40.5996-9.60059-60.5-9.60059s-39.7002 3.2002-60.5 9.60059c-29.2002-.900391-54.7002-16.5-69.5996-39.5 35-30.1006 80.3994-48.4004 130.1-48.4004zM410.7 76.0996c23.3994 32.7002 37.2998 72.7002 37.2998 115.9 0 110.3-89.7002 200-200 200s-200-89.7002-200-200c0-43.2002 13.9004-83.2002 37.2998-115.9 24.5 31.4004 62.2002 51.9004 105.101 51.9004 10.1992 0 26.0996-9.59961 57.5996-9.59961 31.5996 0 47.4004 9.59961 57.5996 9.59961 43 0 80.7002-20.5 105.101-51.9004z" glyph-name="user-circle" horiz-adv-x="496" unicode="&#xf2bd;"/><glyph d="M336 448c26.5 0 48-21.5 48-48v-416c0-26.5-21.5-48-48-48h-288c-26.5 0-48 21.5-48 48v416c0 26.5 21.5 48 48 48h288zM336-16v416h-288v-416h288zM144 336c-8.7998 0-16 7.2002-16 16s7.2002 16 16 16h96c8.7998 0 16-7.2002 16-16s-7.2002-16-16-16h-96zM192 160c-35.2998 0-64 28.7002-64 64s28.7002 64 64 64 64-28.7002 64-64-28.7002-64-64-64zM102.4 32c-12.4004 0-22.4004 8.59961-22.4004 19.2002v19.2002c0 31.7998 30.0996 57.5996 67.2002 57.5996 11.3994 0 17.8994-8 44.7998-8 26.0996 0 34 8 44.7998 8 37.1006 0 67.2002-25.7998 67.2002-57.5996v-19.2002c0-10.6006-10-19.2002-22.4004-19.2002h-179.199z" glyph-name="id-badge" horiz-adv-x="384" unicode="&#xf2c1;"/><glyph d="M528 416c26.5 0 48-21.5 48-48v-352c0-26.5-21.5-48-48-48h-480c-26.5 0-48 21.5-48 48v352c0 26.5 21.5 48 48 48h480zM528 16v288h-480v-288h32.7998c-1 4.5-.799805-3.59961-.799805 22.4004 0 31.7998 30.0996 57.5996 67.2002 57.5996 11.3994 0 17.8994-8 44.7998-8 26.0996 0 34 8 44.7998 8 37.1006 0 67.2002-25.7998 67.2002-57.5996 0-26 .0996094-17.9004-.799805-22.4004h224.8zM360 96c-4.40039 0-8 3.59961-8 8v16c0 4.40039 3.59961 8 8 8h112c4.40039 0 8-3.59961 8-8v-16c0-4.40039-3.59961-8-8-8h-112zM360 160c-4.40039 0-8 3.59961-8 8v16c0 4.40039 3.59961 8 8 8h112c4.40039 0 8-3.59961 8-8v-16c0-4.40039-3.59961-8-8-8h-112zM360 224c-4.40039 0-8 3.59961-8 8v16c0 4.40039 3.59961 8 8 8h112c4.40039 0 8-3.59961 8-8v-16c0-4.40039-3.59961-8-8-8h-112zM192 128c-35.2998 0-64 28.7002-64 64s28.7002 64 64 64 64-28.7002 64-64-28.7002-64-64-64z" glyph-name="id-card" horiz-adv-x="576" unicode="&#xf2c2;"/><glyph d="M464 416c26.5 0 48-21.5 48-48v-352c0-26.5-21.5-48-48-48h-416c-26.5 0-48 21.5-48 48v352c0 26.5 21.5 48 48 48h416zM464 22v234h-416v-234c0-3.2998 2.7002-6 6-6h404c3.2998 0 6 2.7002 6 6z" glyph-name="window-maximize" unicode="&#xf2d0;"/><glyph d="M480-32h-448c-17.7002 0-32 14.2998-32 32s14.2998 32 32 32h448c17.7002 0 32-14.2998 32-32s-14.2998-32-32-32z" glyph-name="window-minimize" unicode="&#xf2d1;"/><glyph d="M464 448c26.5 0 48-21.5 48-48v-320c0-26.5-21.5-48-48-48h-48v-48c0-26.5-21.5-48-48-48h-320c-26.5 0-48 21.5-48 48v320c0 26.5 21.5 48 48 48h48v48c0 26.5 21.5 48 48 48h320zM368-16v208h-320v-208h320zM464 80v320h-320v-48h224c26.5 0 48-21.5 48-48v-224h48z" glyph-name="window-restore" unicode="&#xf2d2;"/><glyph d="M440.1 92.7998c7.60059-4.39941 10.1006-14.2002 5.5-21.7002l-7.89941-13.8994c-4.40039-7.7002-14-10.2998-21.5-5.90039l-39.2002 23 9.09961-34.7002c2.30078-8.5-2.69922-17.2998-11.0996-19.5996l-15.2002-4.09961c-8.39941-2.30078-17.0996 2.7998-19.2998 11.2998l-21.2998 81-71.9004 42.2002v-84.5l58.2998-59.3008c6.10059-6.19922 6.10059-16.3994 0-22.5996l-11.0996-11.2998c-6.09961-6.2002-16.0996-6.2002-22.2002 0l-24.8994 25.3994v-46.0996c0-8.7998-7-16-15.7002-16h-15.7002c-8.7002 0-15.7002 7.2002-15.7002 16v45.9004l-24.8994-25.4004c-6.10059-6.2002-16.1006-6.2002-22.2002 0l-11.1006 11.2998c-6.09961 6.2002-6.09961 16.4004 0 22.6006l58.3008 59.2998v84.5l-71.9004-42.2002-21.2998-81c-2.2998-8.5-10.9004-13.5996-19.2998-11.2998l-15.2002 4.09961c-8.40039 2.2998-13.2998 11.1006-11.1006 19.6006l9.10059 34.6992-39.2002-23c-7.5-4.39941-17.2002-1.7998-21.5 5.90039l-7.90039 13.9004c-4.2998 7.69922-1.69922 17.5 5.80078 21.8994l39.1992 23-34.0996 9.2998c-8.40039 2.30078-13.2998 11.1006-11.0996 19.6006l4.09961 15.5c2.2998 8.5 10.9004 13.5996 19.2998 11.2998l79.7002-21.7002 71.9004 42.2002-71.9004 42.2002-79.7002-21.7002c-8.39941-2.2998-17.0996 2.7998-19.2998 11.2998l-4.09961 15.5c-2.30078 8.5 2.69922 17.2998 11.0996 19.6006l34.0996 9.09961-39.1992 23c-7.60059 4.5-10.1006 14.2002-5.80078 21.9004l7.90039 13.8994c4.40039 7.7002 14 10.2998 21.5 5.90039l39.2002-23-9.10059 34.7002c-2.2998 8.5 2.7002 17.2998 11.1006 19.5996l15.2002 4.09961c8.39941 2.30078 17.0996-2.7998 19.2998-11.2998l21.2998-81 71.9004-42.2002v84.5l-58.3008 59.3008c-6.09961 6.19922-6.09961 16.3994 0 22.5996l11.5 11.2998c6.10059 6.2002 16.1006 6.2002 22.2002 0l24.9004-25.3994v46.0996c0 8.7998 7 16 15.7002 16h15.6992c8.7002 0 15.7002-7.2002 15.7002-16v-45.9004l24.9004 25.4004c6.09961 6.2002 16.0996 6.2002 22.2002 0l11.0996-11.2998c6.09961-6.2002 6.09961-16.4004 0-22.6006l-58.2998-59.2998v-84.5l71.8994 42.2002 21.3008 81c2.2998 8.5 10.8994 13.5996 19.2998 11.2998l15.2002-4.09961c8.39941-2.2998 13.2998-11.1006 11.0996-19.6006l-9.09961-34.6992 39.1992 23c7.5 4.39941 17.2002 1.7998 21.5-5.90039l7.90039-13.9004c4.2998-7.69922 1.7002-17.5-5.7998-21.8994l-39.2002-23 34.0996-9.2998c8.40039-2.30078 13.3008-11.1006 11.1006-19.6006l-4.10059-15.5c-2.2998-8.5-10.8994-13.5996-19.2998-11.2998l-79.7002 21.7002-71.8994-42.2002 71.7998-42.2002 79.7002 21.7002c8.39941 2.2998 17.0996-2.7998 19.2998-11.2998l4.09961-15.5c2.30078-8.5-2.69922-17.2998-11.0996-19.6006l-34.0996-9.2998z" glyph-name="snowflake" horiz-adv-x="448" unicode="&#xf2dc;"/><glyph d="M268 32c-6.62305 0-12 5.37695-12 12v216c0 6.62305 5.37695 12 12 12h24c6.62305 0 12-5.37695 12-12v-216c0-6.62305-5.37695-12-12-12h-24zM432 368c8.83105 0 16-7.16895 16-16v-16c0-8.83105-7.16895-16-16-16h-16v-336c0-26.4922-21.5078-48-48-48h-288c-26.4922 0-48 21.5078-48 48v336h-16c-8.83105 0-16 7.16895-16 16v16c0 8.83105 7.16895 16 16 16h82.4102l34.0195 56.7002c8.39258 13.9844 23.6777 23.2998 41.1602 23.2998h100.82c.0078125 0-.015625.0517578-.0078125.0517578 17.4824 0 32.7949-9.36719 41.1875-23.3516l34-56.7002h82.4102zM171.84 397.09l-17.4502-29.0898h139.221l-17.46 29.0898c-1.0498 1.74707-2.95898 2.91016-5.14355 2.91016h-.00683594-94c-.00585938 0-.00683594.00683594-.0126953.00683594-2.18457 0-4.09766-1.16992-5.14746-2.91699zM368-16v336h-288v-336h288zM156 32c-6.62305 0-12 5.37695-12 12v216c0 6.62305 5.37695 12 12 12h24c6.62305 0 12-5.37695 12-12v-216c0-6.62305-5.37695-12-12-12h-24z" glyph-name="trash-alt" horiz-adv-x="448" unicode="&#xf2ed;"/><glyph d="M480 32v-16c0-26.5098-21.4902-48-48-48h-384c-26.5098 0-48 21.4902-48 48v256c0 26.5098 21.4902 48 48 48h16v-48h-10c-3.31152 0-6-2.68848-6-6v-244c0-3.31152 2.68848-6 6-6h372c3.31152 0 6 2.68848 6 6v10h48zM522 368h-372c-3.31152 0-6-2.68848-6-6v-244c0-3.31152 2.68848-6 6-6h372c3.31152 0 6 2.68848 6 6v244c0 3.31152-2.68848 6-6 6zM528 416c26.5098 0 48-21.4902 48-48v-256c0-26.5098-21.4902-48-48-48h-384c-26.5098 0-48 21.4902-48 48v256c0 26.5098 21.4902 48 48 48h384zM264 304c0-22.0908-17.9092-40-40-40s-40 17.9092-40 40 17.9092 40 40 40 40-17.9092 40-40zM192 208l39.5146 39.5146c4.68652 4.68652 12.2842 4.68652 16.9717 0l39.5137-39.5146 103.515 103.515c4.68652 4.68652 12.2842 4.68652 16.9717 0l71.5137-71.5146v-80h-288v48z" glyph-name="images" horiz-adv-x="576" unicode="&#xf302;"/><glyph d="M336 384c26.5 0 48-21.5 48-48v-352c0-26.5-21.5-48-48-48h-288c-26.5 0-48 21.5-48 48v352c0 26.5 21.5 48 48 48h80c0 35.2998 28.7002 64 64 64s64-28.7002 64-64h80zM192 408c-13.2998 0-24-10.7002-24-24s10.7002-24 24-24 24 10.7002 24 24-10.7002 24-24 24zM336-10v340c0 3.2998-2.7002 6-6 6h-42v-36c0-6.59961-5.40039-12-12-12h-168c-6.59961 0-12 5.40039-12 12v36h-42c-3.2998 0-6-2.7002-6-6v-340c0-3.2998 2.7002-6 6-6h276c3.2998 0 6 2.7002 6 6z" glyph-name="clipboard" horiz-adv-x="384" unicode="&#xf328;"/><glyph d="M256 440c137 0 248-111 248-248s-111-248-248-248-248 111-248 248 111 248 248 248zM256-8c110.5 0 200 89.5 200 200s-89.5 200-200 200-200-89.5-200-200 89.5-200 200-200zM224 308c0 6.59961 5.40039 12 12 12h40c6.59961 0 12-5.40039 12-12v-116h67c10.7002 0 16.0996-12.9004 8.5-20.5l-99-99c-4.7002-4.7002-12.2998-4.7002-17 0l-99 99c-7.5 7.59961-2.2002 20.5 8.5 20.5h67v116z" glyph-name="arrow-alt-circle-down" unicode="&#xf358;"/><glyph d="M8 192c0 137 111 248 248 248s248-111 248-248-111-248-248-248-248 111-248 248zM456 192c0 110.5-89.5 200-200 200s-200-89.5-200-200 89.5-200 200-200 200 89.5 200 200zM384 212v-40c0-6.59961-5.40039-12-12-12h-116v-67c0-10.7002-12.9004-16-20.5-8.5l-99 99c-4.7002 4.7002-4.7002 12.2998 0 17l99 99c7.59961 7.59961 20.5 2.2002 20.5-8.5v-67h116c6.59961 0 12-5.40039 12-12z" glyph-name="arrow-alt-circle-left" unicode="&#xf359;"/><glyph d="M504 192c0-137-111-248-248-248s-248 111-248 248 111 248 248 248 248-111 248-248zM56 192c0-110.5 89.5-200 200-200s200 89.5 200 200-89.5 200-200 200-200-89.5-200-200zM128 172v40c0 6.59961 5.40039 12 12 12h116v67c0 10.7002 12.9004 16 20.5 8.5l99-99c4.7002-4.7002 4.7002-12.2998 0-17l-99-99c-7.59961-7.59961-20.5-2.2002-20.5 8.5v67h-116c-6.59961 0-12 5.40039-12 12z" glyph-name="arrow-alt-circle-right" unicode="&#xf35a;"/><glyph d="M256-56c-137 0-248 111-248 248s111 248 248 248 248-111 248-248-111-248-248-248zM256 392c-110.5 0-200-89.5-200-200s89.5-200 200-200 200 89.5 200 200-89.5 200-200 200zM276 64h-40c-6.59961 0-12 5.40039-12 12v116h-67c-10.7002 0-16 12.9004-8.5 20.5l99 99c4.7002 4.7002 12.2998 4.7002 17 0l99-99c7.59961-7.59961 2.2002-20.5-8.5-20.5h-67v-116c0-6.59961-5.40039-12-12-12z" glyph-name="arrow-alt-circle-up" unicode="&#xf35b;"/><glyph d="M464 448c4.09961 0 7.7998-2 10.0996-5.40039l99.9004-147.199c2.90039-4.40039 2.59961-10.1006-.700195-14.2002l-276-340.8c-4.7998-5.90039-13.7998-5.90039-18.5996 0l-276 340.8c-3.2998 4-3.60059 9.7998-.700195 14.2002l100 147.199c2.2002 3.40039 6 5.40039 10 5.40039h352zM444.7 400h-56.7998l51.6992-96h68.4004zM242.6 400l-51.5996-96h194l-51.7002 96h-90.7002zM131.3 400l-63.2998-96h68.4004l51.6992 96h-56.7998zM88.2998 256l119.7-160-68.2998 160h-51.4004zM191.2 256l96.7998-243.3 96.7998 243.3h-193.6zM368 96l119.6 160h-51.3994z" glyph-name="gem" horiz-adv-x="576" unicode="&#xf3a5;"/><glyph d="M320 304c53.0195 0 96-50.1396 96-112 0-61.8701-43-112-96-112-53.0195 0-96 50.1504-96 112 0 61.8604 42.9805 112 96 112zM360 136v16c0 4.41992-3.58008 8-8 8h-16v88c0 4.41992-3.58008 8-8 8h-13.5801c-4.91113 0-9.50586-1.49316-13.3096-4.03027l-15.3301-10.2197c-2.15332-1.43262-3.55957-3.88379-3.55957-6.66113 0-1.6377.493164-3.16113 1.33887-4.42871l8.88086-13.3105c1.43164-2.15234 3.88379-3.55957 6.66113-3.55957 1.6377 0 3.16016.494141 4.42871 1.33984l.469727.310547v-55.4404h-16c-4.41992 0-8-3.58008-8-8v-16c0-4.41992 3.58008-8 8-8h64c4.41992 0 8 3.58008 8 8zM608 384c17.6699 0 32-14.3301 32-32v-320c0-17.6699-14.3301-32-32-32h-576c-17.6699 0-32 14.3301-32 32v320c0 17.6699 14.3301 32 32 32h576zM592 112v160c-35.3496 0-64 28.6504-64 64h-416c0-35.3496-28.6504-64-64-64v-160c35.3496 0 64-28.6504 64-64h416c0 35.3496 28.6504 64 64 64z" glyph-name="money-bill-alt" horiz-adv-x="640" unicode="&#xf3d1;"/><glyph d="M464 416c26.5 0 48-21.5 48-48v-352c0-26.5-21.5-48-48-48h-416c-26.5 0-48 21.5-48 48v352c0 26.5 21.5 48 48 48h416zM464 22v340c0 3.2998-2.7002 6-6 6h-404c-3.2998 0-6-2.7002-6-6v-340c0-3.2998 2.7002-6 6-6h404c3.2998 0 6 2.7002 6 6zM356.5 253.4l-61.4004-61.4004 61.4004-61.4004c4.59961-4.59961 4.59961-12.0996 0-16.7998l-22.2998-22.2998c-4.60059-4.59961-12.1006-4.59961-16.7998 0l-61.4004 61.4004-61.4004-61.4004c-4.59961-4.59961-12.0996-4.59961-16.7998 0l-22.2998 22.2998c-4.59961 4.60059-4.59961 12.1006 0 16.7998l61.4004 61.4004-61.4004 61.4004c-4.59961 4.59961-4.59961 12.0996 0 16.7998l22.2998 22.2998c4.60059 4.59961 12.1006 4.59961 16.7998 0l61.4004-61.4004 61.4004 61.4004c4.59961 4.59961 12.0996 4.59961 16.7998 0l22.2998-22.2998c4.7002-4.60059 4.7002-12.1006 0-16.7998z" glyph-name="window-close" unicode="&#xf410;"/><glyph d="M144 240c17.7002 0 32-14.2998 32-32s-14.2998-32-32-32-32 14.2998-32 32 14.2998 32 32 32zM256 240c17.7002 0 32-14.2998 32-32s-14.2998-32-32-32-32 14.2998-32 32 14.2998 32 32 32zM368 240c17.7002 0 32-14.2998 32-32s-14.2998-32-32-32-32 14.2998-32 32 14.2998 32 32 32zM256 416c141.4 0 256-93.0996 256-208s-114.6-208-256-208c-32.7998 0-64 5.2002-92.9004 14.2998-29.0996-20.5996-77.5996-46.2998-139.1-46.2998-9.59961 0-18.2998 5.7002-22.0996 14.5-3.80078 8.7998-2 19 4.59961 26 .5.400391 31.5 33.7998 46.4004 73.2002-33 35.0996-52.9004 78.7002-52.9004 126.3 0 114.9 114.6 208 256 208zM256 48c114.7 0 208 71.7998 208 160s-93.2998 160-208 160-208-71.7998-208-160c0-42.2002 21.7002-74.0996 39.7998-93.4004l20.6006-21.7998-10.6006-28.0996c-5.5-14.5-12.5996-28.1006-19.8994-40.2002 23.5996 7.59961 43.1992 18.9004 57.5 29l19.5 13.7998 22.6992-7.2002c25.3008-8 51.7002-12.0996 78.4004-12.0996z" glyph-name="comment-dots" unicode="&#xf4ad;"/><glyph d="M248 440c137 0 248-111 248-248s-111-248-248-248-248 111-248 248 111 248 248 248zM248-8c110.3 0 200 89.7002 200 200s-89.7002 200-200 200-200-89.7002-200-200 89.7002-200 200-200zM365.8 138.4c10.2002-8.5 11.6006-23.6006 3.10059-33.8008-30-36-74.1006-56.5996-120.9-56.5996s-90.9004 20.5996-120.9 56.5996c-8.39941 10.2002-7.09961 25.3008 3.10059 33.8008 10.0996 8.39941 25.2998 7.09961 33.7998-3.10059 20.7998-25.0996 51.5-39.3994 84-39.3994s63.2002 14.3994 84 39.3994c8.5 10.2002 23.5996 11.6006 33.7998 3.10059zM168 208c-17.7002 0-32 14.2998-32 32s14.2998 32 32 32 32-14.2998 32-32-14.2998-32-32-32zM328 268c25.7002 0 55.9004-16.9004 59.7002-42.0996 1.7998-11.1006-11.2998-18.2002-19.7998-10.8008l-9.5 8.5c-14.8008 13.2002-46.2002 13.2002-61 0l-9.5-8.5c-8.30078-7.39941-21.5-.399414-19.8008 10.8008 4 25.1992 34.2002 42.0996 59.9004 42.0996z" glyph-name="smile-wink" horiz-adv-x="496" unicode="&#xf4da;"/></font>
</defs>
</svg>
