<svg xmlns="http://www.w3.org/2000/svg"><defs><font horiz-adv-x="448"><font-face ascent="448" bbox="-0.200195 -66.9505 641.5 448.3" descent="-64" panose-1="2 0 5 3 0 0 0 0 0 0" underline-position="-50" underline-thickness="25" unicode-range="U+0020-F8E8" units-per-em="512"/><missing-glyph/><glyph d="M130.63 324.51c.160156-.00976562.0800781-.00976562 0 0zM482.05 279.16c15.2803-36.7598 20.6709-80.748 15.8213-122.578-.370117-3.15039-.700195-6.29004-1.11035-9.41016-19.6094-115.04-119.79-202.62-240.43-202.62-134.71 0-243.92 109.19-243.92 243.891v1.23926c.149414 2.70996.30957 5.41016.490234 8.12012.0498047.240234.0498047.480469.0498047.719727.439453 6.29004.870117 10.3105 1.43945 14 .240234 1.91309.5 3.82617.780273 5.73926 1.66992 12.2705 3.94043 22.21 4 22.4805 5.99219 26.8799 17.3516 52.1084 32.7305 73.8994v0c6.86816 9.79785 14.3965 18.8301 22.7695 27.3301 7.36719 7.53418 15.2451 14.2881 23.8398 20.4307.930664.629883 8.03027 4.83984 8.15039 4.30957-.570312-8.42969-1.24023-48.8301 8.42969-61.0801h.120117c14.1602 15.9199 33.6504 33.96 58.71 45.3701-2.38477-9.13379-3.64844-18.6562-3.64844-28.5332 0-10.7832 1.51367-21.2158 4.33887-31.0967 2.20508-1.47852 4.29199-3.05566 6.30957-4.77051 3.71973-3.14941 7.91992-7.34961 16.7705-16.0596 16.5498-16.3096 59-33.1797 59.0898-35.1797-.400391-6.08008-21.8301-27-29.3301-27-69.3701 0-80.6201-41.9502-80.6201-41.9502 3.07031-35.3301 27.6699-64.4102 57.5098-79.75 1.36035-.730469 2.74023-1.37012 4.12012-2 2.36035-1.04004 4.74023-2.02051 7.16016-2.92969 9.95996-3.52539 20.6885-5.66895 31.7402-6.12012 121.569-5.7002 145.13 145.34 57.3896 189.199 22.4697 3.91016 45.8203-5.12988 58.8203-14.2793-10.374 18.1104-24.9414 33.167-42.6602 44.1299-.993164.620117-1.99316 1.21973-3 1.7998-1.55957.913086-3.13965 1.79004-4.74023 2.62988-.75.390625-1.5.759766-2.25 1.12988-1.65332.813477-3.32031 1.59668-5.00098 2.34961-1.07031.469727-2.16016.910156-3.25 1.34961-1.33984.580078-2.68945 1.08008-4.0498 1.58008-1.86035.669922-3.73047 1.2998-5.62012 1.87012-.679688.209961-1.33008.429688-2 .629883-10.8193 3.12793-22.2139 4.82422-34.0352 4.82422-.338867 0-.676758-.00195312-1.01465-.00390625-2-.0205078-4-.100586-6-.220703l-1.41992-.0996094c-14.8984-1.04102-29.2461-4.92383-42.1104-11l-.519531-.209961c-.625977-.21582-1.29688-.335938-1.99609-.335938-2.68164 0-4.96289 1.72559-5.79395 4.12598-.246094.669922-.388672 1.39258-.388672 2.14746 0 2.4541 1.41797 4.58008 3.47852 5.60254 14.7295 6.98535 31.1982 11.3564 48.3301 12.3301 5.7793 35.3994 28.2695 91.0098 82.5 122.78l-.100586-.140625.180664.100586.120117.0693359c.0732422.0195312.149414.0302734.229492.0302734.0791016 0 .15625-.0107422.230469-.0302734.30957-.0390625.550781-.303711.550781-.624023 0-.0117188-.00097656-.0244141-.00097656-.0361328.84375-3.34961 2.08887-6.61523 3.63965-9.61914.830078-1.70996 1.69043-3.40039 2.69043-5.05078 1.87988-3.21973 3.80957-6.2793 5.73926-9.33008 38.2002-60.3594 84.9707-88.0791 112.551-156.829-.0507812.269531-.0507812.40918-.0507812.40918-3.0293 20.1201-10.9795 47.1104-24.6992 74 16.8594-8.72949 38.3301-36.2295 48.9395-61.7295z" glyph-name="firefox-browser" horiz-adv-x="512" unicode="&#xe007;"/><glyph d="M125.61 282.52c27.0713-.0107422 49.0488-21.9873 49.0596-49.0596v-.00976562c0-27.083-21.9873-49.0703-49.0703-49.0703-27.082 0-49.0693 21.9873-49.0693 49.0703 0 27.082 21.9873 49.0693 49.0693 49.0693h.0107422zM86.1504 22.1602v140.52h78.9395v-140.52h-78.9395zM237.61 233.76c0-20.4502-8.99023-23.2598-18.7402-23.2598h-14.0498v45.79h14.0498c8.74023 0 18.7402-2.53027 18.7402-22.5303zM439.3 187.76h57.0898c-1.7793-98.4795-52.1094-165.64-196.72-165.64h-94.8301v165.62h14c25.9805 0 41.5 17.1895 41.5 46 0 27.9102-15.8994 45.2598-41.5 45.2598h-14v82.8096h94.8301c88.9404 0 186.83-26.8896 196.07-151.31h-33.6904v68.5703h-22.75v-91.3105zM329.55 187.76l-.0400391 22.7402h-33.5098v12.5h30v22.6904h-30v10.5791h31.7305v22.7305h-54.4307v-91.2402h56.25zM404.21 187.76l23.6699-.0195312-27.5303 91.3398h-32.3496l-27.5303-91.3203h23.6602l5.17969 17.6699h29.7402zM299.65 416c218.35 0 250.97-140 251-223.48 0-144.789-89.1504-224.52-251-224.52h-267.65v448h267.65zM299.65-10.9199c148.899 0 229.899 69.3496 229.899 203.439 0 137.801-87.7998 202.41-229.899 202.41h-246.58v-405.85h246.58zM383.51 253.93h1.37012l7.52051-25.8096h-16.4004z" glyph-name="ideal" horiz-adv-x="576" unicode="&#xe013;"/><glyph d="M399.36 85.7695l.149414.0605469c-13.5439-15.3408-21.7432-35.5967-21.7432-57.6494 0-19.957 6.73438-38.3545 18.0537-53.041.589844-.745117.944336-1.68652.944336-2.71094 0-.311523-.0322266-.615234-.0947266-.90918-.416992-2.00684-2.19434-3.52051-4.32422-3.52051-.306641 0-.606445.03125-.895508.0908203-32.2803 7.17969-61.3105 24.8301-79.8906 49.9199-1.30566 1.78906-3.41699 2.94434-5.7998 2.94434-.811523 0-1.5918-.135742-2.31934-.383789-24.7363-8.66016-51.3818-13.4404-79.0586-13.4404h-.381836c-122.86 0-222.46 91.4805-222.46 204.43 0 112.95 99.5996 204.44 222.46 204.44s222.46-91.4902 222.46-204.44c0-47.4492-17.6104-91.0996-47.0996-125.79zM329.52 235.6c1.56738 1.18652 2.57324 3.03516 2.57324 5.15039 0 3.57227-2.88672 6.47461-6.45312 6.5l-71.8799 1.50977-23.6602 67.9199c-.882812 2.54199-3.29688 4.36914-6.1377 4.36914s-5.25879-1.82715-6.1416-4.36914l-23.6602-67.9199-71.8799-1.50977c-3.5293-.0673828-6.38086-2.95117-6.38086-6.49609 0-2.11523 1.01367-3.99707 2.58105-5.18359l57.2998-43.4902-20.79-68.8604c-.178711-.59375-.269531-1.21875-.269531-1.87109 0-3.59277 2.91699-6.50977 6.50977-6.50977 1.37793 0 2.65723.429688 3.70996 1.16113l59.0596 41.0801 59.0596-41.0498c1.05371-.735352 2.33984-1.1709 3.71973-1.1709 3.58789 0 6.5 2.91211 6.5 6.5 0 .657227-.0976562 1.29199-.279297 1.89062l-20.7803 68.8604z" glyph-name="microblog" unicode="&#xe01a;"/><glyph d="M32 29l-32-60.2002.799805 328c0 65.9004 53.2002 119.2 119.2 119.2h327.2c-93-28.9004-189.9-94.2002-253.9-168.6-70.5996-81.4004-110.7-137.4-161.3-218.4zM448 416c0 0 0-328.8.0996094-328.8 0-65.9004-53.2998-119.2-119.3-119.2h-328.399c18.5 25.5 61.6992 54 84.8994 66 35.5 18.0996 76.4004 28.5 105.3 56.2998 42.1006 40.5 47.8008 105 71 158.601 43.6006 100.3 186.4 167.1 186.4 167.1z" glyph-name="pied-piper-square" unicode="&#xe01e;"/><glyph d="M498.11 241.6l-30-49.5996 30-49.6299-52.8008-191.62-197.079 51.3604-29.2402 50-59.1699-.430664-144.28 140.32 144.26 140.29 59.2002-.429688 29.2002 50.0596 197.109 51.3604zM223.77 323.8l-108.899-108.13h173.13l86.5498 145.82zM223.77 60.1699l150.78-37.6895-86.5498 145.81h-173.13zM416.77 46.1699l41.79 145.83-41.8096 145.84-86.5801-145.84z" glyph-name="unity" horiz-adv-x="576" unicode="&#xe049;"/><glyph d="M298.93 181c7.14062-4 12.9844-9.85254 16.9727-17 3.86426-6.83691 6.10059-14.7783 6.10059-23.1865 0-.0947266 0-.188477-.00097656-.283203-.0332031-13.6602-4.58691-25.084-13.6602-34.2705s-20.4434-13.7793-34.1104-13.7793c-13.4336 0-24.5771 4.47949-33.4307 13.4395s-13.2803 20.4932-13.2803 34.5996c0 13.4336 4.53711 24.5742 13.6104 33.4209s20.2197 13.2695 33.4395 13.2695c.214844.00292969.469727-.0263672.685547-.0263672 8.59668 0 16.6738-2.24609 23.6738-6.18359zM.00195312 416h448v-448h-448v448zM374.712 42.7402l-.0302734 264.349-55.79-12.0898v-77.9199c-7.81348 7.86035-16.1465 13.5273-25 17.001-8.87695 3.35352-18.5127 5.21875-28.5576 5.21875-.394531 0-.789062-.00292969-1.18164-.00878906-17.6934-.00683594-33.6006-4.37305-47.7207-13.0996-14.0625-8.68066-25.4102-20.9805-32.9297-35.7803-7.83984-15.1064-11.7598-31.8467-11.7598-50.2197-.00683594-18.8066 3.85645-35.7705 11.5898-50.8906 7.45215-14.8447 18.8232-27.1611 32.9395-35.7695 14.2197-8.7334 30.5166-13.1006 48.8906-13.1006 26.6602 0 45.2539 8.7334 55.7803 26.2002h.669922v-23.8896h53.0996z" glyph-name="dailymotion" unicode="&#xe052;"/><glyph d="M224 245.34c29.4385-.0107422 53.3379-23.9043 53.3604-53.3398 0-29.4395-23.9004-53.3398-53.3398-53.3398s-53.3398 23.9004-53.3398 53.3398c0 29.4326 23.8896 53.3291 53.3193 53.3398zM348.71 286.34c8.34961-21.0703 6.46973-71.0596 6.46973-94.3398s1.91992-73.3301-6.42969-94.3301c-5.4834-13.8955-16.5146-24.9268-30.4102-30.4102-21.0596-8.35938-70.9902-6.42969-94.2998-6.42969s-73.3096-1.86035-94.3096 6.42969c-13.8955 5.4834-24.9277 16.5146-30.4102 30.4102-8.32031 21.0703-6.4707 71.0605-6.4707 94.3398 0 23.2803-1.84961 73.3301 6.43066 94.3301 5.48242 13.8955 16.5146 24.9268 30.4102 30.4102 21.0596 8.36035 71.0098 6.42969 94.3096 6.42969s73.2998 1.86035 94.2998-6.42969c13.8955-5.4834 24.9268-16.5146 30.4102-30.4102zM224 110c.0341797 0 .0664062-.00195312.0996094-.00195312 45.2021 0 81.9004 36.6982 81.9004 81.9004v.101562c0 45.2568-36.7432 82-82 82s-82-36.7432-82-82 36.7432-82 82-82zM309.38 258.3c10.5371.00585938 19.1299 8.52051 19.1299 19.0586v.0820312c0 10.5635-8.57617 19.1396-19.1396 19.1396-10.5645 0-19.1406-8.57617-19.1406-19.1396 0-10.5645 8.57617-19.1406 19.1406-19.1406h.00976562zM400 416c26.4922 0 48-21.5078 48-48v-352c0-26.4922-21.5078-48-48-48h-352c-26.4922 0-48 21.5078-48 48v352c0 26.4922 21.5078 48 48 48h352zM382.88 126c1.49023 26.4404 1.49023 105.56 0 131.88-1.21973 25.6299-7.17969 48.3506-25.8496 67.0498-18.6699 18.7002-41.3701 24.5605-67 25.8506-26.4102 1.48926-105.59 1.48926-132 0-25.5303-1.2207-48.2207-7.12012-67-25.7803-18.7803-18.6602-24.5605-41.3701-25.8506-67-1.48926-26.3896-1.48926-105.58 0-132 1.2207-25.5801 7.11035-48.2998 25.8506-67 18.7393-18.7002 41.3701-24.5596 67-25.8496 26.4102-1.49023 105.59-1.49023 132 0 25.5996 1.21973 48.29 7.18945 67 25.8496s24.5596 41.3701 25.8496 67z" glyph-name="instagram-square" unicode="&#xe055;"/><glyph d="M114.57 371.93l128.319-172.399c1.44531-1.99805 2.29785-4.47461 2.29785-7.12598 0-2.65234-.852539-5.10645-2.29785-7.10449l-128.89-173.24c-8.33594-11.1826-21.6582-18.3877-36.666-18.3877-11.877 0-22.7031 4.54004-30.834 11.9785-17.8496 16.1797-18.9697 43.5195-4.74023 62.7695l92.3301 124.15-91.7803 123c-14.25 19.25-12.8291 46.5898 4.75 62.7695 8.13281 7.44141 18.9551 12.0264 30.8359 12.0264 15.0088 0 28.3389-7.25 36.6748-18.4365zM470.24 68.4199c14.2295-19.25 13.1094-46.5898-4.73047-62.7695-8.13184-7.44141-18.9551-12.0264-30.835-12.0264-15.0098 0-28.3389 7.25-36.6748 18.4355l-128.57 173.5c-1.44434 1.99805-2.29688 4.47461-2.29688 7.12598 0 2.65234.852539 5.10645 2.29688 7.10449l128 172.12c8.33594 11.1855 21.6602 18.3926 36.6699 18.3926 11.8809 0 22.708-4.54199 30.8408-11.9824 17.5791-16.1807 18.9697-43.5205 4.75-62.7705l-91.7803-123z" glyph-name="mixer" horiz-adv-x="512" unicode="&#xe056;"/><glyph d="M388.32 343.9c.399414-2.40039 54.4395-367.9 54.4395-367.9l-125.689-31.2002v432.73c8.00977-8.01074 29.6201-28.8301 29.6201-28.8301s35.2295-.799805 37.2295-.799805c2.25-.103516 4.08887-1.81055 4.40039-4zM288.65 377.53c9.20996 2.7998 13.3604 4.18945 14.8096 4.39941 1.4502.209961 2.90625.34375 4.40039.400391v-438.33l-302.58 52.4805s36.7998 281.819 38 291.819c1.58984 13.2002 2 13.6006 16 18 .399414.400391 19.6094 6.41016 47.2295 14.8105 2.82031 21.2197 13.21 48.4395 26.8203 70.0596 19.25 30.8301 43.25 48.0303 67.25 48.8301 12.4199.370117 22.8203-3.62988 30.8203-12.4004.399414-.799805 1.19922-1.19922 1.59961-2 1.11914.267578 2.27051.40918 3.4707.40918.176758 0 .353516-.00292969.529297-.00878906 18.4199 0 34-10.8496 44.4404-30.8604 2.84082-5.58887 5.28809-11.5479 7.20996-17.6094zM233.41 360.31c.399414 13.21-1.2002 32.8301-8.00977 47.2002-6.80078-3.2002-12.8105-8.41016-17.21-12.8096-11.21-12.3701-20.8203-31.1807-25.6201-50 17.21 5.20996 34.8398 10.8096 50.8398 15.6094zM200.58 423.56c-36.8301-.799805-69.25-58.8398-78.0098-97.2295 13.1699 4 27.5801 8.40039 42 12.8096 4.7998 24.4502 16.4102 50.0303 31.6201 66.4502 6 6 12.4092 11.21 18.8096 14.4102-3.99414 2.26367-8.625 3.57422-13.54 3.57422-.293945 0-.587891-.00488281-.879883-.0146484zM154.15 203.39c-.400391 4.81055 0 23.6104 29.6191 25.6201 20.4209 1.60059 37.6309-6.39941 37.6309-6.39941l15.21 57.5996s-13.2305 6.41016-39.2305 4.80957c-67.25-4.40918-97.6699-51.2393-94.4697-97.6797 3.59961-55.2402 58.8398-53.2402 60.8398-86.8594.410156-8.01074-4.80957-19.6201-18.8096-20.4209-21.6201-1.59961-48.4404 18.8203-48.4404 18.8203l-10.4004-44s26.8203-28.8203 75.6504-25.6201c40.4297 2.41016 68.4502 34.8301 65.6504 82.4707-4 60.4395-71.6504 66.0498-73.25 91.6592zM249.42 365.12c8.80664 2.7998 16.8135 5.2002 24.0205 7.2002-4.01074 12.4297-12.8105 32.8301-31.2305 36.4297 5.61035-14.4102 7.20996-31.6299 7.20996-43.6299z" glyph-name="shopify" unicode="&#xe057;"/><glyph d="M451.46 203.29v72.71h124.54v-72.71h-124.54zM451.46 377.18h124.54v-72.6699h-124.54v72.6699zM451.46 102.12v72.6797h124.54v-72.6797h-124.54zM0 .910156v72.6699h124.54v-72.6699h-124.54zM150.47.910156v72.6699h124.53v-72.6699h-124.53zM300.99.910156l.00976562 72.6699h124.53v-72.6699h-124.54zM451.46.910156v72.6699h124.54v-72.6699h-124.54zM301 102.12v72.6797h124.53v-72.6797h-124.53zM150.48 102.12l-.0107422 72.6797h124.53v-72.6797h-124.52zM150.48 203.29l-.0107422 72.71h124.53v-72.71h-124.52z" glyph-name="deezer" horiz-adv-x="576" unicode="&#xe077;"/><glyph d="M25.71 219.84l.349609.480469c0-.160156 0-.320312-.0693359-.480469h-.280273zM486.29 204.33v-52.0703h-314.08c1.38965-128.49 191.39-124.06 272.26-67.5693v-104.431c-47.3594-28.5293-156.779-53.1699-240.13-21.3301-70.6201 27.1602-119.92 100.551-120.75 172-1.09961 92.2207 45.7002 153.42 120.75 188.32-15.79-19.9297-27.9697-41.54-34.3398-78.9297h175.85c10.25 105-99.4199 105-99.4199 105-103.3-3.62012-177.949-63.6904-220.37-125 14.5605 114.47 92.9404 219.96 232.83 219.68 85.0205 0 157.61-39.8799 198.591-113.27 21.0498-37.9404 28.8096-78.4004 28.8096-122.4z" glyph-name="edge-legacy" horiz-adv-x="512" unicode="&#xe078;"/><glyph d="M105.72 233h99.6602c1.1543-7.06152 1.75-14.1768 1.75-21.5635v-.216797c0-32.7598-11.4102-60.2998-31.4102-78.9102-17.4502-16.3799-41.5293-25.9092-70-25.9092-41.4531.103516-77.2598 24.0869-94.3799 59v.149414c-7.21582 14.4512-11.2773 30.957-11.2773 48.1943 0 17.2383 4.06152 33.5352 11.2773 47.9863 17.1172 34.9355 52.9199 58.9502 94.3799 59.1094.344727.00390625.699219.00585938 1.04492.00585938 27 0 51.5469-10.5928 69.7051-27.8457l-30.2793-30.6201c-10.1777 9.95508-24.0938 16.0898-39.4404 16.0898-.357422 0-.713867-.00292969-1.07031-.00976562-27.5996 0-50.9297-18.9102-59.2998-44.3701v0c-2.12109-6.44824-3.26855-13.3545-3.26855-20.5088s1.14746-14.043 3.26855-20.4912c8.37012-25.3096 31.7002-44.2197 59.2998-44.2197 14.2803 0 26.46 3.72949 36 10.2803 10.9629 7.39648 18.7705 19.0664 21.1406 32.5996h-57.1006v41.25zM495.13 237c10.1299-9.33984 15.1201-22.4502 15.0498-39v-78.7002h-22.6094v17.7197h-1c-9.79004-14.5898-22.71-21.8896-39-21.8896-13.79 0-25.54 4.16992-34.79 12.5098-8.55078 7.29199-13.9541 18.1143-13.9541 30.2207 0 .350586.00488281.701172.0136719 1.0498 0 13.25 4.98047 23.6699 14.8203 31.5596 9.83984 7.89062 23.0498 11.7705 39.4902 11.7705 14.0898 0 25.54-2.68066 34.6396-7.75v5.50977c-.00488281 8.47461-3.75098 16.0723-9.69043 21.2305-6.02051 5.44141-14.0078 8.76855-22.75 8.78906-13.2061 0-23.626-5.66699-31.2598-17l-20.8496 13.2607c11.1602 16.5195 28.04 24.8594 50.5 24.8594 17.46 0 31.2598-4.75977 41.3896-14.1396zM475.9 147.7c7.7793 7.4502 11.7393 16.2295 11.7393 26.3594-7.33984 5.94043-17.6396 8.94043-30.7998 8.78027-9.54004 0-17.75-2.38965-24.0703-7-6.31934-4.60938-9.53906-10.4199-9.53906-17.4199-.00097656-.0332031-.0166016-.0546875-.0166016-.0878906 0-6.35449 3.05957-12 7.78613-15.542 4.8916-3.90625 11.1035-6.25391 17.8447-6.25391.162109 0 .324219.00097656.485352.00390625 10.3965.0126953 19.8076 4.2793 26.5703 11.1602zM382.25 289.7c10.4268-9.92188 16.9102-23.9102 16.9102-39.4248 0-14.166-5.4209-27.0752-14.2998-36.7656-.890625-.889648-1.77051-1.79004-2.65039-2.67969-11.0098-10.5703-24.5098-15.9297-40.5098-15.9297h-39v-75.6406h-23.6299v186.74h62.6699c.379883.0078125.749023.0185547 1.13086.0185547 15.3701 0 29.2949-6.23828 39.3789-16.3184zM365.67 227.47c5.5957 5.94141 9.03223 13.9971 9.03223 22.7939 0 9.18164-3.7373 17.4961-9.77246 23.5059-5.78027 5.70801-13.7236 9.23047-22.4814 9.23047h-.118164-39.6299v-65.21h39.6299c.328125-.0107422.640625-.0253906.970703-.0253906 8.82031 0 16.7754 3.7334 22.3691 9.70508zM614.31 247h25.6904l-79-183.87h-24.3496l29.3496 64.3203-51.79 119.55h25.6904l37.4199-91.7002h.449219z" glyph-name="google-pay" horiz-adv-x="640" unicode="&#xe079;"/><glyph d="M508.52 198.25c2.09375-1.2959 3.44043-3.60449 3.44043-6.24512 0-2.6416-1.39648-4.95898-3.49023-6.25488l-21.8193-13.5098c-.169922-1.95996-.34082-3.91992-.550781-5.87012l18.7207-17.5c1.43457-1.3418 2.33203-3.24805 2.33203-5.36523 0-3.15039-1.98535-5.83984-4.77246-6.88477l-24-9c-.540039-1.88965-1.08008-3.78027-1.66992-5.65039l15-20.8301c.865234-1.20508 1.37207-2.68945 1.37207-4.28516 0-3.65234-2.66992-6.68555-6.16211-7.25488l-25.4199-4.14941c-.900391-1.71973-1.79004-3.4502-2.73047-5.15039l10.6807-23.4199c.420898-.925781.655273-1.96875.655273-3.05176 0-1.50781-.455078-2.91113-1.23535-4.07812-1.29199-1.97168-3.51172-3.26758-6.04297-3.26758-.109375 0-.21875.00292969-.327148.0078125l-25.8203.910156c-1.18652-1.4873-2.38965-2.9541-3.60938-4.40039l5.92969-25.1602c.125977-.538086.196289-1.0957.196289-1.67188 0-4.0625-3.29785-7.36035-7.35938-7.36035-.577148 0-1.13867.0664062-1.67676.192383l-25.1504 5.92969c-1.45312-1.21289-2.91992-2.41602-4.39941-3.60938l.90918-25.8203c.00390625-.0878906-.00097656-.167969-.00097656-.256836 0-4.05664-3.29395-7.34961-7.34961-7.34961-1.08398 0-2.1123.235352-3.03906.65625l-23.4199 10.6807c-1.7002-.94043-3.42969-1.83008-5.15039-2.73047l-4.14941-25.4199c-.56543-3.49121-3.60254-6.16309-7.25293-6.16309-1.59961 0-3.08105.512695-4.28711 1.38281l-20.8203 15c-1.87012-.599609-3.75977-1.12988-5.64941-1.67969l-9-24c-1.05078-2.7832-3.7373-4.7627-6.88574-4.7627-2.11426 0-4.02148.892578-5.36426 2.32227l-17.5 18.7305c-1.9502-.219727-3.88086-.390625-5.88086-.560547l-13.5098-21.8193c-1.2959-2.09375-3.60352-3.49023-6.24512-3.49023s-4.95898 1.39648-6.25488 3.49023l-13.5098 21.8193c-1.95996.169922-3.92969.34082-5.87988.550781l-17.5-18.7207c-1.34277-1.42969-3.24707-2.32422-5.36133-2.32422-3.14844 0-5.83789 1.98145-6.88867 4.76465l-9 24c-1.88965.549805-3.79004 1.08008-5.65039 1.67969l-20.8301-15c-1.20605-.870117-2.69434-1.37988-4.29395-1.37988-3.64941 0-6.68066 2.66895-7.24609 6.16016l-4.14941 25.4199c-1.71973.900391-3.4502 1.79004-5.14062 2.73047l-23.4297-10.6807c-.925781-.420898-1.96094-.664062-3.04492-.664062-4.05664 0-7.34961 3.29297-7.34961 7.34961 0 .0888672.00195312.176758.00488281.264648l.919922 25.8203c-1.4873 1.18652-2.95703 2.38965-4.41016 3.60938l-25.1602-5.92969c-.538086-.125977-1.0957-.196289-1.67188-.196289-4.0625 0-7.36035 3.29785-7.36035 7.35938 0 .577148.0664062 1.13867.192383 1.67676l5.92969 25.1602c-1.21973 1.45312-2.41992 2.91992-3.59961 4.40039l-25.8301-.910156c-.125977-.00683594-.243164-.0175781-.371094-.0175781-2.5166 0-4.72949 1.30664-5.99902 3.27734-.776367 1.16504-1.23047 2.57812-1.23047 4.08301 0 1.08691.236328 2.11816.660156 3.04688l10.6309 23.4297c-.94043 1.69043-1.83008 3.4209-2.73047 5.14062l-25.4199 4.14941c-3.49219.569336-6.16504 3.60938-6.16504 7.26172 0 1.5957.509766 3.07324 1.375 4.27832l15 20.8301c-.599609 1.87012-1.12988 3.76074-1.67969 5.65039l-24 9c-2.78711 1.04492-4.77148 3.73145-4.77148 6.88184 0 2.11719.896484 4.02637 2.33105 5.36816l18.7197 17.5c-.209961 1.9502-.379883 3.87012-.549805 5.87012l-21.8193 13.5098c-2.09473 1.2959-3.49023 3.60449-3.49023 6.24512 0 2.6416 1.39551 4.95898 3.49023 6.25488l21.8594 13.5c.169922 1.96973.339844 3.92969.549805 5.87988l-18.7197 17.5c-1.43457 1.3418-2.33203 3.24805-2.33203 5.36523 0 3.15039 1.98535 5.83984 4.77246 6.88477l24 9c.549805 1.88965 1.08984 3.79004 1.67969 5.66016l-15 20.8203c-.865234 1.20508-1.37207 2.68945-1.37207 4.28516 0 3.65234 2.66992 6.68555 6.16211 7.25488l25.4102 4.13965c.899414 1.72949 1.79004 3.45996 2.72949 5.16016l-10.6602 23.4102c-.423828.927734-.65918 1.97363-.65918 3.06055 0 1.50391.453125 2.90332 1.22949 4.06934 1.33398 1.97266 3.58398 3.26367 6.14258 3.26367.0761719 0 .152344-.00195312.227539-.00390625l25.8096-.910156c1.19043 1.48047 2.39062 2.95996 3.62012 4.41016l-5.92969 25.1602c-.125977.538086-.196289 1.0957-.196289 1.67188 0 4.0625 3.29785 7.36035 7.35938 7.36035.577148 0 1.13867-.0664062 1.67676-.192383l25.1504-5.96973c1.41992 1.21973 2.92969 2.41992 4.41992 3.60938l-.919922 25.8105c-.00488281.104492-.00097656.201172-.00097656.307617 0 4.05566 3.29395 7.34961 7.35059 7.34961 1.08398 0 2.11328-.235352 3.04004-.657227l23.4004-10.6299c1.70996.939453 3.42969 1.83008 5.16016 2.72949l4.14941 25.4102c.569336 3.49219 3.60938 6.16504 7.26172 6.16504 1.5957 0 3.07324-.509766 4.27832-1.375l20.8203-15c1.87012.599609 3.76953 1.12988 5.66016 1.67969l9 24c1.04492 2.78711 3.73145 4.77148 6.88184 4.77148 2.11719 0 4.02637-.896484 5.36816-2.33105l17.5-18.7197c1.94922.209961 3.87988.379883 5.87988.549805l13.5098 21.8193c1.2959 2.09473 3.60449 3.49023 6.24512 3.49023 2.6416 0 4.95898-1.39551 6.25488-3.49023l13.4805-21.8398c1.96973-.169922 3.92969-.339844 5.87988-.549805l17.5 18.7197c1.3418 1.43457 3.24805 2.33301 5.36523 2.33301 3.14941 0 5.83984-1.98535 6.88477-4.77246l9-24c1.88965-.540039 3.7793-1.08008 5.63965-1.66992l20.8604 14.9697c1.20508.865234 2.68945 1.37207 4.28516 1.37207 3.65234 0 6.68555-2.66992 7.25488-6.16211l4.14941-25.4199c1.71973-.889648 3.4502-1.79004 5.15039-2.73047l23.4199 10.7305c.926758.421875 1.96289.666016 3.04688.666016 4.05664 0 7.34961-3.29395 7.34961-7.35059 0-.105469-.00195312-.210938-.00683594-.31543l-.910156-25.8203c1.4873-1.18652 2.9541-2.38965 4.40039-3.60938l25.1602 5.92969c.538086.125977 1.0957.196289 1.67188.196289 4.0625 0 7.36035-3.29785 7.36035-7.35938 0-.577148-.0664062-1.13867-.192383-1.67676l-5.87988-25.1602c1.21387-1.45312 2.41699-2.91992 3.61035-4.40039l25.8193.910156c.0878906.00292969.167969-.00097656.256836-.00097656 4.05664 0 7.34961-3.29395 7.34961-7.35059 0-1.08301-.234375-2.1123-.65625-3.03809l-10.6797-23.4199c.939453-1.7002 1.83008-3.41992 2.72949-5.15039l25.4199-4.14941c3.49219-.569336 6.16504-3.60938 6.16504-7.26172 0-1.5957-.509766-3.07324-1.375-4.27832l-15-20.8301c.589844-1.86035 1.12988-3.76074 1.66992-5.64062l24-9c2.78711-1.04492 4.77148-3.73145 4.77148-6.88184 0-2.11719-.896484-4.02637-2.33105-5.36816l-18.7197-17.5c.209961-1.94922.379883-3.87988.549805-5.87988zM357.52 69.1699l32.1406-6.87988c6.28125 6.3125 12.0029 12.9395 17.3398 20.0898h-79.0498c-12.5 0-24.21 17.6396-27.1006 26.46-2.88965 7.86035-7.14941 32.4502-9.05957 40-6.12988 24.5898-25.3799 25.8701-29.79 25.8701h-48.4805l-.0498047-34.3496h44.8301c1.71973 0 2.89062-.34082 2.89062-1.91016v-54.1904c0-1.62012-1.1709-1.91016-2.89062-1.91016h-153.17c5.01953-6.80957 10.3848-13.1465 16.2598-19.21l31.5107 6.76074c.935547.199219 1.89746.294922 2.89258.294922 6.66211 0 12.2344-4.70801 13.5674-10.9756l7.63965-35.6602c23.9688-11.1318 50.9941-17.3506 79.1416-17.3506 27.5205 0 53.665 5.94141 77.2188 16.6113l7.63965 35.6699c1.34668 6.27246 6.91797 10.9893 13.5908 10.9893 1.00488 0 1.98438-.106445 2.92871-.30957zM383.29 34.6797c0 .00585938-.0576172.0107422-.0576172.0166016 0 8.25977-6.58887 14.9922-14.792 15.2236h-.44043c-8.3877-.0273438-15.1904-6.8457-15.1904-15.2402 0-8.41113 6.8291-15.2393 15.2402-15.2393s15.2402 6.82812 15.2402 15.2393zM157.67 35.3604c0 .00195312-.0576172.00488281-.0576172.0078125 0 8.24707-6.56055 14.9736-14.7422 15.2422h-.450195c-8.40625-.00585938-15.2295-6.83203-15.2295-15.2402 0-8.41113 6.82812-15.2402 15.2393-15.2402 8.4082 0 15.2344 6.82324 15.2402 15.2305zM69.5703 213.85c-.725586-6.69922-1.0625-13.2754-1.0625-20.167 0-17.8242 2.49023-35.0713 7.14258-51.4131h53.5996v119.73h-26.5596l6.76953-15.2197c.765625-1.7207 1.20801-3.62988 1.20801-5.63281 0-5.66406-3.39941-10.54-8.26758-12.6973zM58.3096 249.91c.00292969-8.4082 6.84375-15.2236 15.2529-15.2236 8.41113 0 15.2402 6.82812 15.2402 15.2393 0 8.26562-6.59375 15.0029-14.8027 15.2344h-.459961c-8.40625-.00585938-15.2305-6.83203-15.2305-15.2402v-.00976562zM213.47 225.42h58.7002c12.4902 0 27.6797 4.41016 27.6797 16.7002 0 14.8496-19.79 18.6201-23.0693 18.6201h-63.2607zM399 141.29c10.3096 1.12988 22 5.70996 22.0195 26.46v8.82031c0 1.85938.780273 3.12988 2.69043 3.12988h19.2803c.349609 4.6709.529297 9.02832.529297 13.7891 0 6.32812-.314453 12.583-.929688 18.751l-34.5898 15.3301c-4.86621 2.19434-8.23828 7.0918-8.23828 12.7725 0 1.97363.410156 3.85352 1.14844 5.55762l18 40.5693c-26.8047 47.0127-73.3965 81.1328-128.37 91.4307l-26.2598-25c-2.48535-2.39062-5.86523-3.86523-9.58203-3.86523-3.94141 0-7.5 1.6543-10.0186 4.30469l-23.4697 24.6006c-41.29-7.80371-77.9434-29.083-104.89-59.1904h198.899c4.99023 0 23.5107-2.23047 40.2705-13.2305 11.9102-7.88965 29.3994-23.96 29.3994-49.4795 0-23.6201-19.5996-41.3096-38.46-53.2598 15.1807-12 24.79-18.9102 30.5703-51.4004 1.37012-5.96973 12.2002-11.2197 22-10.0898zM240 387.79c0-.0078125-.00683594-.015625-.00683594-.0244141 0-8.41113 6.82812-15.2393 15.2402-15.2393 8.41113 0 15.2393 6.82812 15.2393 15.2393 0 8.26855-6.59863 15.0078-14.8125 15.2344h-.450195c-8.38672-.0166016-15.1934-6.82324-15.21-15.21zM436.84 234c.0742188-.00097656.141602-.00195312.21582-.00195312 8.41211 0 15.2422 6.83008 15.2422 15.2422 0 8.33691-6.70898 15.1201-15.0176 15.2402h-.44043c-8.41113 0-15.2402-6.8291-15.2402-15.2402s6.8291-15.2402 15.2402-15.2402z" glyph-name="rust" horiz-adv-x="512" unicode="&#xe07a;"/><glyph d="M448 238.09h-.512695c-45.5098 0-87.8428 14.6162-122.257 39.25v-178.72c-.0332031-89.6855-72.8574-162.489-162.551-162.489-89.7139 0-162.55 72.8359-162.55 162.55s72.8359 162.55 162.55 162.55c7.62891 0 14.9697-.521484 22.3203-1.54004v-89.8906c-7.06836 2.22363-14.5889 3.42285-22.3877 3.42285-41.1836 0-74.6201-33.4365-74.6201-74.6201 0-41.1846 33.4365-74.6201 74.6201-74.6201 41.1846 0 74.6182 33.4541 74.6182 74.6377v349.38h88c-.00292969-.337891-.00488281-.676758-.00488281-1.01562 0-7.25977.638672-14.2441 1.86426-21.1543v0c6.28613-33.5771 26.1982-62.3613 53.9102-80.2197 19.1787-12.6816 42.1592-20.0674 66.8506-20.0674.00878906 0 .140625-.0732422.149414-.0732422v-87.3799z" glyph-name="tiktok" unicode="&#xe07b;"/><glyph d="M448 217.83v-249.83h-448v249.83h141.13v-124.92h165.74v124.92h141.13zM306.87 416v-124.91h-165.74v124.91h165.74z" glyph-name="unsplash" unicode="&#xe07c;"/><glyph d="M407.906 128.087c12.1836-.574219 22.2178-5.50977 28.2334-13.9023 6.54883-9.09961 8-21.5 4.10059-34.8994l-3.27344-11.2656c-.681641-2.28125-2.7793-3.95508-5.27051-4-.0419922-.00097656-.0791016-.0195312-.12207-.0195312l-426.101.0507812c-2.26172.00878906-4.13379 1.69238-4.44434 3.87109-.676758 4.58691-1.02637 9.18457-1.0293 13.958 0 52.3926 41.9238 95.0137 94.2002 96.5303-1.37402 5.39062-2.05469 10.9785-2.05469 16.7939 0 37.5967 30.5234 68.1201 68.1201 68.1201 15.3838 0 29.583-5.11035 40.9912-13.7246 20.542 59.582 77.085 102.308 143.607 102.308 72.1562 0 132.629-50.417 148.085-117.914.107422-.513672.164062-1.03906.164062-1.58398v-.046875c0-.0332031-.00292969-.0683594-.00292969-.101562 0-.998047-.18457-1.9541-.521484-2.83496l-13.2861-34.542c-10.4756-27.21-40.3906-49.5234-68.0215-50.7842l-232.94-2.93555c-2.48145-.173828-4.5625-1.82227-5.36035-4.07617-.178711-.493164-.275391-1.03223-.275391-1.58691 0-.945312.283203-1.8252.768555-2.55957.8125-1.14258 2.13379-1.89355 3.63281-1.92676zM513.856 226.9c69.668 0 126.144-56.2002 126.147-125.533 0-.0458984-.0175781-.0644531-.0175781-.110352 0-11.7441-1.62598-23.1123-4.66406-33.8896-.571289-1.94629-2.37012-3.37012-4.5-3.37012h-.0390625-175.91c-.0478516 0-.0898438.0166016-.135742.0166016-1.44727.0595703-2.60449 1.25391-2.60449 2.71484 0 .339844.0634766.666016.176758.96582l3.69531 9.60547c10.4766 27.21 40.3916 49.5146 68.1455 50.7842l51.125 2.93945c2.47559.179688 4.55078 1.82617 5.35059 4.07422.177734.492188.274414 1.03027.274414 1.58301 0 .957031-.291016 1.84766-.788086 2.58594-.785156 1.11035-2.06152 1.84375-3.51074 1.89453l-49.1992 2.93848c-12.1846.577148-22.2188 5.5-28.2383 13.9004-6.54883 9.10352-8 21.4902-4.09961 34.8896l9.07617 31.1934c.447266 1.45508 1.75391 2.53613 3.32422 2.65332 2.12012.101562 4.25.164062 6.3916.164062z" glyph-name="cloudflare" horiz-adv-x="640" unicode="&#xe07d;"/><glyph d="M443.427 384c.00195312-.518555.0253906-.367188.0253906-.885742 0-29.1934-2.00293-57.9229-5.87891-86.0576h-336.147s.366211-52.0498 27.0918-105.883c27.458-51.8174 65.3164-85.1025 96.5488-98.3623 32.2695 15.082 63.4434 41.2695 80.4561 69.4824h-88.5898c-22.9229 18.998-40.96 50.5146-45.0996 86.9443h259.889c-12.8154-58.5713-40.0088-111.838-65.916-145.762-35.8154-46.7773-84.2695-82.8105-140.55-103.477-1.25586 0-113.21 33.8652-177.267 161.642-21.2266 42.2988-43.418 119.099-43.418 222.358h438.855z" glyph-name="guilded" unicode="&#xe07e;"/><glyph d="M260.353 193.122c.191406-.329102.300781-.716797.300781-1.12402 0-.404297-.107422-.783203-.294922-1.11133l-127.412-221.777c-.380859-.666992-1.09473-1.11621-1.91602-1.11621-.818359 0-1.53223.445312-1.91406 1.10645l-128.816 221.778c-.189453.328125-.297852.713867-.297852 1.12012s.108398.787109.297852 1.11523l127.409 221.777c.380859.666016 1.09473 1.11523 1.91602 1.11523.817383 0 1.53125-.445312 1.91309-1.10547zM299.431 218.835l-110.624 193.824c-.189453.327148-.298828.709961-.298828 1.11523 0 1.21973.983398 2.21094 2.19922 2.22559h66.5078c.81543-.00195312 1.52539-.447266 1.90039-1.11133l110.625-193.823c.189453-.328125.298828-.709961.298828-1.11523 0-1.21973-.983398-2.21191-2.19922-2.22656h-66.5088c-.81543.00292969-1.52441.448242-1.90039 1.11133zM511.7 193.114c.1875-.328125.294922-.711914.294922-1.11621 0-.405273-.107422-.78418-.294922-1.1123l-126.808-221.773c-.376953-.664062-1.08887-1.11035-1.90527-1.1123h-66.6006c-1.21875.0117188-2.20312 1.00684-2.20312 2.22852 0 .404297.108398.78418.297852 1.11133l126.171 220.66-126.168 220.66c-.189453.327148-.298828.708984-.298828 1.11426 0 1.2207.985352 2.21387 2.2041 2.22559h66.6006c.818359-.00097656 1.53125-.447266 1.91016-1.1123zM366.016 163.083c1.2168-.0136719 2.19922-1.00879 2.19922-2.22852 0-.405273-.108398-.785156-.297852-1.1123l-108.8-190.631c-.375-.664062-1.08496-1.10938-1.90039-1.11133h-66.5088c-1.21582.0146484-2.19824 1.00879-2.19824 2.22852 0 .405273.108398.785156.297852 1.1123l108.801 190.631c.374023.664062 1.08398 1.10938 1.89941 1.11133h66.5078z" glyph-name="hive" horiz-adv-x="512" unicode="&#xe07f;"/><glyph d="M422.559 288.29l.00292969-190.955c.0253906-12.4102-5.87793-22.8965-16.623-29.5283l-164.527-94.9951c-5.08008-3.04102-11.0938-4.79004-17.4404-4.79004-6.11523 0-11.8545 1.62402-16.8096 4.46387l-118.794 68.583 247.049 142.627v-56l-150.051-86.627 32.7227-18.9004c1.74805-.97168 3.78613-1.52441 5.92676-1.52441 2.18457 0 4.23633.576172 6.01074 1.58691l138.111 79.7441c3.54883 2.08008 5.91992 5.92578 5.91992 10.332v.0361328 138.281l-308.407-178.066c-3.94629-2.25293-8.57129-3.54102-13.4365-3.54102-4.83301 0-9.37207 1.27051-13.2998 3.49609-8.39453 4.75586-13.3037 13.293-13.4736 23.4287v191.5c.518555 12.7334 6.65527 23.0039 17.2891 29.124l164.601 95.0254c11.5 5.98535 22.8076 5.85938 33.7998-.269531l118.513-68.4072-247.061-142.637v56l150.062 86.6367-32.6553 18.8525c-1.76367.998047-3.82715 1.56738-5.99609 1.56738-2.15137 0-4.17285-.55957-5.92578-1.54199l-138.076-79.7129c-3.60352-2.04785-6.02734-5.90723-6.04688-10.3398v-138.387l308.539 178.142c3.88281 2.24414 8.44531 3.5293 13.25 3.5293 4.70801 0 9.13086-1.23438 12.9609-3.39648 8.16406-4.63184 13.6914-13.3291 13.8652-23.3369z" glyph-name="innosoft" unicode="&#xe080;"/><glyph d="M153.384-32l50.8447 146.789 298.325 57.4463-115.44-204.235h-233.729zM504.726 207.922l-144.495-27.8223-204.562 235.9h231.444zM124.386 399.191l101.241-116.752-102.391-295.594-115.962 205.154z" glyph-name="instalod" horiz-adv-x="512" unicode="&#xe081;"/><glyph d="M455.6 98.7998c12.4395-10.5996 42.6348-26.4775 42.5244-45.2666-.15332-24.6084-48.4248 5.24121-53.8184 9.51953 6.13965-10.7275 66.998-74.1787 28.2627-78.6943-35.6562-4.1582-67.1406 45.6416-88.5615 67.0225-36 35.9082-29.7373-43.5332-29.8994-59.9443-.257812-25.9082-18.5586-78.4209-51.4121-44.2207-27.1387 28.2314-16.873 73.2607-35.7383 104.622-20.6641 34.3535-55.0361-34.3535-63.627-46.9258-9.59668-14.042-57.6094-82.041-76.709-45.8125-15.499 29.4004 9.2793 75.5127 21.4629 102.103-4.44336-9.65723-35.9297-23.9414-45.1299-28.5879-20.7871-10.4971-41.8867-16.7256-65.2646-15.0449-27.8916 2.00098-38.3789 11.6572 8.42773 41.8574 38.5615 24.8389 83.8613 67.4209 66.6621 117.582-9.37305 27.3301-22.3574 50.7568-24.0898 80.2998-.209961 3.56152-.25 7.08008-.25 10.6924 0 22.0957 3.9707 43.2715 11.2373 62.8516 34.5752 92.8066 137.363 136.747 230.253 108.848 86.0371-25.8398 145.23-125.74 109.575-212.79-20.5752-50.2334-29.7959-89.0205 16.0947-128.11z" glyph-name="octopus-deploy" horiz-adv-x="512" unicode="&#xe082;"/><glyph d="M305.314 163.422c15.9307.00097656 28.5732-4.5 37.9277-13.5059s14.0322-20.7842 14.0322-35.335c0-14.8936-4.58984-26.9307-13.7705-36.1113-9.17969-9.17969-21.9111-13.7695-38.1934-13.7695h-58.7109v98.7217h58.7148zM149.435 319.301c15.9346.00488281 28.5791-4.49609 37.9316-13.5039s14.0283-20.7871 14.0283-35.3379c0-14.8896-4.58984-26.9258-13.7695-36.1084-9.17969-9.18164-21.9102-13.7725-38.1904-13.7725h-58.7109v98.7227h58.7109zM366.648 416.002c22.4385-.0253906 41.5996-7.98145 57.4854-23.8672s23.8418-35.0479 23.8672-57.4854v-285.296c-.0253906-22.4375-7.98145-41.5996-23.8672-57.4854s-35.0479-23.8418-57.4854-23.8672h-285.295c-22.4385.0253906-41.6006 7.98145-57.4863 23.8672s-23.8418 35.0479-23.8672 57.4863v285.296c.0253906 22.4375 7.98145 41.5996 23.8672 57.4854s35.0479 23.8408 57.4863 23.8662h285.295zM430.282 49.3535l-.00097656 285.296c-.0195312 17.5518-6.24219 32.54-18.668 44.9658s-27.4141 18.6484-44.9648 18.668h-285.295c-17.5508-.0195312-32.5391-6.24219-44.9648-18.668s-18.6484-27.4141-18.668-44.9658v-285.296c.0195312-17.5508 6.24219-32.5391 18.668-44.9648s27.4141-18.6484 44.9648-18.668h285.295c17.5518.0195312 32.54 6.24219 44.9658 18.668s18.6484 27.4141 18.668 44.9648zM305.313 319.301c15.9307.00488281 28.5732-4.49609 37.9277-13.5039s14.0322-20.7871 14.0322-35.3379c0-14.8896-4.58984-26.9258-13.7705-36.1084-9.17969-9.18164-21.9111-13.7725-38.1934-13.7725h-58.7109v98.7227h58.7148z" glyph-name="perbyte" unicode="&#xe083;"/><glyph d="M171.73 215.187c-.0605469-.00195312-.12207-.00097656-.183594-.00097656-.673828 0-1.3125.148438-1.88672.414062l-115.933 67.9004v-85.2891c-.0830078-2.71289-1.16895-5.18555-2.89941-7.03906-1.6748-1.54297-3.91113-2.4873-6.36621-2.4873-.0859375 0-.172852.00097656-.258789.00390625-.146484-.0078125-.296875-.00585938-.444336-.00585938-1.65332 0-3.2002.455078-4.52344 1.24707l-22.3584 12.835c-2.9541 1.50684-4.9707 4.57031-4.9707 8.1123 0 .0566406.00097656.112305.00195312.168945v115.107c.118164 3.54102 2.08105 6.61523 4.96875 8.28027l100.2 57.9668c1.40625.787109 3.04688 1.23535 4.77148 1.23535s3.3457-.448242 4.75098-1.23535l22.3584-12.8389c2.9541-1.50586 4.96973-4.56934 4.96973-8.11035 0-.0566406-.00097656-.113281-.00195312-.169922-.117188-3.54199-2.08008-6.61523-4.96777-8.28125l-74.5293-43.4727 116.757-68.3184c1.16016-.680664 1.96191-1.89941 2.07129-3.31152 0-1.65723-.414062-3.31348-1.65723-4.1416-7.34473-6.5459-12.6475-15.3301-14.8994-25.2559-.810547-1.94629-2.72949-3.31348-4.96777-3.31348h-.00195312zM323.272 70.2695c4.96777 0 9.52734-4.55469 10.3506-9.1084v-26.085c-.117188-3.54199-2.08105-6.61523-4.96777-8.28125l-100.2-57.5527c-1.48633-.772461-3.18359-1.22363-4.96875-1.24219-.146484-.00683594-.296875-.00488281-.444336-.00488281-1.65332 0-3.2002.455078-4.52441 1.24707l-100.199 57.5527c-2.95508 1.50586-4.9707 4.56934-4.9707 8.11035 0 .0576172 0 .114258.00097656.170898v26.085c.0585938 5.22852 4.29492 9.46484 9.52344 9.52246.146484.0078125.296875.00585938.444336.00585938 1.65332 0 3.20117-.456055 4.52441-1.24707l74.5293-43.0615v133.323c.0615234 2.62891 2.21387 4.74609 4.85742 4.74609.469727 0 .922852-.0673828 1.35254-.191406 4.39453-1.18066 8.99414-1.80664 13.7588-1.80664 5.29102 0 10.4023.776367 15.2256 2.2207 3.31055 1.24512 6.21094-1.65527 6.21094-4.55469v-134.152l74.5273 43.0625c1.50684.730469 3.2002 1.17383 4.96973 1.24121zM286.007 370c-12.6943 0-23 10.3057-23 23s10.3057 23 23 23 23-10.3057 23-23-10.3057-23-23-23zM349.634 380.086c12.6943 0 23-10.3057 23-23s-10.3057-23-23-23c-12.6934 0-23 10.3057-23 23s10.3066 23 23 23zM412.816 296.4c-12.6943 0-23 10.3057-23 23 0 12.6934 10.3057 23 23 23 12.6934 0 23-10.3066 23-23 0-12.6943-10.3066-23-23-23zM349.634 305.6c12.6943 0 23-10.3057 23-23 0-12.6934-10.3057-23-23-23-12.6934 0-23 10.3066-23 23 0 12.6943 10.3066 23 23 23zM286.007 222.356c-12.6943 0-23 10.3018-23 22.9951v.00488281c0 12.6934 10.3057 23 23 23s23-10.3066 23-23c0-12.6943-10.3057-23-23-23zM223.933 185.998c-12.6934 0-23 10.3018-23 22.9961v.00390625c0 12.6943 10.3066 23 23 23 12.6943 0 23-10.3057 23-23s-10.3057-23-23-23zM412.816 268.356c12.6924 0 22.9971-10.3086 23-23 0-12.6943-10.3066-23-23-23-12.6943 0-23 10.3057-23 23 0 12.6934 10.3057 23 23 23zM412.816 196.084c12.6924 0 22.9971-10.3076 23-23 0-12.6943-10.3066-23-23-23-12.6943 0-23 10.3057-23 23s10.3057 23 23 23z" glyph-name="uncharted" unicode="&#xe084;"/><glyph d="M256 432c132.548 0 240-107.452 240-240s-107.452-240-240-240-240 107.452-240 240 107.452 240 240 240zM121.69 18.8779l27.6846 204.861-9.46777 7.39941c-2.98242 2.34082-4.89062 5.9668-4.89062 10.0479 0 .100586.00097656.201172.00292969.301758 0 7.04883.144531 19.5488.144531 19.5488l13.9434 2.0127.120117 10.9668-102.899-17.8945c-6.20508-20.251-9.58691-41.7412-9.58691-64.0137v-.108398c0-70.3223 33.3145-132.972 84.9492-173.122zM227.382 302.148l.0400391-3.61816 193.512 37.7002c-40.1152 46.0273-99.1426 75.0244-164.934 75.0244-74.4863 0-140.374-37.3623-180.018-94.2998l73.5068-19.1758.0478516 4.36914-8.48145 7.61719s-6.93359 5.38086.144531 9.34473c7.18652 4.02539 39.5283 34.5 39.5283 34.5 7.20312 7.34668 10.1123 5.47656 15.4609 0 0 0 32.3418-30.4766 39.5293-34.5 7.07715-3.96387.143555-9.34473.143555-9.34473zM261.445-27.1211c118.386 2.90918 213.813 100.047 213.813 219.121-.0107422 17.2881-2.04297 33.9951-5.85059 50.1299l-241.711 31.3916.116211-10.4746 13.9424-2.0127s.144531-12.5049.144531-19.5488c.00195312-.100586.0126953-.19043.0126953-.290039 0-4.08203-1.91797-7.71973-4.90137-10.0596l-9.4668-7.39941z" glyph-name="watchman-monitoring" horiz-adv-x="512" unicode="&#xe087;"/><glyph d="M178.414 108.294h-37.3145l-28.9336 116.231h-.477539l-28.4609-116.231h-38.0273l-45.2002 170.76h37.5479l27.0264-116.23h.477539l29.6553 116.23h35.1572l29.1777-117.667h.479492l27.9785 117.667h36.8311zM271.4 235.287c38.9834 0 64.0996-25.8281 64.0996-65.291 0-39.2217-25.1113-65.0498-64.0996-65.0498-38.7432 0-63.8555 25.8281-63.8555 65.0498.00195312 39.4629 25.1143 65.291 63.8555 65.291zM271.4 130.534c23.1992 0 30.1328 19.8516 30.1328 39.4619 0 19.8516-6.93457 39.7002-30.1328 39.7002-27.7002 0-29.8945-19.8506-29.8945-39.7002.00195312-19.6104 6.9375-39.4619 29.8945-39.4619zM435.084 124.078h-.477539c-7.89355-13.3926-21.7656-19.1318-37.5488-19.1318-37.3096 0-55.4844 32.0449-55.4844 66.2461 0 33.2422 18.415 64.0947 54.7666 64.0947 14.5889 0 28.9385-6.21777 36.8311-18.416h.240234v62.1826h33.96v-170.76h-32.2871v15.7842zM405.428 209.7c-22.2393 0-29.8936-19.1338-29.8936-39.4629 0-19.3711 8.84766-39.7002 29.8936-39.7002 22.4824 0 29.1787 19.6133 29.1787 39.9395 0 20.0879-7.1748 39.2236-29.1787 39.2236zM592.96 108.294h-32.2871v17.2188h-.717773c-8.60938-13.8701-23.4365-20.5664-37.7861-20.5664-36.1133 0-45.2002 20.3281-45.2002 50.9404v76.0527h33.959v-69.8398c0-20.3281 5.97949-30.3721 21.7656-30.3721 18.415 0 26.3057 10.2832 26.3057 35.3936v64.8184h33.9609v-123.646zM602.453 145.124h37.5469v-36.8301h-37.5469v36.8301z" glyph-name="wodu" horiz-adv-x="640" unicode="&#xe088;"/><glyph d="M400 416c26.5 0 48-21.5 48-48v-352c0-26.5-21.5-48-48-48h-352c-26.5 0-48 21.5-48 48v352c0 26.5 21.5 48 48 48h352zM351.1 257.2c12.8008 9.2998 24 20.8994 32.9004 34-11.7998-5.10059-24.5996-8.7998-37.7998-10.2002 13.5996 8.09961 23.8994 20.9004 28.7998 36.0996-12.5996-7.5-26.7998-13-41.5996-15.7998-12 12.7998-29 20.7002-47.9004 20.7002-40 0-73.2998-36.0996-64-80.5996-54.4004 2.7998-102.9 28.7998-135.2 68.5996-5.7002-9.7002-8.89941-20.9004-8.89941-33.0996 0-.0371094-.0664062-.0322266-.0664062-.0683594 0-22.749 11.6309-42.8018 29.2656-54.5322-10.6992.400391-20.8994 3.40039-29.5996 8.2998v-.799805c0-31.8994 22.5-58.2998 52.5-64.3994-10.4004-2.7002-19.5-2.7002-29.5996-1.2002 8.2998-26 32.5-44.9004 61.2998-45.5-22.5-17.6006-50.7002-28-81.4004-28-5.39941 0-10.5.200195-15.7998.799805 29-18.5996 63.5-29.4004 100.7-29.4004 120.6 0 186.6 99.9004 186.6 186.601 0 2.7998 0 5.7002-.200195 8.5z" glyph-name="twitter-square" unicode="&#xf081;"/><glyph d="M400 416c26.4922 0 48-21.5078 48-48v-352c0-26.4922-21.5078-48-48-48h-137.25v152.31h57.7803l11 71.6904h-68.7803v46.5498c0 19.6104 9.61035 38.7305 40.4199 38.7305h31.2705v61s-28.3809 4.83984-55.5205 4.83984c-56.6699 0-93.6699-34.3301-93.6699-96.4805v-54.6396h-63v-71.6904h63v-152.31h-137.25c-26.4922 0-48 21.5078-48 48v352c0 26.4922 21.5078 48 48 48h352z" glyph-name="facebook-square" unicode="&#xf082;"/><glyph d="M416 416c17.5996 0 32-14.5 32-32.2998v-383.4c0-17.7998-14.4004-32.2998-32-32.2998h-384.1c-17.6006 0-31.9004 14.5-31.9004 32.2998v383.4c0 17.7998 14.2998 32.2998 31.9004 32.2998h384.1zM135.4 32h.0996094v213.8h-66.5v-213.8h66.4004zM102.2 275c21.2998 0 38.5 17.2002 38.5 38.5 0 21.2002-17.2998 38.5-38.5 38.5-21.2998 0-38.5-17.2998-38.5-38.5s17.2002-38.5 38.5-38.5zM384.3 32v117.2c0 57.5996-12.5 101.899-79.7002 101.899-32.2998 0-54-17.6992-62.8994-34.5h-.900391v29.2002h-63.7002v-213.8h66.4004v105.8c0 27.9004 5.2998 54.9004 39.9004 54.9004 34 0 34.5-31.9004 34.5-56.7002v-104h66.3994z" glyph-name="linkedin" unicode="&#xf08c;"/><glyph d="M400 416c26.5 0 48-21.5 48-48v-352c0-26.5-21.5-48-48-48h-352c-26.5 0-48 21.5-48 48v352c0 26.5 21.5 48 48 48h352zM277.3 32.2998c66 22 110.8 84.9004 110.7 158.3 0 91.8008-74.4004 161.5-166.2 161.5s-162-69.6992-162-161.5c0-73.3994 46.2002-136.199 112.2-158.3 8.5-1.5 11.5 3.7002 11.5 8 0 4.10059-.200195 26.7002-.200195 40.6006 0 0-46.3994-10-56.0996 19.6992 0 0-7.60059 19.2002-18.4004 24.2002 0 0-15.0996 10.4004 1.10059 10.2002 0 0 16.3994-1.2998 25.5-17.0996 14.5-25.6006 38.7998-18.2002 48.2998-13.9004 1.5 10.5996 5.7998 18 10.5996 22.2998-37 4.10059-74.2998 9.5-74.2998 73.1006 0 18.1992 5 27.2998 15.5996 39-1.7998 4.39941-7.39941 22.0996 1.7002 45 13.9004 4.2998 45.7002-17.9004 45.7002-17.9004 13.2002 3.7002 27.5 5.59961 41.5996 5.59961 14.1006 0 28.4004-1.89941 41.6006-5.59961 0 0 31.7998 22.2002 45.7002 17.9004 9.09961-23 3.39941-40.7002 1.69922-45 10.6006-11.7002 17.1006-20.8008 17.1006-39 0-63.9004-39-69-76-73.1006 6.09961-5.2002 11.2998-15.0996 11.2998-30.7002 0-22.2998-.200195-49.8994-.200195-55.2998 0-4.2998 3.10059-9.5 11.5-8zM179.2 93.4004c-1.90039-.400391-3.7002.399414-3.90039 1.69922-.200195 1.5 1.10059 2.80078 3 3.2002 1.90039.200195 3.7002-.599609 3.90039-1.89941.299805-1.30078-1-2.60059-3-3zM169.7 94.2998c0 1.5-1.7998 2.60059-3.7002 2.40039-2 0-3.5-1.10059-3.5-2.40039 0-1.5 1.5-2.59961 3.7002-2.39941 2 0 3.5 1.09961 3.5 2.39941zM156 95.4004c-.400391-1.30078-2.40039-1.90039-4.09961-1.30078-1.90039.400391-3.2002 1.90039-2.80078 3.2002.400391 1.2998 2.40039 1.90039 4.10059 1.5 2-.599609 3.2998-2.09961 2.7998-3.39941zM143.7 100.8c.899414.799805.399414 2.7998-.900391 4.10059-1.5 1.5-3.39941 1.69922-4.2998.599609-1-.900391-.599609-2.7998.900391-4.09961 1.5-1.5 3.39941-1.7002 4.2998-.600586zM134.6 109.9c1.10059.799805 1.10059 2.59961 0 4.09961-.899414 1.5-2.59961 2.2002-3.69922 1.2998-1.10059-.700195-1.10059-2.39941 0-3.89941 1.09961-1.5 2.7998-2.10059 3.69922-1.5zM128.1 119.6c.900391.700195.700195 2.2002-.399414 3.5-1.10059 1-2.60059 1.5-3.5.600586-.900391-.700195-.700195-2.2002.399414-3.5 1.10059-1 2.60059-1.5 3.5-.600586zM121.4 127c.399414.799805-.200195 1.90039-1.5 2.59961-1.30078.5-2.40039.200195-2.80078-.399414-.399414-.900391.200195-2 1.5-2.60059 1.10059-.699219 2.40039-.5 2.80078.400391z" glyph-name="github-square" unicode="&#xf092;"/><glyph d="M459.37 296.284c.325195-4.54785.325195-9.09766.325195-13.6455 0-138.72-105.583-298.558-298.559-298.558-59.4521 0-114.68 17.2188-161.137 47.1055 8.44727-.973633 16.5684-1.29883 25.3398-1.29883 49.0547 0 94.2129 16.5684 130.274 44.832-46.1318.975586-84.792 31.1885-98.1123 72.7725 6.49805-.974609 12.9951-1.62402 19.8184-1.62402 9.4209 0 18.8428 1.2998 27.6133 3.57324-48.0811 9.74707-84.1426 51.9795-84.1426 102.984v1.29883c13.9688-7.79688 30.2139-12.6699 47.4307-13.3184-28.2637 18.8428-46.7803 51.0049-46.7803 87.3906 0 19.4922 5.19629 37.3604 14.2939 52.9541 51.6543-63.6748 129.3-105.258 216.364-109.807-1.62402 7.79688-2.59863 15.918-2.59863 24.04 0 57.8271 46.7822 104.934 104.934 104.934 30.2139 0 57.502-12.6699 76.6709-33.1367 23.7148 4.54785 46.4551 13.3193 66.5986 25.3398-7.79785-24.3662-24.3662-44.833-46.1318-57.8271 21.1172 2.27344 41.584 8.12207 60.4258 16.2432-14.292-20.791-32.1611-39.3086-52.6279-54.2529z" glyph-name="twitter" horiz-adv-x="512" unicode="&#xf099;"/><glyph d="M504 192c0-123.78-90.6904-226.38-209.25-245v173.31h57.7803l11 71.6904h-68.7803v46.5498c0 19.6104 9.61035 38.7305 40.4102 38.7305h31.2803v61s-28.3809 4.83984-55.5205 4.83984c-56.6699 0-93.6699-34.3301-93.6699-96.4805v-54.6396h-63v-71.6904h63v-173.31c-118.56 18.6201-209.25 121.22-209.25 245 0 137 111 248 248 248s248-111 248-248z" glyph-name="facebook" horiz-adv-x="512" unicode="&#xf09a;"/><glyph d="M165.9 50.5996c0-2-2.30078-3.59961-5.2002-3.59961-3.2998-.299805-5.60059 1.2998-5.60059 3.59961 0 2 2.30078 3.60059 5.2002 3.60059 3 .299805 5.60059-1.2998 5.60059-3.60059zM134.8 55.0996c.700195 2 3.60059 3 6.2002 2.30078 3-.900391 4.90039-3.2002 4.2998-5.2002-.599609-2-3.59961-3-6.2002-2-3 .599609-5 2.89941-4.2998 4.89941zM179 56.7998c2.90039.299805 5.59961-1 5.90039-2.89941.299805-2-1.7002-3.90039-4.60059-4.60059-3-.700195-5.59961.600586-5.89941 2.60059-.300781 2.2998 1.69922 4.19922 4.59961 4.89941zM244.8 440c138.7 0 251.2-105.3 251.2-244 0-110.9-67.7998-205.8-167.8-239-12.7002-2.2998-17.2998 5.59961-17.2998 12.0996 0 8.2002.299805 49.9004.299805 83.6006 0 23.5-7.7998 38.5-17 46.3994 55.8994 6.30078 114.8 14 114.8 110.5 0 27.4004-9.7998 41.2002-25.7998 58.9004 2.59961 6.5 11.0996 33.2002-2.60059 67.9004-20.8994 6.59961-69-27-69-27-20 5.59961-41.5 8.5-62.7998 8.5s-42.7998-2.90039-62.7998-8.5c0 0-48.0996 33.5-69 27-13.7002-34.6006-5.2002-61.4004-2.59961-67.9004-16-17.5996-23.6006-31.4004-23.6006-58.9004 0-96.1992 56.4004-104.3 112.3-110.5-7.19922-6.59961-13.6992-17.6992-16-33.6992-14.2998-6.60059-51-17.7002-72.8994 20.8994-13.7002 23.7998-38.6006 25.7998-38.6006 25.7998-24.5.300781-1.59961-15.3994-1.59961-15.3994 16.4004-7.5 27.7998-36.6006 27.7998-36.6006 14.7002-44.7998 84.7002-29.7998 84.7002-29.7998 0-21 .299805-55.2002.299805-61.3994 0-6.5-4.5-14.4004-17.2998-12.1006-99.7002 33.4004-169.5 128.3-169.5 239.2 0 138.7 106.1 244 244.8 244zM97.2002 95.0996c1.2998 1.30078 3.59961.600586 5.2002-1 1.69922-1.89941 2-4.19922.699219-5.19922-1.2998-1.30078-3.59961-.600586-5.19922 1-1.7002 1.89941-2 4.19922-.700195 5.19922zM86.4004 103.2c.699219 1 2.2998 1.2998 4.2998.700195 2-1 3-2.60059 2.2998-3.90039-.700195-1.40039-2.7002-1.7002-4.2998-.700195-2 1-3 2.60059-2.2998 3.90039zM118.8 67.5996c1.2998 1.60059 4.2998 1.30078 6.5-1 2-1.89941 2.60059-4.89941 1.2998-6.19922-1.2998-1.60059-4.19922-1.30078-6.5 1-2.2998 1.89941-2.89941 4.89941-1.2998 6.19922zM107.4 82.2998c1.59961 1.2998 4.19922.299805 5.59961-2 1.59961-2.2998 1.59961-4.89941 0-6.2002-1.2998-1-4 0-5.59961 2.30078-1.60059 2.2998-1.60059 4.89941 0 5.89941z" glyph-name="github" horiz-adv-x="496" unicode="&#xf09b;"/><glyph d="M496 192c0-137-111-248-248-248-25.5996 0-50.2002 3.90039-73.4004 11.0996 10.1006 16.5 25.2002 43.5 30.8008 65 3 11.6006 15.3994 59 15.3994 59 8.10059-15.3994 31.7002-28.5 56.7998-28.5 74.8008 0 128.7 68.8008 128.7 154.301 0 81.8994-66.8994 143.199-152.899 143.199-107 0-163.9-71.7998-163.9-150.1 0-36.4004 19.4004-81.7002 50.2998-96.0996 4.7002-2.2002 7.2002-1.2002 8.2998 3.2998.800781 3.39941 5 20.2998 6.90039 28.0996.599609 2.5.299805 4.7002-1.7002 7.10059-10.0996 12.5-18.2998 35.2998-18.2998 56.5996 0 54.7002 41.4004 107.6 112 107.6 60.9004 0 103.6-41.5 103.6-100.899 0-67.1006-33.8994-113.601-78-113.601-24.2998 0-42.5996 20.1006-36.6992 44.8008 7 29.5 20.5 61.2998 20.5 82.5996 0 19-10.2002 34.9004-31.4004 34.9004-24.9004 0-44.9004-25.7002-44.9004-60.2002 0-22 7.40039-36.7998 7.40039-36.7998s-24.5-103.801-29-123.2c-5-21.4004-3-51.6006-.900391-71.2002-92.1992 36.0996-157.6 125.9-157.6 231 0 137 111 248 248 248s248-111 248-248z" glyph-name="pinterest" horiz-adv-x="496" unicode="&#xf0d2;"/><glyph d="M448 368v-352c0-26.5-21.5-48-48-48h-245.6c9.7998 16.4004 22.3994 40 27.3994 59.2998 3 11.5 15.2998 58.4004 15.2998 58.4004 8-15.2998 31.4004-28.2002 56.3008-28.2002 74.0996 0 127.399 68.0996 127.399 152.7 0 81.0996-66.2002 141.8-151.399 141.8-106 0-162.2-71.0996-162.2-148.6 0-36 19.2002-80.8008 49.7998-95.1006 4.7002-2.2002 7.09961-1.2002 8.2002 3.2998.799805 3.40039 5 20.1006 6.7998 27.8008.599609 2.5.299805 4.59961-1.7002 7-10.0996 12.2998-18.2998 34.8994-18.2998 56 0 54.1992 41 106.6 110.9 106.6 60.2998 0 102.6-41.0996 102.6-99.9004 0-66.3994-33.5-112.399-77.2002-112.399-24.0996 0-42.0996 19.8994-36.3994 44.3994 6.89941 29.2002 20.2998 60.7002 20.2998 81.8008 0 53-75.5 45.6992-75.5-25 0-21.7002 7.2998-36.5 7.2998-36.5-31.4004-132.801-36.0996-134.5-29.5996-192.601l2.19922-.799805h-88.5996c-26.5 0-48 21.5-48 48v352c0 26.5 21.5 48 48 48h352c26.5 0 48-21.5 48-48z" glyph-name="pinterest-square" unicode="&#xf0d3;"/><glyph d="M400 416c26.5 0 48-21.5 48-48v-352c0-26.5-21.5-48-48-48h-352c-26.5 0-48 21.5-48 48v352c0 26.5 21.5 48 48 48h352zM164 92c57.7002 0 96 40.5 96 97.5996 0 6.5-.599609 11.6006-1.59961 16.6006h-94.4004v-34.4004h56.9004c-2.40039-14.5996-17.2002-43.0996-56.8008-43.0996-34.0996 0-61.8994 28.2998-61.8994 63.2002 0 35 27.7998 63.1992 61.8994 63.1992 19.5 0 32.4004-8.2998 39.8008-15.3994l27.0996 26.0996c-17.5 16.4004-40 26.2002-67 26.2002-55.2998 0-100-44.7002-100-100s44.7002-100 100-100zM384 173.8v29.2002h-29v29h-29.2002v-29h-29v-29.2002h29v-29h29.2002v29h29z" glyph-name="google-plus-square" unicode="&#xf0d4;"/><glyph d="M386.061 219.504c1.83398-9.69238 3.14355-19.3838 3.14355-31.9561 0-109.753-73.6055-187.548-184.404-187.548-106.084 0-192 85.915-192 192s85.916 192 192 192c51.8643 0 95.083-18.8594 128.611-50.292l-52.126-50.0303c-14.1455 13.6211-39.0283 29.5996-76.4854 29.5996-65.4834 0-118.92-54.2217-118.92-121.277s53.4365-121.277 118.92-121.277c75.9609 0 104.514 54.7451 108.965 82.7734h-108.965v66.0088h181.261v-.00097656zM571.467 213.067h55.7334v-56.001h-55.7334v-55.7334h-56.001v55.7334h-55.7324v56.001h55.7324v55.7324h56.001v-55.7324z" glyph-name="google-plus-g" horiz-adv-x="640" unicode="&#xf0d5;"/><glyph d="M100.28 0h-92.8799v299.1h92.8799v-299.1zM53.79 339.9c-29.7002 0-53.79 24.5996-53.79 54.2998 0 29.6875 24.1025 53.79 53.79 53.79s53.79-24.1025 53.79-53.79c0-29.7002-24.0996-54.2998-53.79-54.2998zM447.9 0h-92.6807v145.6c0 34.7002-.700195 79.2002-48.29 79.2002-48.29 0-55.6895-37.7002-55.6895-76.7002v-148.1h-92.7803v299.1h89.0801v-40.7998h1.2998c12.4004 23.5 42.6904 48.2998 87.8799 48.2998 94 0 111.28-61.8994 111.28-142.3v-164.3h-.0996094z" glyph-name="linkedin-in" unicode="&#xf0e1;"/><glyph d="M186.1 119.3c0-20.8994-10.8994-55.0996-36.6992-55.0996-25.8008 0-36.7002 34.2002-36.7002 55.0996 0 20.9004 10.8994 55.1006 36.7002 55.1006 25.7998 0 36.6992-34.2002 36.6992-55.1006zM480 169.8c0-31.8994-3.2002-65.7002-17.5-95-37.9004-76.5996-142.1-74.7998-216.7-74.7998-75.7998 0-186.2-2.7002-225.6 74.7998-14.6006 29-20.2002 63.1006-20.2002 95 0 41.9004 13.9004 81.5 41.5 113.601-5.2002 15.7998-7.7002 32.3994-7.7002 48.7998 0 21.5 4.90039 32.2998 14.6006 51.7998 45.2998 0 74.2998-9 108.8-36 29 6.90039 58.7998 10 88.7002 10 27 0 54.1992-2.90039 80.3994-9.2002 34 26.7002 63 35.2002 107.8 35.2002 9.80078-19.5 14.6006-30.2998 14.6006-51.7998 0-16.4004-2.60059-32.7002-7.7002-48.2002 27.5-32.4004 39-72.2998 39-114.2zM415.7 119.3c0 43.9004-26.7002 82.6006-73.5 82.6006-18.9004 0-37-3.40039-56-6-14.9004-2.30078-29.7998-3.2002-45.1006-3.2002-15.1992 0-30.0996.899414-45.0996 3.2002-18.7002 2.59961-37 6-56 6-46.7998 0-73.5-38.7002-73.5-82.6006 0-87.7998 80.4004-101.3 150.4-101.3h48.1992c70.3008 0 150.601 13.4004 150.601 101.3zM333.1 174.4c25.8008 0 36.7002-34.2002 36.7002-55.1006 0-20.8994-10.8994-55.0996-36.7002-55.0996-25.7998 0-36.6992 34.2002-36.6992 55.0996 0 20.9004 10.8994 55.1006 36.6992 55.1006z" glyph-name="github-alt" horiz-adv-x="480" unicode="&#xf113;"/><glyph d="M461.1 5.2998h-97.3994l51.8994 242.7c2.30078 10.2002.900391 19.5-4.39941 25.7002-5 6.09961-13.7002 9.59961-24.2002 9.59961h-49.2998l-59.5-278h-97.4004l59.5 278h-83.3994l-59.5-278h-97.4004l59.5 278-44.5996 95.4004h372.1c39.4004 0 75.2998-16.2998 98.2998-44.9004 23.2998-28.5996 31.7998-67.3994 23.6006-105.899z" glyph-name="maxcdn" horiz-adv-x="512" unicode="&#xf136;"/><glyph d="M0 416h384l-34.9004-395.8-157.6-52.2002-156.6 52.2002zM308.2 288.1l4.39941 47.7002h-241.1l12.7998-145.6h166.9l-6-62.2002-53.7002-14.5-53.5 14.5-3.5 38.0996h-47.7002l6-75.7998 98.7002-27.2998h1.09961v.299805l97.9004 27 13.5996 148.4h-175.6l-4.09961 49.3994h183.8z" glyph-name="html5" horiz-adv-x="384" unicode="&#xf13b;"/><glyph d="M480 416l-64-368-223.3-80-192.7 80 19.5996 94.7998h82l-8-40.5996 116.4-44.4004 134.1 44.4004 18.8008 97.0996h-333.4l16 82h333.7l10.5 52.7002h-333.4l16.2998 82h407.4z" glyph-name="css3" horiz-adv-x="512" unicode="&#xf13c;"/><glyph d="M310.204 205.362c46.0059-11.0283 74.9971-38.4443 69.3262-99.8906-7.24805-76.5723-61.5967-97.0547-142.896-101.467v-68.0049h-48.5273v66.7451c-12.29 0-25.21 0-38.4443.314453v-67.0596h-48.5283v68.0049s-8.88867.31543-97.3701.31543l9.76758 57.666c34.7305-.614258 50.3301-3.4209 53.2549 16.0703v217.43c-4.60645 24.5664-24.709 22.1045-63.0234 21.4268v51.6777c58.748-.275391 79.5283-.539062 97.3701 0v79.4092h48.5283v-77.833c12.9189.31543 25.8389.629883 38.4443.629883v77.2031h48.5273v-79.4092c62.3926-5.35547 109.492-24.5781 114.851-81.9287 4.09668-41.9102-13.5508-67.1201-41.2803-81.2998zM150.608 313.447v-96.7402c27.416 0 113.126-6.30273 113.126 48.2119 0 57.0352-85.7109 48.5283-113.126 48.5283zM150.608 61.6709c32.7715 0 133.126-6.93262 133.127 53.2529 0 62.3936-100.355 53.2549-133.127 53.2549v-106.508z" glyph-name="btc" horiz-adv-x="384" unicode="&#xf15a;"/><glyph d="M549.655 323.917c11.4121-42.8672 11.4121-132.305 11.4121-132.305s0-89.4385-11.4121-132.306c-6.28125-23.6494-24.7871-41.5-48.2842-47.8203-42.5908-11.4863-213.371-11.4863-213.371-11.4863s-170.78 0-213.371 11.4863c-23.4971 6.32031-42.0029 24.1709-48.2842 47.8203-11.4121 42.8672-11.4121 132.306-11.4121 132.306s0 89.4375 11.4121 132.305c6.28125 23.6504 24.7871 42.2754 48.2842 48.5967 42.5908 11.4863 213.371 11.4863 213.371 11.4863s170.781 0 213.371-11.4863c23.4971-6.32031 42.0029-24.9463 48.2842-48.5967zM232.145 110.409l142.739 81.2012-142.739 81.2051v-162.406z" glyph-name="youtube" horiz-adv-x="576" unicode="&#xf167;"/><glyph d="M162.7 238c-1.7998-3.2998-25.2002-44.4004-70.1006-123.5-4.89941-8.2998-10.7998-12.5-17.6992-12.5h-65.1006c-7.7002 0-12.0996 7.5-8.5 14.4004l69 121.3c.200195 0 .200195.0996094 0 .299805l-43.8994 75.5996c-4.30078 7.80078.299805 14.1006 8.5 14.1006h65.0996c7.2998 0 13.2998-4.10059 18-12.2002zM382.6 401.9l-144-253v-.300781l91.6006-166.6c3.89941-7.09961.200195-14.0996-8.5-14.0996h-65.2002c-7.59961 0-13.5996 4-18 12.1992l-92.4004 168.5c3.30078 5.80078 51.5 90.8008 144.801 255.2 4.59961 8.10059 10.3994 12.2002 17.5 12.2002h65.6992c8 0 12.3008-6.7002 8.5-14.0996z" glyph-name="xing" horiz-adv-x="384" unicode="&#xf168;"/><glyph d="M400 416c26.5 0 48-21.5 48-48v-352c0-26.5-21.5-48-48-48h-352c-26.5 0-48 21.5-48 48v352c0 26.5 21.5 48 48 48h352zM140.4 127.8c4.89941 0 9.09961 2.90039 12.5996 9.10059 32.0996 56.5 48.7998 85.8994 50.0996 88.1992l-31.8994 55.3008c-3.40039 5.7998-7.7002 8.69922-12.9004 8.69922h-46.5996c-5.7998 0-9-4.5-6-10.0996l31.3994-54c.100586-.0996094.100586-.200195 0-.200195l-49.2998-86.7002c-2.7002-5 .5-10.2998 6-10.2998h46.6006zM360.1 341.9c2.80078 5.2998-.299805 10.0996-6 10h-46.8994c-5.10059 0-9.2002-2.90039-12.5-8.7002-66.6006-117.4-101.101-178.2-103.4-182.3l66-120.301c3.2002-5.7998 7.40039-8.69922 12.9004-8.69922h46.5996c6.10059 0 8.7998 5 6 10.0996l-65.5 119v.200195z" glyph-name="xing-square" unicode="&#xf169;"/><glyph d="M264.4 331.7l-132-84.2998 132-84.3008-132-84.2998-132.4 85.1006 132.3 84.2998-132.3 83.5 132.3 84.2998zM131.6 52.2998l132 84.2998 132-84.2998-132-84.2998zM264.4 163.9l132 84.2998-132 83.5996 131.3 84.2002 132.3-84.2998-132.3-84.2998 132.3-84.2002-132.3-84.2998z" glyph-name="dropbox" horiz-adv-x="528" unicode="&#xf16b;"/><glyph d="M290.7 137l-8.2002-39-195.7 41 8.2002 39.2998zM341.7 224l-25.5-30.7998-153.5 128.3 25.5 30.7998zM310.5 184.3l-16.7998-36.2998-181.2 84.5 16.7002 36.5zM262 416l119.3-160.3-32-24-119.3 160.3zM282.5 88v-39.7002h-200v39.7002h200zM322.2 8v120h40v-160h-359.5v160h40v-120h279.5z" glyph-name="stack-overflow" horiz-adv-x="384" unicode="&#xf16c;"/><glyph d="M224.1 307c63.6006 0 114.9-51.2998 114.9-114.9 0-63.5996-51.2998-114.899-114.9-114.899-63.5996 0-114.899 51.2998-114.899 114.899 0 63.6006 51.2998 114.9 114.899 114.9zM224.1 117.4c41.1006 0 74.7002 33.5 74.7002 74.6992 0 41.2002-33.5 74.7002-74.7002 74.7002-41.1992 0-74.6992-33.5-74.6992-74.7002 0-41.1992 33.5996-74.6992 74.6992-74.6992zM370.5 311.7c0-14.9004-12-26.7998-26.7998-26.7998-14.9004 0-26.7998 12-26.7998 26.7998s12 26.7998 26.7998 26.7998 26.7998-12 26.7998-26.7998zM446.6 284.5c2.10059-37 2.10059-147.8 0-184.8-1.7998-35.9004-10-67.7002-36.1992-93.9004-26.2002-26.2998-58-34.5-93.9004-36.2002-37-2.09961-147.9-2.09961-184.9 0-35.8994 1.80078-67.5996 10-93.8994 36.2002s-34.5 58-36.2002 93.9004c-2.09961 37-2.09961 147.899 0 184.899 1.7998 35.9004 9.90039 67.7002 36.2002 93.9004s58.0996 34.4004 93.8994 36.0996c37 2.10059 147.9 2.10059 184.9 0 35.9004-1.7998 67.7002-10 93.9004-36.1992 26.2998-26.2002 34.5-58 36.1992-93.9004zM398.8 60c11.7002 29.4004 9 99.5 9 132.1 0 32.6006 2.7002 102.601-9 132.101-7.89941 19.7002-23 34.7998-42.5996 42.5996-29.4004 11.6006-99.5 9-132.101 9-32.5996 0-102.6 2.7002-132.1-9-19.7002-7.89941-34.7998-23-42.5996-42.5996-11.6006-29.4004-9-99.5-9-132.101 0-32.5996-2.7002-102.6 9-132.1 7.89941-19.7002 23-34.7998 42.5996-42.5996 29.4004-11.6006 99.5-9 132.1-9 32.6006 0 102.601-2.7002 132.101 9 19.7002 7.89941 34.7998 23 42.5996 42.5996z" glyph-name="instagram" unicode="&#xf16d;"/><glyph d="M400 416c26.5 0 48-21.5 48-48v-352c0-26.5-21.5-48-48-48h-352c-26.5 0-48 21.5-48 48v352c0 26.5 21.5 48 48 48h352zM144.5 129c35.0996 0 63.5 28.4004 63.5 63.5s-28.4004 63.5-63.5 63.5-63.5-28.4004-63.5-63.5 28.4004-63.5 63.5-63.5zM303.5 129c35.0996 0 63.5 28.4004 63.5 63.5s-28.4004 63.5-63.5 63.5-63.5-28.4004-63.5-63.5 28.4004-63.5 63.5-63.5z" glyph-name="flickr" unicode="&#xf16e;"/><glyph d="M248 280.5l64.9004-98.7998h-129.801zM496 192c0-136.9-111.1-248-248-248s-248 111.1-248 248 111.1 248 248 248 248-111.1 248-248zM396.2 109.3l-148.2 223.2-148.2-223.2h30.4004l33.5996 51.7002h168.601l33.5996-51.7002h30.2002z" glyph-name="adn" horiz-adv-x="496" unicode="&#xf170;"/><glyph d="M22.2002 416l466.8-.200195c.954102-.0136719 1.875-.0800781 2.7998-.200195 7.58789-1.25 13.3994-7.83203 13.3994-15.7715 0-.860352-.0683594-1.7041-.199219-2.52832l-67.9004-416.8c-1.24902-7.58887-7.84277-13.4014-15.7832-13.4014-.0722656 0-.144531 0-.216797.00097656h-325.699c-10.7129.0869141-19.5967 7.94727-21.3008 18.2002l-67.8994 412.101c-.116211.924805-.182617 1.84668-.200195 2.7998.108398 8.7373 7.23242 15.8008 15.9951 15.8008.0683594 0 .136719 0 .205078-.00097656zM308.1 118.2l25.2002 147h-157.3l28.0996-147h104z" glyph-name="bitbucket" horiz-adv-x="512" unicode="&#xf171;"/><glyph d="M309.8-32.2998c-13.5996-14.5-50-31.7002-97.3994-31.7002-120.801 0-147 88.7998-147 140.6v144h-47.5c-5.5 0-10 4.5-10 10v68c0 7.2002 4.5 13.6006 11.2998 16 62 21.8008 81.5 76 84.2998 117.101.799805 11 6.5 16.2998 16.0996 16.2998h70.9004c5.5 0 10-4.5 10-10v-115.2h83c5.5 0 10-4.39941 10-9.89941v-81.7002c0-5.5-4.5-10-10-10h-83.4004v-133.2c0-34.2002 23.7002-53.5996 68-35.7998 4.80078 1.89941 9 3.2002 12.7002 2.2002 3.5-.900391 5.7998-3.40039 7.40039-7.90039l22-64.2998c1.7998-5 3.2998-10.6006-.400391-14.5z" glyph-name="tumblr" horiz-adv-x="320" unicode="&#xf173;"/><glyph d="M400 416c26.5 0 48-21.5 48-48v-352c0-26.5-21.5-48-48-48h-352c-26.5 0-48 21.5-48 48v352c0 26.5 21.5 48 48 48h352zM317.7 51.7998c2.2998 2.40039 1.2998 5.90039.299805 9.10059l-13.7998 40.1992c-1 2.80078-2.40039 4.40039-4.60059 4.90039-2.39941.599609-5-.200195-8-1.40039-27.6992-11.0996-42.5 1-42.5 22.4004v83.2998h52.1006c3.39941 0 6.2002 2.7998 6.2002 6.2002v51.0996c0 3.40039-2.80078 6.2002-6.2002 6.2002h-51.9004v72c0 3.40039-2.7998 6.2002-6.2002 6.2002h-44.2998c-5.89941 0-9.5-3.2998-10-10.2002-1.7998-25.7002-13.8994-59.5-52.7002-73.2002-4.2998-1.5-7.09961-5.5-7.09961-10v-42.5c0-3.39941 2.7998-6.19922 6.2002-6.19922h29.7002v-90c0-32.4004 16.3994-87.9004 91.8994-87.9004 29.7002 0 52.4004 10.7002 60.9004 19.7998z" glyph-name="tumblr-square" unicode="&#xf174;"/><glyph d="M318.7 179.3c0-1.89941-3.5-61.2002 61.7002-91.8994-12.2002-36.8008-54-118.601-102.601-119.301-28.0996 0-44.5996 17.9004-76.3994 17.9004-32.8008 0-50.6006-17.2998-75.8008-17.9004-48.1992-1.5-94.3994 88.5-107.199 125.2-9.60059 27.9336-14.4004 55-14.4004 81.2002 0 88.7002 59.2998 132.3 115.1 133.2 27 0 61.4004-19.7002 76.4004-19.7002 14.2002 0 53 23.5 88.5 20.7002 37.5-2.90039 65.9004-17.7002 84.7002-44.6006-33.6006-20.3994-50.2002-48.0996-50-84.7998zM262.1 343.5c-19.5996-22.9004-43.3994-36.2998-69.5-34.2998-2.19922 27.5996 8.10059 52.0996 25.6006 71.8994 15.8994 18.5 43.7998 33.5 67.8994 34.9004.800781-10.5996 3.30078-40.0996-24-72.5z" glyph-name="apple" horiz-adv-x="384" unicode="&#xf179;"/><glyph d="M0 354.3l183.6 25.2998v-177.399h-183.6v152.1zM0 29.7002v149.899h183.6v-175.199zM203.8 1.7002v177.899h244.2v-211.6zM203.8 382.3l244.2 33.7002v-213.8h-244.2v180.1z" glyph-name="windows" unicode="&#xf17a;"/><glyph d="M420.55 146.07c-13.2461 0-24 10.7539-24 24s10.7539 24 24 24 24-10.7539 24-24-10.7539-24-24-24zM155.45 146.07c-13.2461 0-24 10.7539-24 24s10.7539 24 24 24 24-10.7539 24-24-10.7539-24-24-24zM429.15 290.55l47.9395 83c1.06738 1.59082 1.69043 3.50391 1.69043 5.5625 0 5.51855-4.48047 10-10 10-3.93359 0-7.32812-2.25684-8.95996-5.5625v0l-48.54-84.0693c-37.5742 16.8516-79.2197 26.2266-123.037 26.2266-43.8164 0-85.9492-9.375-123.523-26.2266l-48.54 84.0693c-1.63184 3.30566-5.03809 5.58203-8.97168 5.58203-5.51953 0-10-4.48145-10-10 0-2.05859.634766-3.99121 1.70215-5.58203v0l47.9395-83c-82.3193-44.7695-138.609-128.1-146.85-226.55h576c-8.24023 98.4502-64.54 181.78-146.85 226.55z" glyph-name="android" horiz-adv-x="576" unicode="&#xf17b;"/><glyph d="M220.8 324.7c-1.09961.599609-3.09961.399414-3.39941 1.7002-.200195.399414.199219.899414.599609 1.09961 1.59961.900391 3.7998.599609 5.5-.0996094 1.2998-.600586 3.40039-1.5 3.2002-2.90039-.100586-1.09961-1.7998-1.5-2.90039-1.5-1.2002 0-2 1.2002-3 1.7002zM198.9 323c-1-.0996094-2.7002.400391-2.80078 1.40039-.199219 1.39941 1.90039 2.2998 3.2002 2.89941 1.7002.700195 3.90039 1 5.5.100586.400391-.200195.799805-.700195.600586-1.10059-.400391-1.2002-2.40039-1-3.5-1.59961-1-.5-1.80078-1.7002-3-1.7002zM420 44.2002c11.0996-12.4004 15.9004-21.5 15.5-29.7002-.5-8.2002-6.5-13.7998-13.9004-18.2998-14.8994-9-37.2998-15.7998-50.8994-32.2002-14.2002-16.9004-31.7002-26.5996-48.2998-27.9004-16.5-1.2998-32 6.30078-40.3008 23v.100586c-1.09961 2.09961-1.89941 4.39941-2.5 6.7002-21.5-1.2002-40.1992 5.2998-55.0996 4.09961-22-1.2002-35.7998-6.5-48.2998-6.59961-4.7998-10.6006-14.2998-17.6006-25.9004-20.2002-16-3.7002-36.0996 0-55.8994 10.3994-18.5 9.80078-42 8.90039-59.3008 12.5-8.69922 1.80078-16.2998 5-20.0996 12.3008-3.7002 7.2998-3 17.2998 2.2002 31.6992 1.7002 5.10059.399414 12.7002-.799805 20.8008-.600586 3.89941-1.2002 7.89941-1.2002 11.7998 0 4.2998.700195 8.5 2.7998 12.3994 4.5 8.5 11.7998 12.1006 18.5 14.5 6.7002 2.40039 12.7998 4 17 8.30078 5.2002 5.5 10.0996 14.3994 16.5996 20.1992-2.59961 17.2002.200195 35.4004 6.2002 53.3008 12.6006 37.8994 39.2002 74.1992 58.1006 96.6992 16.0996 22.9004 20.7998 41.3008 22.5 64.7002 1.09961 31.7998-24.5 135.4 77.8994 135.2 80.9004-.0996094 76.2998-85.4004 75.7998-131.3-.299805-30.1006 16.3008-50.5 33.4004-72 15.2002-18 35.0996-44.2998 46.5-74.4004 9.2998-24.5996 12.9004-51.7998 3.7002-79.0996 1.39941-.5 2.7998-1.2002 4.09961-2 1.40039-.799805 2.7002-1.7998 4-2.90039 6.60059-5.59961 8.7002-14.2998 10.5-22.3994 1.90039-8.10059 3.60059-15.7002 7.2002-19.7002zM223.7 360.7c-3.2002-7.2002-3.90039-14.9004-2.90039-21.7998 3.60059-.900391 8.90039-2.40039 13-4.40039-2.09961 12.2002 4.5 23.5 11.7998 23 8.90039-.299805 13.9004-15.5 9.10059-27.2998-.799805-1.90039-2.7998-3.40039-3.90039-4.60059 6.7002-2.2998 11-4.09961 12.6006-4.89941 7.89941 9.5 10.7998 26.2002 4.2998 40.3994-9.7998 21.4004-34.2002 21.8008-44-.399414zM183 372.2c-18.9004 0-24-37.5-8.40039-52.1006 7.80078 5.7002 6.90039 4.7002 5.90039 5.5-8 6.90039-6.59961 27.4004 1.7998 28.1006 6.2998.5 10.7998-10.7002 9.60059-19.6006 3.09961 2.10059 6.69922 3.60059 10.1992 4.60059 1.7002 19.2998-9 33.5-19.0996 33.5zM169.4 311.5c-4.2002-3.2998-5.60059-7.40039-4.2002-12.2998 1.5-4.90039 6.09961-10.5 14.7002-15.2998 7.7998-4.60059 12-11.5 20-15 2.59961-1.10059 5.69922-1.90039 9.59961-2.10059 18.4004-1.09961 27.0996 11.2998 38.2002 14.9004 11.7002 3.7002 20.0996 11 22.7002 18.0996 3.19922 8.5-2.10059 14.7002-10.5 18.2002-11.3008 4.90039-16.3008 5.2002-22.6006 9.2998-10.2998 6.60059-18.7998 8.90039-25.8994 8.90039-14.4004 0-23.2002-9.7998-27.9004-14.2002-.5-.5-7.90039-5.90039-14.0996-10.5zM172.7-22.5c2.09961 20.5-31.5 49-41 68.9004l-19.6006 35.5996c-6.7998 9.2002-13.7998 14.7998-21.8994 16-7.7002 1.2002-12.6006-1.40039-17.7002-6.90039-4.7998-5.09961-8.7998-12.2998-14.2998-18-7.7998-6.5-9.2998-6.19922-19.6006-9.89941-6.2998-2.2002-11.2998-4.60059-14.7998-11.2998-2.7002-5-2.09961-12.2002-.899414-20 1.19922-7.90039 3-16.3008.599609-23.9004v-.200195c-5-13.7002-5-21.7002-2.59961-26.3994 7.89941-15.4004 46.5996-6.10059 76.5-21.9004 31.3994-16.4004 72.5996-17.0996 75.2998 18zM171.3 3.40039c37.6006-25.7002 82.2002-15.7002 114.3 7.19922 3.2002 11 6.30078 21.3008 6.80078 29 .799805 15.2002 1.59961 28.7002 4.39941 39.9004 3.10059 12.5996 9.2998 23.0996 21.4004 27.2998 2.2998 21.1006 18.7002 21.1006 38.2998 12.5 18.9004-8.5 26-16 22.7998-26.0996 1 0 2 .0996094 4.2002 0 5.2002 16.8994-14.2998 28-30.7002 34.7998 2.90039 12 2.40039 24.0996-.399414 35.7002-6 25.2998-22.6006 47.7998-35.2002 59-2.2998.0996094-2.10059-1.90039 2.59961-6.5 11.6006-10.7002 37.1006-49.2002 23.2998-84.9004-3.89941 1-7.59961 1.5-10.8994 1.40039-5.2998 29.0996-17.5 53.2002-23.6006 64.5996-11.5 21.4004-29.5 65.2998-37.1992 95.7002-4.5-6.40039-12.4004-11.9004-22.3008-15-4.69922-1.5-9.69922-5.5-15.8994-9-13.9004-8-30-8.7998-42.4004 1.2002-4.5 3.59961-8 7.59961-12.5996 10.2998-1.60059.900391-5.10059 3.2998-6.2002 4.09961-2-37.7998-27.2998-85.2998-39.2998-112.699-8.2998-19.7002-13.2002-40.8008-13.7998-61.5-21.8008 29.0996-5.90039 66.2998 2.59961 82.3994 9.5 17.6006 11 22.5 8.7002 20.7998-8.60059-14-22-36.2998-27.2002-59.1992-2.7002-11.9004-3.2002-24 .299805-35.2002s11.1006-21.5 24.6006-29.9004c0 0 24.7998-14.2998 38.2998-32.5 7.39941-10 9.7002-18.7002 7.39941-24.8994-2.5-6.7002-9.59961-8.90039-16.6992-8.90039 4.7998-6 10.2998-13 14.3994-19.5996zM428.7 14.9004c.299805 5.09961-3.10059 13-13.7002 24.5996-10 11.2998-7.2002 33.0996-17.0996 41.5996-6.90039 6-13.6006 5.40039-22.6006 5.10059-7.7002-8.7998-25.7998-19.6006-38.3994-16.2998-11.5 2.89941-18 16.2998-18.8008 29.5-.299805-.200195-.699219-.300781-1-.5-7.09961-3.90039-11.0996-10.8008-13.6992-21.1006-2.5-10.2002-3.40039-23.5-4.2002-38.7002-.700195-11.7998-6.2002-26.3994-9.90039-40.5996-3.5-13.2002-5.7998-25.2002-1.09961-36.2998 7.2002-14.5 19.5-20.4004 33.7002-19.2998 14.1992 1.09961 30.3994 9.7998 43.5996 25.5 22 26.5996 62.2998 29.6992 63.2002 46.5zM173.3 299.3c-3.5 2.7998-3.09961 6.60059-1.7002 6.5 2.40039-.299805 2.80078-3.5 4.30078-4.89941 2-1.90039 4.59961-4.40039 7.69922-6.90039 6.2002-4.90039 14.5-9.7002 24.9004-9.7002s22.5 6 29.9004 10.2002c4.19922 2.40039 9.5 6.59961 13.8994 9.7998 3.40039 2.5 3.2002 5.40039 6 5.10059 2.7998-.300781.799805-3.2002-3.09961-6.60059-3.90039-3.39941-9.90039-7.7998-14.7998-10.3994-9.30078-4.90039-20.2002-10.8008-31.8008-10.8008-11.5 0-20.6992 5.40039-27.2998 10.6006-3.2998 2.59961-6 5.2002-8 7.09961z" glyph-name="linux" unicode="&#xf17c;"/><glyph d="M256 440c136.748 0 248-111.252 248-248s-111.252-248-248-248-248 111.252-248 248 111.252 248 248 248zM419.97 325.634c-4.46582-6.04102-39.9629-51.5459-118.284-83.5225 7.43652-15.2217 12.8652-27.5732 18.6172-41.6143 70.4844 8.86426 140.519-5.34082 147.502-6.81836-.46582 49.998-18.332 95.9092-47.835 131.955zM396.421 350.13c-52.0947 46.2188-122.885 63.6816-190.061 47.4893 5.85449-7.83984 44.3281-60.2324 79.04-124.008 75.3232 28.2324 107.211 71.0918 111.021 76.5186zM165.941 383.38c-59.2637-27.9531-103.562-82.585-117.298-148.318 9.47461-.125 96.7471-.503906 195.834 25.8096-35.0986 62.3926-72.9512 114.85-78.5361 122.509zM44.1699 191.677c0-54.4072 20.624-104.082 54.457-141.636 34.3369 58.7793 103.932 120.731 180.531 142.306-5.31738 12.0342-11.1104 24.0811-17.1738 35.9492-105.786-31.6592-208.438-30.3359-217.706-30.1455-.0654297-2.15137-.108398-4.30762-.108398-6.47363zM125.977 24.5645c62.7539-48.9355 144.656-56.8955 212.769-27.8828-3.15039 18.585-15.4492 83.3555-45.1895 160.639-85.4004-29.1348-145.452-87.5234-167.579-132.756zM374.357 16.0752c47.5215 32.1338 81.3525 83.0371 90.7949 141.978-7.24707 2.28711-65.5674 19.6816-131.947 9.05566 27.7061-76.1367 38.9805-138.147 41.1523-151.033z" glyph-name="dribbble" horiz-adv-x="512" unicode="&#xf17d;"/><glyph d="M424.7 148.2c14.5996-18.9004 23.2998-42.5 23.2002-68.1006 0-61.7998-50.2002-112-112-112-25.6006 0-49.2002 8.7002-68.2002 23.3008-14.1006-3-28.9004-4.7002-43.7998-4.7002-113.4 0-205.301 91.7998-205.301 205.3 0 14.9004 1.80078 29.7998 4.7002 43.7998-14.5996 18.9004-23.2998 42.5-23.2998 68.2002 0 61.7998 50.2002 112 112 112 25.7002 0 49.2998-8.7002 68.2998-23.4004 14.1006 3 28.9004 4.7002 43.7998 4.7002 113.4 0 205.301-91.7998 205.301-205.3 0-14.9004-1.80078-29.7998-4.7002-43.7998zM230.1 56.7002c54.9004 0 112 27.3994 112 86.5 0 50.7998-49.2998 68.2998-90.6992 77.5996-48.3008 11.2002-69.1006 13.2002-69.1006 33 0 15.5 16.2998 22.5 42 22.5 45.7998 0 46.7002-33.5 75-33.5 18.9004 0 30.2998 14.9004 30.2998 31.7998 0 33.5-55.6992 55.4004-110.8 55.4004-50.5 0-109.1-21.9004-109.1-81.0996 0-65.2002 55.2998-71.8008 117.8-87.2002 26-6.40039 42-9.2998 42-28 0-14.9004-16.5996-26.2998-42.2998-26.2998-54 0-56.9004 44.8994-88.1006 44.8994-20.5 0-29.5-14.5996-29.5-30.5996 0-35.7998 54.9004-65 120.5-65z" glyph-name="skype" unicode="&#xf17e;"/><glyph d="M323.1 445c40 0 50.7002-22.7998 42.2002-65.2002l-48.5996-243c-3.7002-14.5-9.2002-39.7002-44.2998-39.7002h-83.4004c-3.40039 0-3.7002.300781-6.7998-3.09961 0 0-2.2002-2.5-131.101-151.9-10.0996-11.6992-26.6992-9.59961-32.8994-7.09961-6.10059 2.40039-18.2002 9.7998-18.2002 30.0996v433.801c0 17.7998 12.4004 46.0996 49.9004 46.0996h273.199zM306.8 371.2c2.10059 9.7998-5.2998 17.5-13.5 17.5h-219c-9.7998 0-16.5996-8.90039-16.5996-16.6006v-338.8c0-.899414.899414-1.2002 1.7998-.299805 80.5996 96.9004 89.5 108.3 89.5 108.3 9.2998 10.7998 13 12.6006 26.5 12.6006h73.5c10.0996 0 16 8.59961 16.9004 13.5.899414 5 9.59961 49.8994 11.3994 58.7998 1.7998 9-6.5 18.2002-14.7998 18.2002h-90.4004c-12 0-20.5996 8.59961-20.5996 20.5996v13c0 12 8.59961 20.2998 20.5996 20.2998h106.4c7.40039 0 15.7002 6.7002 16.9004 13.2002z" glyph-name="foursquare" horiz-adv-x="368" unicode="&#xf180;"/><glyph d="M392.3 416c30.7998-.200195 55.7002-25.2002 55.6006-56v-336c0-30.7998-24.9004-55.7998-55.7002-56h-336.2c-30.9004 0-56 25.0996-56 56 0 340-.0996094 336 0 336 0 30.9004 25.0996 56 56.0996 56h336.2zM197 76.7002h.0996094v254.2c0 14.8994-12.0996 26.8994-26.8994 26.8994h-82.9004c-14.8994 0-26.8994-12.0996-26.8994-26.8994v-254.2c.0996094-14.7998 12.1992-26.7002 27-26.6006h82.6992c14.8008 0 26.7002 11.9004 26.9004 26.6006zM390.1 188.7v142.1c0 14.9004-12.0996 26.9004-26.8994 26.9004h-81.1006c-14.7998 0-26.7998-12.1006-26.7998-26.9004v-142.1c0-14.9004 12.1006-26.9004 26.9004-26.9004h81c14.8994 0 26.8994 12.1006 26.8994 26.9004z" glyph-name="trello" unicode="&#xf181;"/><glyph d="M248 440c136.9 0 248-111.1 248-248s-111.1-248-248-248-248 111.1-248 248 111.1 248 248 248zM362.6 213.6c8.80078 12 19.1006 50.4004-13.7998 72-27.7002 18.1006-54.2002 4.2002-68.0996-11.8994-15.1006-16.9004-45.7998-17.9004-61.7002 0-13.9004 16.0996-40.4004 30-68.5 11.8994-32.7002-21.5996-22.2998-60.0996-13.5996-72l112.699-152.699z" glyph-name="gratipay" horiz-adv-x="496" unicode="&#xf184;"/><glyph d="M545 330.3c-7.40039-34.2998-79.2998-135.5-79.4004-135.6-6.19922-10-8.69922-15 0-26.2002 3.40039-4.7998 79.1006-76.5996 90.3008-111.5 4.89941-16.5996-3.60059-25-20.4004-25h-58.9004c-22.3994 0-29 17.9004-69 57.9004-35 33.6992-50 38.0996-58.6992 38.0996-18.8008 0-15.4004-6.2998-15.4004-73.0996 0-14.5-4.59961-22.9004-42.0996-22.9004-62.4004 0-131 37.9004-179.7 107.8-73.1006 102.4-93.1006 179.9-93.1006 195.5 0 8.7998 3.40039 16.7002 20.2002 16.7002h58.9004c15.0996 0 20.7998-6.59961 26.5996-22.9004 28.7998-84 77.4004-157.399 97.4004-157.399 7.5 0 10.8994 3.5 10.8994 22.5v86.7998c-2.19922 40-23.3994 43.2998-23.3994 57.5 0 6.5 5.59961 13.5 15 13.5h92.5996c12.4004 0 16.6006-6.7002 16.6006-21.7002v-116.7c0-12.5 5.69922-16.8994 9.39941-16.8994 7.5 0 13.7998 4.39941 27.5 18.0996 42.4004 47.4004 72.4004 120.5 72.4004 120.5 3.7002 8.7998 10.5996 16.7002 25.5996 16.7002h58.9004c17.7998 0 21.5-9.2002 17.7998-21.7002z" glyph-name="vk" horiz-adv-x="576" unicode="&#xf189;"/><glyph d="M407 270.4c7.59961 24-13.4004 46.7998-37.4004 41.6992-22-4.7998-28.7998 28.1006-7.09961 32.8008 50.0996 10.8994 92.2998-37.1006 76.5-84.8008-6.7998-21.1992-38.7998-10.7998-32 10.3008zM214.8 1.2998c-106.3 0-214.8 51.4004-214.8 136.3 0 44.3008 28 95.4004 76.2998 143.7 99.7002 99.7002 203.2 100.9 173.601 5.7002-4-13.0996 12.2998-5.7002 12.2998-6 79.5 33.5996 140.5 16.7998 114-51.4004-3.7002-9.39941 1.09961-10.8994 8.2998-13.0996 135.7-42.2998 34.7998-215.2-169.7-215.2zM358.5 147.6c-5.40039 55.7002-78.5 94-163.4 85.7002-84.7998-8.59961-148.8-60.2998-143.399-116 5.39941-55.7002 78.5-94 163.399-85.7002 84.8008 8.60059 148.801 60.3008 143.4 116zM347.9 412.9c102.3 21.5996 189.3-74.5 157.399-174.301-8.2998-25-44.7998-12.1992-37.3994 12 23.0996 71.2002-39.4004 139.2-111.7 124-25.1006-5.39941-34.2002 32.7002-8.2998 38.3008zM269.4 101.9c-17.1006-38.8008-66.8008-60-109.101-46.3008-40.7998 13.1006-58 53.4004-40.2998 89.7002 17.7002 35.4004 63.0996 55.4004 103.4 45.1006 42-10.8008 63.0996-50.2002 46-88.5zM183.1 131.9c-12.8994 5.39941-30-.300781-38-12.9004-8.2998-12.9004-4.2998-28 8.60059-34 13.0996-6 30.7998-.299805 39.0996 12.9004 8 13.0996 3.7002 28.2998-9.7002 34zM215.7 145.3c-5.10059 1.7002-11.4004-.599609-14.2998-5.39941-2.90039-5.10059-1.40039-10.6006 3.69922-12.9004 5.10059-2 11.7002.299805 14.6006 5.40039 2.7998 5.19922 1.09961 10.8994-4 12.8994z" glyph-name="weibo" horiz-adv-x="512" unicode="&#xf18a;"/><glyph d="M214 278.9c0-110.4-61-205.4-147.6-247.4-36.4004 43.2998-58.4004 98.7998-58.4004 159.9 0 122.699 89.0996 224.399 206 244.1v-156.6zM255-56c-42.9004 0-83.2998 11-118.5 30.4004 57.2002 36.0996 103.4 90.6992 118.5 154.6 15.5-63.9004 61.7002-118.5 118.8-154.7-35.0996-19.2998-75.5-30.2998-118.8-30.2998zM445.6 31.5c-86.5996 42-147.6 136.9-147.6 247.4v156.6c116.9-19.7002 206-121.4 206-244.1 0-61.1006-22-116.601-58.4004-159.9z" glyph-name="renren" horiz-adv-x="512" unicode="&#xf18b;"/><glyph d="M384 135.3c-55.0996-136.7-187.1-54-187.1-54-40.5-81.7998-107.4-134.399-184.601-134.7-16.0996 0-16.5996 24.4004 0 24.4004 64.4004.299805 120.5 42.7002 157.2 110.1-41.0996-15.8994-118.6-27.8994-161.6 82.2002 109 44.9004 159.1-11.2002 178.3-45.5 9.89941 24.4004 17 50.9004 21.5996 79.7002 0 0-139.7-21.9004-149.5 98.0996 119.101 47.9004 152.601-76.6992 152.601-76.6992 1.59961 16.6992 3.2998 52.5996 3.2998 53.3994 0 0-106.3 73.7002-38.1006 165.2 124.601-43 61.4004-162.4 61.4004-162.4.5-1.59961.5-23.7998 0-33.3994 0 0 45.2002 89 136.4 57.5-4.2002-134-141.9-106.4-141.9-106.4-4.40039-27.3994-11.2002-53.3994-20-77.5 0 0 83 91.7998 172 20z" glyph-name="pagelines" horiz-adv-x="384" unicode="&#xf18c;"/><glyph d="M17.7002 115.7h412.7v-22c0-37.7002-29.3008-68-65.3008-68h-19l-86.7998-89.7002v89.7002h-176.3c-36 0-65.2998 30.2998-65.2998 68v22zM17.7002 139.3v85h412.7v-85h-412.7zM17.7002 248.7v85h412.7v-85h-412.7zM365 448c36 0 65.2998-30.2998 65.4004-67.7002v-22.2998h-412.7v22.2998c0 37.4004 29.2998 67.7002 65.2998 67.7002h282z" glyph-name="stack-exchange" unicode="&#xf18d;"/><glyph d="M400 416c26.5 0 48-21.5 48-48v-352c0-26.5-21.5-48-48-48h-352c-26.5 0-48 21.5-48 48v352c0 26.5 21.5 48 48 48h352zM383.8 266.4c1.90039 41.5996-13.5996 63-46.5 64-44.2998 1.39941-74.3994-23.6006-90.0996-75.1006 19.5996 8.40039 48.5996 10.6006 45.2002-22.2002-.900391-11.0996-8.10059-27.0996-21.5-48.2998-37.2002-58.7002-46.3008-39.0996-66.8008 90.5-5.7998 36.5-21.0996 53.5-46 51.1006-22-2-57.1992-38-94.0996-70.4004l15-19.4004c14.2998 10.1006 22.7002 15.1006 25.0996 15.1006 20.8008 0 31.5-54.1006 56.7002-146.4 12.9004-34.3994 28.6006-51.5996 47.2998-51.5996 30.1006 0 66.9004 28.2998 110.4 84.7998 42.0996 54.0996 63.9004 96.7998 65.2998 127.9z" glyph-name="vimeo-square" unicode="&#xf194;"/><glyph d="M94.1201 132.9c0-25.9004-21.1602-47.0605-47.0605-47.0605-25.8994 0-47.0596 21.1602-47.0596 47.0605 0 25.8994 21.1602 47.0596 47.0596 47.0596h47.0605v-47.0596zM117.84 132.9c0 25.8994 21.1602 47.0596 47.0605 47.0596 25.8994 0 47.0596-21.1602 47.0596-47.0596v-117.841c0-25.8994-21.1602-47.0596-47.0596-47.0596-25.9004 0-47.0605 21.1602-47.0605 47.0596v117.841zM164.9 321.88c-25.9004 0-47.0605 21.1602-47.0605 47.0605 0 25.8994 21.1602 47.0596 47.0605 47.0596 25.8994 0 47.0596-21.1602 47.0596-47.0596v-47.0605h-47.0596zM164.9 298.16c25.8994 0 47.0596-21.1602 47.0596-47.0605 0-25.8994-21.1602-47.0596-47.0596-47.0596h-117.841c-25.8994 0-47.0596 21.1602-47.0596 47.0596 0 25.9004 21.1602 47.0605 47.0596 47.0605h117.841zM353.88 251.1c0 25.9004 21.1602 47.0605 47.0605 47.0605 25.8994 0 47.0596-21.1602 47.0596-47.0605 0-25.8994-21.1602-47.0596-47.0596-47.0596h-47.0605v47.0596zM330.16 251.1c0-25.8994-21.1602-47.0596-47.0605-47.0596-25.8994 0-47.0596 21.1602-47.0596 47.0596v117.841c0 25.8994 21.1602 47.0596 47.0596 47.0596 25.9004 0 47.0605-21.1602 47.0605-47.0596v-117.841zM283.1 62.1201c25.9004 0 47.0605-21.1602 47.0605-47.0605 0-25.8994-21.1602-47.0596-47.0605-47.0596-25.8994 0-47.0596 21.1602-47.0596 47.0596v47.0605h47.0596zM283.1 85.8398c-25.8994 0-47.0596 21.1602-47.0596 47.0605 0 25.8994 21.1602 47.0596 47.0596 47.0596h117.841c25.8994 0 47.0596-21.1602 47.0596-47.0596 0-25.9004-21.1602-47.0605-47.0596-47.0605h-117.841z" glyph-name="slack" unicode="&#xf198;"/><glyph d="M61.7002 278.6l101.5-278c-71 34.4004-119.9 107.2-119.9 191.4 0 30.9004 6.60059 60.0996 18.4004 86.5996zM399.6 202.7c0-18.2002-7-39.2998-16-68.7002l-21.1992-70.9004-76.9004 228.7c12.7998.700195 24.2998 2 24.2998 2 11.4004 1.2998 10.1006 18.2002-1.39941 17.5 0 0-34.5-2.7002-56.7002-2.7002-20.9004 0-56 2.7002-56 2.7002-11.4004.700195-12.7998-16.7998-1.2998-17.5 0 0 10.7998-1.2998 22.2998-2l33.0996-90.7998-46.5996-139.6-77.5 230.399c12.7998.700195 24.2998 2 24.2998 2 11.4004 1.2998 10.0996 18.2002-1.40039 17.5 0 0-34.5-2.7002-56.6992-2.7002-4 0-8.7002.100586-13.7002.300781 38.0996 57.7998 103.5 95.8994 177.8 95.8994 55.4004 0 105.8-21.2002 143.7-55.8994-1 .0996094-1.90039.199219-2.7998.199219-20.9004 0-35.7002-18.1992-35.7002-37.7998 0-17.5 10.0996-32.3994 20.8994-49.8994 8.10059-14.2002 17.5-32.4004 17.5-58.7002zM259.7 173.4l65.3994-179.2c.400391-1 .900391-2 1.5-2.90039-22.0996-7.7998-45.7998-12.0996-70.5996-12.0996-20.9004 0-41 3.09961-60.0996 8.7002zM442.7 294.1c16.5996-30.2998 26-65.0996 26-102.1 0-78.5-42.5-147-105.8-183.9l65 187.9c12.1992 30.4004 16.1992 54.5996 16.1992 76.2002 0 7.89941-.5 15.0996-1.39941 21.8994zM504 192c0-136.8-111.3-248-248-248-136.8 0-248 111.3-248 248 0 136.8 111.2 248 248 248 136.7 0 248-111.2 248-248zM492.6 192c0 130.5-106.199 236.6-236.6 236.6-130.5 0-236.6-106.1-236.6-236.6s106.199-236.6 236.6-236.6c130.5 0 236.6 106.1 236.6 236.6z" glyph-name="wordpress" horiz-adv-x="512" unicode="&#xf19a;"/><glyph d="M271.5 16l-68-32c-115 10.2998-203.5 71.5-203.5 145.8 0 71.5 82.5 131 191.7 144.3v-43c-71.5-12.5-124-53-124-101.3 0-51 58.5-93.2998 135.7-103v340l68 33.2002v-384h.0996094zM448 157l-131.3 28.5 36.7998 20.7002c-19.5 11.5-43.5 20-70 24.7998v43c46.2002-5.5 87.7002-19.5 120.3-39.2998l35 19.7998z" glyph-name="openid" unicode="&#xf19b;"/><glyph d="M223.69 306.94h93.5791l-140.909-338.94h-94.1699l38.5693 89.8096-105.83 249.131h96.0703l56-143.171zM329.09 171.15c32.1328 0 58.2197-26.0879 58.2197-58.2207 0-32.1318-26.0869-58.2197-58.2197-58.2197s-58.2197 26.0879-58.2197 58.2197c0 32.1328 26.0869 58.2207 58.2197 58.2207zM394.65 416h104.42l-92.6299-223.47h-104.79z" glyph-name="yahoo" horiz-adv-x="512" unicode="&#xf19e;"/><glyph d="M488 186.2c0-141.5-96.9004-242.2-240-242.2-137.2 0-248 110.8-248 248s110.8 248 248 248c66.7998 0 123-24.5 166.3-64.9004l-67.5-64.8994c-88.2998 85.2002-252.5 21.2002-252.5-118.2 0-86.5 69.1006-156.6 153.7-156.6 98.2002 0 135 70.3994 140.8 106.899h-140.8v85.2998h236.1c2.30078-12.6992 3.90039-24.8994 3.90039-41.3994z" glyph-name="google" horiz-adv-x="488" unicode="&#xf1a0;"/><glyph d="M201.5 142.5c-13.7998 0-24.9004 11.0996-24.9004 24.5996 0 13.8008 11.1006 24.9004 24.9004 24.9004 13.5996 0 24.5996-11.0996 24.5996-24.9004 0-13.5996-11.0996-24.5996-24.5996-24.5996zM504 192c0-137-111-248-248-248s-248 111-248 248 111 248 248 248 248-111 248-248zM371.7 233.2c-9.40039 0-17.7002-3.90039-23.7998-10-22.4004 15.5-52.6006 25.5-86.1006 26.5996l17.4004 78.2998 55.3994-12.5c0-13.5996 11.1006-24.5996 24.6006-24.5996 13.7998 0 24.8994 11.2998 24.8994 24.9004 0 13.5996-11.0996 24.8994-24.8994 24.8994-9.7002 0-18-5.7998-22.1006-13.7998l-61.1992 13.5996c-3 .800781-6.10059-1.39941-6.90039-4.39941l-19.0996-86.4004c-33.2002-1.39941-63.1006-11.2998-85.5-26.7998-6.10059 6.40039-14.7002 10.2002-24.1006 10.2002-34.8994 0-46.2998-46.9004-14.3994-62.7998-1.10059-5-1.7002-10.2002-1.7002-15.5 0-52.6006 59.2002-95.2002 132-95.2002 73.0996 0 132.3 42.5996 132.3 95.2002 0 5.2998-.599609 10.7998-1.90039 15.7998 31.3008 16 19.8008 62.5-14.8994 62.5zM302.8 117c2.2002 2.2002 6.10059 2.2002 8.2998 0 2.5-2.5 2.5-6.40039 0-8.59961-22.8994-22.8008-87.3994-22.8008-110.199 0-2.5 2.19922-2.5 6.09961 0 8.59961 2.19922 2.2002 6.09961 2.2002 8.2998 0 17.5-17.9004 75.3994-18.2002 93.5996 0zM310.5 192c13.9004 0 24.9004-11.0996 24.9004-24.9004 0-13.5-11.1006-24.5996-24.9004-24.5996-13.5 0-24.5996 11-24.5996 24.5996 0 13.8008 11 24.9004 24.5996 24.9004z" glyph-name="reddit" horiz-adv-x="512" unicode="&#xf1a1;"/><glyph d="M283.2 102.5c2.7002-2.7002 2.7002-6.7998 0-9.2002-24.5-24.5-93.7998-24.5996-118.4 0-2.7002 2.40039-2.7002 6.5 0 9.2002 2.40039 2.40039 6.5 2.40039 8.90039 0 18.7002-19.2002 81-19.5996 100.5 0 2.39941 2.2998 6.59961 2.2998 9 0zM191.9 156.3c0-14.5996-11.9004-26.5-26.5-26.5-14.9004 0-26.8008 11.9004-26.8008 26.5 0 14.9004 11.9004 26.7998 26.8008 26.7998 14.5996 0 26.5-11.8994 26.5-26.7998zM282.6 183.1c14.9004 0 26.8008-11.8994 26.8008-26.7998 0-14.5996-11.9004-26.5-26.8008-26.5-14.5996 0-26.5 11.9004-26.5 26.5 0 14.9004 11.9004 26.7998 26.5 26.7998zM448 368v-352c0-26.5-21.5-48-48-48h-352c-26.5 0-48 21.5-48 48v352c0 26.5 21.5 48 48 48h352c26.5 0 48-21.5 48-48zM348.3 227.4c-10.0996 0-19-4.2002-25.5996-10.7002-24.1006 16.7002-56.5 27.3994-92.5 28.5996l18.7002 84.2002 59.5-13.4004c0-14.5996 11.8994-26.5 26.5-26.5 14.8994 0 26.7998 12.2002 26.7998 26.8008 0 14.5996-11.9004 26.7998-26.7998 26.7998-10.4004 0-19.3008-6.2002-23.8008-14.9004l-65.6992 14.6006c-3.30078.899414-6.5-1.5-7.40039-4.80078l-20.5-92.7998c-35.7002-1.5-67.7998-12.2002-91.9004-28.8994-6.5 6.7998-15.7998 11-25.8994 11-37.5 0-49.7998-50.4004-15.5-67.5-1.2002-5.40039-1.7998-11-1.7998-16.7002 0-56.5 63.6992-102.3 141.899-102.3 78.5 0 142.2 45.7998 142.2 102.3 0 5.7002-.599609 11.5996-2.09961 17 33.5996 17.2002 21.1992 67.2002-16.1006 67.2002z" glyph-name="reddit-square" unicode="&#xf1a2;"/><glyph d="M256 440c137 0 248-111 248-248s-111-248-248-248-248 111-248 248 111 248 248 248zM256 262.5c9.7998 0 17.7998-8 17.7002-17.5996v-20.6006l22.8994-10.7002 34.1006 10.1006v23.7002c0 40.2998-34 72.5996-74.7002 72.5996-40.5 0-74.7002-32.0996-74.7002-72.0996v-108.4c0-9.90039-8-17.7998-17.7998-17.7998s-17.7998 7.7998-17.7998 17.7998v45.7998h-57.2998v-46.5c0-41.3994 33.5-74.8994 74.8994-74.8994 41 0 74.9004 33 74.9004 73.8994v106.9c0 9.7998 8 17.7998 17.7998 17.7998zM423.6 138.9c0 0 0 .5.100586 46.3994h-57.2998v-48c0-9.7002-8-17.5996-17.8008-17.5996-9.7998 0-17.7998 7.7998-17.7998 17.5996v47.1006l-34.0996-10.1006-22.9004 10.7002v-46.7998c0-41 33.7002-74.2002 74.9004-74.2002 41.3994 0 74.8994 33.5 74.8994 74.9004z" glyph-name="stumbleupon-circle" horiz-adv-x="496" unicode="&#xf1a3;"/><glyph d="M502.9 182v-69.7002c0-62.0996-50.3008-112.399-112.4-112.399-61.7998 0-112.4 49.7998-112.4 111.3v70.2002l34.3008-16 51.0996 15.1992v-70.5996c0-14.7002 12-26.5 26.7002-26.5s26.7998 11.7998 26.7998 26.5v72h85.9004zM278.2 240.2v30.8994c0 14.7002-12 26.7002-26.7002 26.7002s-26.7002-12-26.7002-26.7002v-160.3c0-61.2998-50.7998-110.8-112.399-110.8-62.1006 0-112.4 50.2998-112.4 112.3v69.7002h86v-68.5996c0-14.9004 12-26.7002 26.7002-26.7002s26.7002 11.7998 26.7002 26.7002v162.399c0 60 51.2998 108.2 112.1 108.2 61 0 112.1-48.5 112.1-109v-35.5996l-51.0996-15.2002z" glyph-name="stumbleupon" horiz-adv-x="512" unicode="&#xf1a4;"/><glyph d="M446.5 380c1-3.7998 1.5-7.90039 1.59961-12v-352.1c0-26.5-21.5-48-48-48h-352c-4.09961 0-8.19922.5-12 1.5-7.69922 2-14.5996 5.7998-20.2998 11-1.2002 1.09961-2.2998 2.19922-3.2998 3.2998-5.2002 5.7002-9 12.5996-11 20.2998-1 3.7998-1.5 7.90039-1.5 12v352c0 26.5 21.5 48 48 47.9004h352c4.09961 0 8.2002-.5 12-1.5 1.90039-.400391 3.7002-1 5.40039-1.7002 1.89941-.700195 3.69922-1.5 5.5-2.5 1.39941-.700195 2.69922-1.5 4-2.40039 1.09961-.799805 2.19922-1.59961 3.2998-2.5 2.5-2 4.7998-4.2998 6.89941-6.7998 1.7002-2.09961 3.30078-4.5 4.7002-6.90039 1.2998-2.2998 2.40039-4.59961 3.2998-7.09961.5-1.5 1-3 1.40039-4.5zM416 16v176h-192v192h-176c-8.7998 0-16-7.2002-16-16v-176h192v-192h176c8.7998 0 16 7.2002 16 16z" glyph-name="delicious" unicode="&#xf1a5;"/><glyph d="M81.7002 275.7v76.2998h51v-250.7h-132.7v174.4h81.7002zM81.7002 142.3v92.2998h-30.7998v-92.2998h30.7998zM378.9 275.7h133.1v-243.7h-133.1v40.7998h81.7998v28.5h-81.7998v174.4zM460.7 142.3v92.2998h-30.7998v-92.2998h30.7998zM225.1 101.3v174.4h133.301v-243.7h-133.301v40.7998h82.1006v28.5h-82.1006zM276.3 234.6v-92.2998h30.7998v92.2998h-30.7998zM153.3 352h51.2998v-51h-51.2998v51zM153.3 275.7h51.2998v-174.4h-51.2998v174.4z" glyph-name="digg" horiz-adv-x="512" unicode="&#xf1a6;"/><glyph d="M205.3 273.4c0-21.1006-14.2002-38.1006-31.7002-38.1006-7.09961 0-12.7998 1.2002-17.1992 3.7002v68c4.39941 2.7002 10.0996 4.2002 17.1992 4.2002 17.5 0 31.7002-16.9004 31.7002-37.7998zM257.9 206.4c17.3994 0 31.6992-17 31.6992-38.1006 0-20.8994-14.2998-37.7998-31.6992-37.7998-7.10059 0-12.8008 1.2002-17.2002 3.7002v68c4.39941 2.7002 10.0996 4.2002 17.2002 4.2002zM448 368v-352c0-26.5-21.5-48-48-48h-352c-26.5 0-48 21.5-48 48v352c0 26.5 21.5 48 48 48h352c26.5 0 48-21.5 48-48zM185 192.9c41 0 74.2002 35.5996 74.2002 79.5996s-33.2002 79.5996-74.2002 79.5996c-12 0-24.0996-3.19922-34.5996-8.7998h-45.7002v-206.3l51.7998 10.0996v50.6006c8.59961-3.10059 18.0996-4.7998 28.5-4.7998zM343.4 167.6c0 44-33.2002 79.6006-73.9004 79.6006-3.2002 0-6.40039-.200195-9.59961-.700195-3.7002-12.5-10.1006-23.7998-19.2002-33.4004-13.7998-15-32.2002-23.7998-51.7998-24.7998v-156.3l51.7998 10.0996v50.6006c8.59961-3.2002 18.2002-4.7002 28.7002-4.7002 40.7998 0 74 35.5996 74 79.5996z" glyph-name="pied-piper-pp" unicode="&#xf1a7;"/><glyph d="M244 202l-27.7002-5.7002-1.7002 4.90039c6.7002.5 12.7002 3.7002 19.3008 3.7002 3.7998 0 6.89941-.900391 10.0996-2.90039zM379.9 4.09961c9.5 0 28.1992-45.0996 33-55.0996-35.9004-13.4004-70.3008-15.9004-106-9.7998l-6.90039 45.0996c15.7998 10.2998 60.9004 19.7998 79.9004 19.7998zM340.8 271c-7.59961 3.5-63.8994 6.40039-98.7998-10 6.2998 11.7998 13.2002 17 25.9004 21.7998 27.2998 10.2998 40.1992 30.5 58.8994 51.1006 11.9004-8.40039 12-24.6006 31.6006-23v-21.8008l6.2998-.299805c37.3994 14.4004 74.7002 30.2002 106.6 54.6006 48.2998 36.7998 52.9004 50 81.2998 100l2 2.59961c-.599609-14.0996-6.2998-27.2998-12.3994-39.9004-30.5-63.7998-78.7002-100.3-146.8-116.699-12.4004-2.90039-26.4004-3.2002-37.6006-8.90039 1.40039-9.7998 13.2002-18.0996 13.2002-23 0-3.40039-5.5-7.2002-7.5-8.59961-11.2002 12.8994-16.0996 19.2998-22.7002 22.0996zM555.5 448l-.299805-1.40039-.600586-.599609.300781.900391zM496.3 65.9004c20.1006-34.2002 43.7002-54.3008 72.7002-79.9004-31-19.2998-70.4004-32.2002-103.5-47.2002-55.2002 46.2998-23 229.9-111.5 229.9-3.5-.700195-2.40039-.299805-4.59961-1.7002 1.09961-1.40039 2.59961-2.90039 3.69922-4 23.9004-20.0996 33.4004-24.4004 34.8008-58.5996l.299805-9.5c.799805-21.6006-5.5-42.5-9.7998-63.5-25.9004.699219-51.2002-11-77.9004-2.90039-.700195 5.90039-1.09961 30.9004.299805 41.0996 1.40039 9.5 33.6006 29.9004 33 43.7002-5.5.600586-9.2002-2.59961-12.3994-6.89941-13.3008-19.5-47.2002-41.9004-71.3008-41.9004-16.5996 0-56.2998 71.5-76.3994 85.9004-3.2002 2.2998-5.2002 5.39941-7.7998 8.59961-16.1006-3.7998-139.4-32.2002-147.4-32.2002-6 0-11.5 4.90039-11.5 10.9004 0 5.5 3.40039 10.7002 8.90039 11.7998l139.6 30.4004c-9.5 17.1992 12.2998 17.5 21.5 20.0996 3.2002.799805 6.2998 4 9.5 4 6.2998 0 11.7998-8.90039 13.7998-14.0996 6.2998 1.39941 45.7002 10.5996 49.4004 10.5996 15.2002 0 15.8994-20.0996 2.89941-22.7002l-52.2998-11.5-.299805-4.59961c-.299805-10.1006 45.4004-60.1006 53.4004-60.1006 18.0996 0 54.8994 41.7002 54.8994 60.1006 0 30.7002-42.7998 12.5996-42.7998 33.5996 0 3.5 1.2002 6.60059 2.90039 9.7998l-19.5 5.5c13.0996 13.6006 13.7998 31.7002 10.8994 50.3008 14.7002 2.89941 26.7002 4.59961 41.4004 4.59961 56.8994 0 45.7002-8.59961 65.5-54.2998l14.3994 7.2002c-2.2998-34.2002-36.1992-17.5-35.0996-31l.299805-6c74.7002 2.89941 116.101-58.6006 150-115.5zM300.1 19.7998h8.90039l2.90039-23.7998-11.8008-3.40039v27.2002zM231.4 170.2l13.7998 3.5 31.2998-50.9004-21-13.7998zM315.8 15.2998c22.6006 2.5 32.7002 6.2998 59.5 6.2998.299805-1.39941.900391-3.19922.900391-4.59961 0-7.5-49.4004-12.5996-58.4004-14.0996z" glyph-name="pied-piper-alt" horiz-adv-x="576" unicode="&#xf1a8;"/><glyph d="M319.5 333.3c13.5-8.2998 96.5-67 96.5-179.3 0-112-88.5-186-190.2-186-102 0-193.8 80.2998-193.8 189.5 0 109 85 167.5 100.8 175.8 18.7002 10.1006 32.2002 15.2998 53.5 32.2998 10.5 8.30078 19.2998 20.2002 22 49.5 15.2002-18.2998 33.5-39.5 46.5-48.2998 21.2002-14 42.5-19.5 64.7002-33.5zM322 7.7002c4.2002 4.2002 1.90039 13.0996-4.2002 8.5-8.5-6.2998-27.5-14-54.5-14-34.5 0-51.5 13.2998-51.5 13.2998-6.2002 0-11.2998-7.2002-6.5-12 26.6006-24.5 96.6006-15.9004 116.7 4.2002zM267.5 60.2998c-6.5-2.7002-28.4004-16.7998-22.4004-25 2.40039-3.2998 5.2002-1.2998 12.2002 4.7002 7.2002 5.7998 12 11 26.7002 11 25.2998 0 18.0996-19.9004 26.5-15.7002 9.90039 4.90039-2.09961 20.9004-6.2002 23.7002-7.7998 5.09961-28.0996 4.90039-36.7998 1.2998zM360 43c39.0996-3.2998 64.5 106 15.7998 106-20 0-60.5-41.5-81.7998-41.7998-24.7002-.5-59 49-108.5 48.5-66.4004-.400391-90.5996-78.6006-51.7998-105.2 57.2002-38.7002 130.399 42.9004 161.3 42 19.5-.700195 49.7998-48.5 65-49.5z" glyph-name="drupal" unicode="&#xf1a9;"/><glyph d="M.599609 355.9c0 33.2998 26.8008 60.0996 59.8008 60.0996 30 0 54.5-21.9004 59.1992-50.2002 32.6006 7.60059 67.1006-.599609 96.5-30l-44.2998-44.2998c-20.5 20.5-42.5996 16.2998-55.3994 3.5-14.3008-14.2998-14.3008-37.9004 0-52.2002l99.5-99.5-44-44.2998c-87.7002 87.2002-49.7002 49.7002-99.8008 99.7002-26.7998 26.5-35 64.7998-24.7998 98.8994-26.8994 5.80078-46.7002 29.7002-46.7002 58.3008zM130.1 239.5c28.5 28.4004 81.3008 80.7998 99.6006 99.9004 26.5996 26.5996 64.5 35 98.2998 25.0996 4.09961 29.0996 29.2002 51.5996 59.5 51.5996 33 0 59.7998-26.8994 59.7998-60.0996 0-30.2998-22.7002-55.4004-51.8994-59.5 9.59961-33.5996 2.2998-70-28.9004-101.2l-44 44.2998c20.5 20.4004 16.2998 42.6006 3.5 55.4004-14.2998 14.2998-37.5996 14.2998-51.9004 0-10-10.0996-89.6992-89.7998-99.6992-99.7998zM396.4 87.2998c29.0996-4.09961 51.5996-28.8994 51.5996-59.0996 0-33.2998-26.7998-60.1006-59.7998-60.1006-29.2002 0-53.4004 20.7002-58.9004 48.1006-34.7002-10.7998-75.0996-2.2002-102.7 28l44 44.2998c20.4004-20.5 42.6006-16.2998 55.4004-3.5 14.2998 14.2998 14.2998 37.5996 0 51.9004l-99.7002 99.6992 44.2998 44.3008c104.5-104.4 87.7002-87.5 99.5-99.7002 25.4004-25.4004 34.5-61.2002 26.3008-93.9004zM312.1 140.4c-87.2998-87.3008-67.3994-67.7002-99.5-99.7002-25.6992-25.4004-61.5-34.2002-94.1992-26-6.10059-26.9004-30-46.7002-58.6006-46.7002-33 0-59.7998 26.7998-59.7998 60.0996 0 28.3008 19.5 52.2002 46.2002 58.2002-8.5 33.1006-.700195 68.1006 29.5 98.2998l44-44.2998c-20.1006-20.0996-16.2998-42-3.2002-55.3994 14.2998-14.3008 37.5996-14.3008 51.9004 0 49.2998 49.3994 12.6992 13.3994 99.6992 99.7998z" glyph-name="joomla" unicode="&#xf1aa;"/><glyph d="M232 210.8c43.5996-12.2998 64.7002-45.2002 64.7002-89.7002 0-72-60.5-102.899-124.9-102.899h-171.8v354.399h167.1c60.7002 0 113.301-17.1992 113.301-87.7998 0-35.7998-16.6006-58.7998-48.4004-74zM77.9004 312.1v-82.6992h79c27.7998 0 47.5 12.0996 47.5 42.1992 0 32.6006-25.3008 40.5-53.4004 40.5h-73.0996zM161.2 78.4004c31.7002 0 57.5996 11.1992 57.5996 47 0 36.2998-21.7002 50.5996-56 50.5996h-84.8994v-97.5996h83.2998zM519.7 319.1h-143.7v34.9004h143.7v-34.9004zM576 142.8c0-4.5-.299805-9-.599609-13.2002h-185.101c0-41.0996 21.7002-65.2998 63-65.2998 21.4004 0 49 11.6006 55.7002 33.5h62.2002c-19.1006-58.7002-58.7998-86.2998-120.101-86.2998-81 0-131.3 54.7998-131.3 134.7 0 77 53.1006 135.8 131.3 135.8 80.5 0 124.9-63.2998 124.9-139.2zM390.4 174h114.699c-3 34-20.7998 54.7998-56.1992 54.7998-33.8008 0-56.2002-21.0996-58.5-54.7998z" glyph-name="behance" horiz-adv-x="576" unicode="&#xf1b4;"/><glyph d="M186.5 155c0-19.2998-14-25.4004-31.2002-25.4004h-45.0996v52.9004h46c18.5996-.0996094 30.2998-7.7998 30.2998-27.5zM178.8 237.3c0-16.2998-10.7002-22.8994-25.7998-22.8994h-42.7002v44.7998h39.6006c15.1992 0 28.8994-4.2002 28.8994-21.9004zM311.1 214.1c19.2002 0 28.8008-11.1992 30.5-29.6992h-62.1992c1.19922 18.2998 13.3994 29.6992 31.6992 29.6992zM448 368v-352c0-26.5-21.5-48-48-48h-352c-26.5 0-48 21.5-48 48v352c0 26.5 21.5 48 48 48h352c26.5 0 48-21.5 48-48zM271.7 263h77.7998v18.9004h-77.7998v-18.9004zM228.7 152.7c0 24.0996-11.4004 44.8994-35 51.5996 17.2002 8.2002 26.2002 17.7002 26.2002 37 0 38.2002-28.5 47.5-61.4004 47.5h-90.5v-192h93.0996c34.9004.200195 67.6006 16.9004 67.6006 55.9004zM380 167.5c0 41.0996-24.0996 75.4004-67.5996 75.4004-42.4004 0-71.1006-31.8008-71.1006-73.6006 0-43.2998 27.2998-73 71.1006-73 33.1992 0 54.6992 14.9004 65.0996 46.7998h-33.7002c-3.7002-11.8994-18.5996-18.0996-30.2002-18.0996-22.3994 0-34.0996 13.0996-34.0996 35.2998h100.2c.0996094 2.2998.299805 4.7998.299805 7.2002z" glyph-name="behance-square" unicode="&#xf1b5;"/><glyph d="M496 192c0-137-111.2-248-248.4-248-113.8 0-209.6 76.2998-239 180.4l95.2002-39.3008c6.40039-32.0996 34.9004-56.3994 68.9004-56.3994 39.2002 0 71.8994 32.3994 70.2002 73.5l84.5 60.2002c52.0996-1.30078 95.7998 40.8994 95.7998 93.5 0 51.5996-42 93.5-93.7002 93.5s-93.7002-42-93.7002-93.5v-1.2002l-59.2002-85.7002c-15.5.900391-30.6992-3.40039-43.5-12.0996l-133.1 55c10.2002 127.699 117.1 228.1 247.6 228.1 137.2 0 248.4-111 248.4-248zM155.7 63.7002c19.7998-8.2002 42.5 1.09961 50.7998 21 8.2998 19.7998-1.09961 42.5-20.9004 50.7002l-31.5 13c12.2002 4.59961 26 4.7998 38.9004-.600586 13-5.39941 23.0996-15.5996 28.5-28.5996s5.2998-27.2998-.0996094-40.2998c-11.2002-26.8008-42.1006-39.6006-69-28.4004-11.9453 4.99414-21.6055 14.1826-27.2002 25.7998zM329.5 193.6c-34.4004 0-62.4004 28-62.4004 62.3008 0 34.2998 28 62.2998 62.4004 62.2998s62.4004-28 62.4004-62.2998c0-34.3008-27.9004-62.3008-62.4004-62.3008zM329.6 209.2c25.9004 0 46.9004 21 46.9004 46.7998 0 25.9004-21 46.7998-46.9004 46.7998-25.8994 0-46.8994-21-46.8994-46.7998.0996094-25.7998 21.0996-46.7998 46.8994-46.7998z" glyph-name="steam" horiz-adv-x="496" unicode="&#xf1b6;"/><glyph d="M185.2 91.5c7.7002 18.5-1 39.7002-19.6006 47.4004l-29.5 12.1992c11.4004 4.30078 24.3008 4.5 36.4004-.5 12.2002-5.09961 21.5996-14.5996 26.7002-26.6992 5-12.2002 5-25.6006-.100586-37.7002-10.5-25.1006-39.3994-37-64.5996-26.5-11.5996 4.7998-20.4004 13.5996-25.4004 24.2002l28.5-11.8008c18.6006-7.7998 39.9004.900391 47.6006 19.4004zM400 416c26.5 0 48-21.5 48-48v-352c0-26.5-21.5-48-48-48h-352c-26.5 0-48 21.5-48 48v112.8l89.0996-36.8994c6-30 32.7002-52.7002 64.5-52.7002 36.6006 0 67.3008 30.2998 65.7002 68.7998l79 56.2998c48.7002-1.2002 89.6006 38.2998 89.6006 87.5 0 48.2002-39.3008 87.5-87.6006 87.5s-87.5996-39.2998-87.5996-87.5v-1.09961l-55.4004-80.2002c-14.5.799805-28.7002-3.09961-40.7002-11.2998l-116.6 48.0996v160.7c0 26.5 21.5 48 48 48h352zM300.3 193.5c-32.2002 0-58.3994 26.0996-58.3994 58.2998s26.1992 58.2998 58.3994 58.2998 58.4004-26.1992 58.4004-58.2998c0-32.0996-26.2002-58.2998-58.4004-58.2998zM300.4 208.1c24.1992 0 43.8994 19.6006 43.8994 43.8008 0 24.1992-19.5996 43.7998-43.8994 43.7998-24.2002 0-43.9004-19.6006-43.9004-43.7998 0-24.2002 19.7002-43.8008 43.9004-43.8008z" glyph-name="steam-square" unicode="&#xf1b7;"/><glyph d="M248 440c136.9 0 248-111.1 248-248s-111.1-248-248-248-248 111.1-248 248 111.1 248 248 248zM348.7 75.0996c8.09961 0 15.2002 6.30078 15.2002 15.4004s-3.60059 12.5996-9.7002 16.5c-71.4004 42.7002-155.101 44.2998-237 26.2002-7.5-1.60059-13.6006-6.5-13.6006-16.7998 0-8.10059 6.10059-15.8008 15.8008-15.8008 2.89941 0 8 1.60059 11.8994 2.60059 71.7002 14.7002 144.3 13.0996 206.7-24.5 3.90039-2.2998 6.5-3.60059 10.7002-3.60059zM375.6 140.7c10.9004 0 19.3008 8.7002 19.4004 19.5 0 8.7002-3.2002 14.8994-11.2998 19.7002-49.4004 29.3994-112.101 45.5-177 45.5-41.6006 0-70-5.80078-97.7998-13.6006-10.3008-2.89941-15.5-10-15.5-20.7002 0-10.6992 8.69922-19.3994 19.3994-19.3994 4.5 0 7.10059 1.2998 11.9004 2.59961 82.8994 22.5 176.1 7.60059 238.6-29.3994 3.60059-1.90039 7.10059-4.2002 12.2998-4.2002zM406.6 216.9c12.2002 0 23.2002 9.69922 23.2002 23.2998 0 11.8994-5.09961 18.0996-12.8994 22.5996-55.9004 32.6006-132.4 47.7998-205.4 47.7998-42.9004 0-82.2998-4.89941-117.5-15.1992-9-2.60059-17.4004-10.3008-17.4004-23.9004 0-13.2998 10.1006-23.5996 23.3008-23.5996 4.7998 0 9.2998 1.59961 12.8994 2.59961 82.4004 23 209.7 12.7998 280.9-29.7002 4.5-2.59961 7.7002-3.89941 12.8994-3.89941z" glyph-name="spotify" horiz-adv-x="496" unicode="&#xf1bc;"/><glyph d="M320 354.8l-98.2002-179.1 7.40039-9.5h90.7998v-127.7h-160.9l-13.5-9.2002-43.6992-84c-.300781 0-8.60059-8.59961-9.2002-9.2002h-92.7002v93.2002l93.2002 179.4-7.40039 9.2002h-85.7998v127.6h156l13.5 9.2002 43.7002 84c.299805 0 8.59961 8.59961 9.2002 9.2002h97.5996v-93.1006z" glyph-name="deviantart" horiz-adv-x="320" unicode="&#xf1bd;"/></font>
</defs>
</svg>
